<?xml version="1.0" standalone="no"?>
<!DOCTYPE svg PUBLIC "-//W3C//DTD SVG 1.1//EN" "http://www.w3.org/Graphics/SVG/1.1/DTD/svg11.dtd" >
<svg>
<metadata>
Created by FontForge 20090914 at Tue Oct  1 18:21:35 2013
 By www-data
Copyright 2011 Canonical Ltd.  Licensed under the Ubuntu Font Licence 1.0
</metadata>
<defs>
<font id="Ubuntu-MediumItalic" horiz-adv-x="563" >
  <font-face 
    font-family="Ubuntu Light"
    font-weight="500"
    font-style="italic"
    font-stretch="normal"
    units-per-em="1000"
    panose-1="2 11 5 4 3 6 2 10 2 4"
    ascent="800"
    descent="-200"
    x-height="523"
    cap-height="693"
    bbox="-168 -205.004 3591 967.002"
    underline-thickness="20"
    underline-position="-113"
    slope="-13"
    unicode-range="U+0008-U+FB04"
  />
<missing-glyph horiz-adv-x="500" 
d="M50 0v750h400v-750h-400zM400 50v650h-300v-650h300z" />
    <glyph glyph-name="f_f" unicode="ff" horiz-adv-x="784" 
d="M718 523l175.002 -0.000976562l-24 -100h-175l-75 -313c-8.66699 -36 -16.834 -68 -24.501 -96s-16.5 -53.667 -26.5 -77s-21.833 -45.166 -35.5 -65.499s-30.834 -40.5 -51.501 -60.5l-105 16c12.667 16 24.5 32.167 35.5 48.5s21 33.666 30 51.999s17.333 38.333 25 60
s14.5 45.834 20.5 72.501l119 500c8 34 18.833 64.5 32.5 91.5s30.667 49.667 51 68s44.666 32.333 72.999 42s61.166 14.5 98.499 14.5c26.667 0 50.834 -2.83301 72.501 -8.5s38.167 -11.167 49.5 -16.5l-44 -95c-8.66699 4 -20.167 7.83301 -34.5 11.5
s-31.166 5.5 -50.499 5.5c-20 0 -37 -2.83301 -51 -8.5s-26 -13.5 -36 -23.5s-18.167 -22.167 -24.5 -36.5s-11.5 -29.833 -15.5 -46.5zM322.002 522.999l175.002 -0.000976562l-24 -100h-175l-75 -313c-8.66699 -36 -16.834 -68 -24.501 -96s-16.5 -53.667 -26.5 -77
s-21.833 -45.166 -35.5 -65.499s-30.834 -40.5 -51.501 -60.5l-105 16c12.667 16 24.5 32.167 35.5 48.5s21 33.666 30 51.999s17.333 38.333 25 60s14.5 45.834 20.5 72.501l119 500c8 34 18.833 64.5 32.5 91.5s30.667 49.667 51 68s44.666 32.333 72.999 42
s61.166 14.5 98.499 14.5c26.667 0 50.834 -2.83301 72.501 -8.5s38.167 -11.167 49.5 -16.5l-44 -95c-8.66699 4 -20.167 7.83301 -34.5 11.5s-31.166 5.5 -50.499 5.5c-20 0 -37 -2.83301 -51 -8.5s-26 -13.5 -36 -23.5s-18.167 -22.167 -24.5 -36.5
s-11.5 -29.833 -15.5 -46.5z" />
    <glyph glyph-name="f_i" unicode="fi" horiz-adv-x="667" 
d="M589 0h-120l125 523h121zM679 602c-18 0 -33.667 5.33398 -47 16.001s-20 26.667 -20 48c0 24.667 8.5 45 25.5 61s36.5 24 58.5 24c18 0 33.833 -5.5 47.5 -16.5s20.5 -27.167 20.5 -48.5c0 -24.667 -8.66699 -44.834 -26 -60.501s-37 -23.5 -59 -23.5zM322 523.001
l175.004 -0.00195312l-24 -100h-175l-75 -313c-8.66699 -36 -16.834 -68 -24.501 -96s-16.5 -53.667 -26.5 -77s-21.833 -45.166 -35.5 -65.499s-30.834 -40.5 -51.501 -60.5l-105 16c12.667 16 24.5 32.167 35.5 48.5s21 33.666 30 51.999s17.333 38.333 25 60
s14.5 45.834 20.5 72.501l119 500c8 34 18.833 64.5 32.5 91.5s30.667 49.667 51 68s44.666 32.333 72.999 42s61.166 14.5 98.499 14.5c23.333 0 44.333 -2.16699 63 -6.5s33.667 -9.16602 45 -14.499l-45 -95c-6 2 -14.667 4.66699 -26 8s-26 5 -44 5
c-20 0 -37 -2.83301 -51 -8.5s-26 -13.5 -36 -23.5s-18.167 -22.167 -24.5 -36.5s-11.5 -29.833 -15.5 -46.5z" />
    <glyph glyph-name="f_l" unicode="fl" horiz-adv-x="686" 
d="M661 -10c-31.333 0.666992 -57.834 4.66699 -79.501 12s-39 17.333 -52 30s-22.333 27.667 -28 45s-8.5 36.333 -8.5 57c0 21.333 2.5 43.833 7.5 67.5s10.5 47.167 16.5 70.5l116 484l126 20l-62 -260.5l-63 -260.5l-10 -41.5
c-3.33301 -13.667 -5.66602 -27.167 -6.99902 -40.5c-1.33301 -11.333 -1.5 -21.833 -0.5 -31.5s4 -18 9 -25s12.5 -12.833 22.5 -17.5s23 -7.66699 39 -9zM321.999 523l175.004 -0.00195312l-24 -100h-175l-75 -313c-8.66699 -36 -16.834 -68 -24.501 -96
s-16.5 -53.667 -26.5 -77s-21.833 -45.166 -35.5 -65.499s-30.834 -40.5 -51.501 -60.5l-105 16c12.667 16 24.5 32.167 35.5 48.5s21 33.666 30 51.999s17.333 38.333 25 60s14.5 45.834 20.5 72.501l119 500c8 34 18.833 64.5 32.5 91.5s30.667 49.667 51 68
s44.666 32.333 72.999 42s61.166 14.5 98.499 14.5c23.333 0 44.333 -2.16699 63 -6.5s33.667 -9.16602 45 -14.499l-45 -95c-6 2 -14.667 4.66699 -26 8s-26 5 -44 5c-20 0 -37 -2.83301 -51 -8.5s-26 -13.5 -36 -23.5s-18.167 -22.167 -24.5 -36.5
s-11.5 -29.833 -15.5 -46.5z" />
    <glyph glyph-name="f_f_i" unicode="ffi" horiz-adv-x="1063" 
d="M322 523l175.002 -0.000976562l-24 -100h-175l-75 -313c-8.66699 -36 -16.834 -68 -24.501 -96s-16.5 -53.667 -26.5 -77s-21.833 -45.166 -35.5 -65.499s-30.834 -40.5 -51.501 -60.5l-105 16c12.667 16 24.5 32.167 35.5 48.5s21 33.666 30 51.999s17.333 38.333 25 60
s14.5 45.834 20.5 72.501l119 500c8 34 18.833 64.5 32.5 91.5s30.667 49.667 51 68s44.666 32.333 72.999 42s61.166 14.5 98.499 14.5c26.667 0 50.834 -2.83301 72.501 -8.5s38.167 -11.167 49.5 -16.5l-44 -95c-8.66699 4 -20.167 7.83301 -34.5 11.5
s-31.166 5.5 -50.499 5.5c-20 0 -37 -2.83301 -51 -8.5s-26 -13.5 -36 -23.5s-18.167 -22.167 -24.5 -36.5s-11.5 -29.833 -15.5 -46.5zM985.002 -0.000976562h-120l125 523h121zM1075 601.999c-18 0 -33.667 5.33398 -47 16.001s-20 26.667 -20 48c0 24.667 8.5 45 25.5 61
s36.5 24 58.5 24c18 0 33.833 -5.5 47.5 -16.5s20.5 -27.167 20.5 -48.5c0 -24.667 -8.66699 -44.834 -26 -60.501s-37 -23.5 -59 -23.5zM718.002 523l175.004 -0.00195312l-24 -100h-175l-75 -313c-8.66699 -36 -16.834 -68 -24.501 -96s-16.5 -53.667 -26.5 -77
s-21.833 -45.166 -35.5 -65.499s-30.834 -40.5 -51.501 -60.5l-105 16c12.667 16 24.5 32.167 35.5 48.5s21 33.666 30 51.999s17.333 38.333 25 60s14.5 45.834 20.5 72.501l119 500c8 34 18.833 64.5 32.5 91.5s30.667 49.667 51 68s44.666 32.333 72.999 42
s61.166 14.5 98.499 14.5c23.333 0 44.333 -2.16699 63 -6.5s33.667 -9.16602 45 -14.499l-45 -95c-6 2 -14.667 4.66699 -26 8s-26 5 -44 5c-20 0 -37 -2.83301 -51 -8.5s-26 -13.5 -36 -23.5s-18.167 -22.167 -24.5 -36.5s-11.5 -29.833 -15.5 -46.5z" />
    <glyph glyph-name="f_f_l" unicode="ffl" horiz-adv-x="1082" 
d="M322 523l175.002 -0.000976562l-24 -100h-175l-75 -313c-8.66699 -36 -16.834 -68 -24.501 -96s-16.5 -53.667 -26.5 -77s-21.833 -45.166 -35.5 -65.499s-30.834 -40.5 -51.501 -60.5l-105 16c12.667 16 24.5 32.167 35.5 48.5s21 33.666 30 51.999s17.333 38.333 25 60
s14.5 45.834 20.5 72.501l119 500c8 34 18.833 64.5 32.5 91.5s30.667 49.667 51 68s44.666 32.333 72.999 42s61.166 14.5 98.499 14.5c26.667 0 50.834 -2.83301 72.501 -8.5s38.167 -11.167 49.5 -16.5l-44 -95c-8.66699 4 -20.167 7.83301 -34.5 11.5
s-31.166 5.5 -50.499 5.5c-20 0 -37 -2.83301 -51 -8.5s-26 -13.5 -36 -23.5s-18.167 -22.167 -24.5 -36.5s-11.5 -29.833 -15.5 -46.5zM1057 -10.001c-31.333 0.666992 -57.834 4.66699 -79.501 12s-39 17.333 -52 30s-22.333 27.667 -28 45s-8.5 36.333 -8.5 57
c0 21.333 2.5 43.833 7.5 67.5s10.5 47.167 16.5 70.5l116 484l126 20l-62 -260.5l-63 -260.5l-10 -41.5c-3.33301 -13.667 -5.66602 -27.167 -6.99902 -40.5c-1.33301 -11.333 -1.5 -21.833 -0.5 -31.5s4 -18 9 -25s12.5 -12.833 22.5 -17.5s23 -7.66699 39 -9z
M718.001 522.999l175.004 -0.00195312l-24 -100h-175l-75 -313c-8.66699 -36 -16.834 -68 -24.501 -96s-16.5 -53.667 -26.5 -77s-21.833 -45.166 -35.5 -65.499s-30.834 -40.5 -51.501 -60.5l-105 16c12.667 16 24.5 32.167 35.5 48.5s21 33.666 30 51.999
s17.333 38.333 25 60s14.5 45.834 20.5 72.501l119 500c8 34 18.833 64.5 32.5 91.5s30.667 49.667 51 68s44.666 32.333 72.999 42s61.166 14.5 98.499 14.5c23.333 0 44.333 -2.16699 63 -6.5s33.667 -9.16602 45 -14.499l-45 -95c-6 2 -14.667 4.66699 -26 8s-26 5 -44 5
c-20 0 -37 -2.83301 -51 -8.5s-26 -13.5 -36 -23.5s-18.167 -22.167 -24.5 -36.5s-11.5 -29.833 -15.5 -46.5z" />
    <glyph glyph-name=".notdef" horiz-adv-x="500" 
d="M50 0v750h400v-750h-400zM400 50v650h-300v-650h300z" />
    <glyph glyph-name=".null" horiz-adv-x="0" 
 />
    <glyph glyph-name=".null" horiz-adv-x="0" 
 />
    <glyph glyph-name=".null" horiz-adv-x="0" 
 />
    <glyph glyph-name="nonmarkingreturn" unicode="&#x9;" horiz-adv-x="237" 
 />
    <glyph glyph-name="nonmarkingreturn" unicode="&#xd;" horiz-adv-x="237" 
 />
    <glyph glyph-name="space" unicode=" " horiz-adv-x="237" 
 />
    <glyph glyph-name="exclam" unicode="!" horiz-adv-x="274" 
d="M321 509c-5.33301 -22 -11.5 -45.499 -18.5 -70.499s-14.5 -50.5 -22.5 -76.5s-16.333 -51.333 -25 -76s-17 -47.334 -25 -68.001h-85c5.33301 46.667 11.333 93.167 18 139.5s16.667 96.833 30 151.5l44 184h128zM159 146.001c21.333 0 38.667 -6 52 -18
s20 -29.667 20 -53c0 -13.333 -2.5 -25.5 -7.5 -36.5s-11.5 -20.333 -19.5 -28s-17.167 -13.5 -27.5 -17.5s-20.833 -6 -31.5 -6c-21.333 0 -38.5 5.83301 -51.5 17.5s-19.5 29.167 -19.5 52.5c0 28 8.66699 49.833 26 65.5s37 23.5 59 23.5z" />
    <glyph glyph-name="quotedbl" unicode="&#x22;" horiz-adv-x="455" 
d="M550 760l-14.999 -62c-8 -32 -18.5 -66.833 -31.5 -104.5s-27.167 -74.5 -42.5 -110.5h-77c0.666992 15.333 2 32.166 4 50.499s4.16699 37 6.5 56s5.16602 37.833 8.49902 56.5s7 36.334 11 53.001l15 61h121zM356.001 760l-14.999 -62
c-8 -32 -18.5 -66.833 -31.5 -104.5s-27.167 -74.5 -42.5 -110.5h-77c0.666992 15.333 2 32.166 4 50.499s4.16699 37 6.5 56s5.16602 37.833 8.49902 56.5s7 36.334 11 53.001l15 61h121z" />
    <glyph glyph-name="numbersign" unicode="#" horiz-adv-x="656" 
d="M405 176h-133l-75 -176h-106l74 176h-77l23 95h94l64 151h-122l23 94h139l75 177h106l-75 -177h134l75 177h106l-75 -177h77l-23 -94h-93l-65 -151h122l-23 -95h-138l-75 -176h-106zM311 271h134l65 151h-134z" />
    <glyph glyph-name="dollar" unicode="$" horiz-adv-x="568" 
d="M285 112c16.667 0 33.3311 1.32812 49.998 3.99512s31.667 7.33398 45 14.001s24.166 16 32.499 28s12.5 27.667 12.5 47c0 24 -9.5 43.167 -28.5 57.5s-42.833 28.166 -71.5 41.499c-40 19.333 -72.333 42.833 -97 70.5s-37 62.834 -37 105.501c0 22.667 4 44.5 12 65.5
s20.333 39.667 37 56s37.334 30 62.001 41s53.667 18.5 87 22.5l27 111h104l-28 -111c27.333 -4 51.833 -10.5 73.5 -19.5s39.167 -17.833 52.5 -26.5l-51 -87c-14.667 10.667 -33.5 19.5 -56.5 26.5s-48.5 10.5 -76.5 10.5c-16.667 0 -32.5 -1.66699 -47.5 -5
s-28 -8.16602 -39 -14.499s-19.833 -14.666 -26.5 -24.999s-10 -22.5 -10 -36.5c0 -12 1.66699 -22.167 5 -30.5s8.83301 -16.166 16.5 -23.499s17.334 -14.5 29.001 -21.5s25.834 -14.833 42.501 -23.5c18.667 -9.33301 36.667 -19.166 54 -29.499s32.5 -22.333 45.5 -36
s23.333 -29.334 31 -47.001s11.5 -38.5 11.5 -62.5c0 -30 -5 -56.667 -15 -80s-24.167 -43.166 -42.5 -59.499s-40.333 -29.5 -66 -39.5s-54.167 -16.667 -85.5 -20l-30 -124h-103l30 126c-17.333 2 -33.833 4.83301 -49.5 8.5s-30.167 8 -43.5 13s-25 10 -35 15
s-18 9.5 -24 13.5l52 91c6.66699 -4.66699 15.167 -9.66699 25.5 -15s22 -10.333 35 -15s27.167 -8.5 42.5 -11.5s31.333 -4.5 48 -4.5z" />
    <glyph glyph-name="percent" unicode="%" horiz-adv-x="877" 
d="M301 411c14.667 0 28.165 4.16699 40.498 12.5s22.833 19.5 31.5 33.5s15.334 30 20.001 48s7 36.667 7 56c0 20.667 -4.16699 37 -12.5 49s-21.833 18 -40.5 18c-15.333 0 -29 -4.33301 -41 -13s-22.5 -20 -31.5 -34s-15.833 -30.167 -20.5 -48.5s-7 -36.833 -7 -55.5
c0 -20 4.33301 -36 13 -48s22.334 -18 41.001 -18zM732.998 693h120l-554 -693h-119zM352.998 708c42 0 75.667 -11.6689 101 -35.002s38 -58.666 38 -105.999c0 -33.333 -5 -64.333 -15 -93s-24 -53.667 -42 -75s-39.167 -38.166 -63.5 -50.499s-50.5 -18.5 -78.5 -18.5
c-42 0 -75.5 11.833 -100.5 35.5s-37.5 59.167 -37.5 106.5c0 32.667 5 63.5 15 92.5s24 54 42 75s39 37.667 63 50s50 18.5 78 18.5zM686.998 64.998c14.667 0 28.165 4.16699 40.498 12.5s22.833 19.5 31.5 33.5s15.334 30 20.001 48s7 36.667 7 56
c0 20.667 -4.16699 37 -12.5 49s-21.833 18 -40.5 18c-15.333 0 -29 -4.33301 -41 -13s-22.5 -20 -31.5 -34s-15.833 -30.167 -20.5 -48.5s-7 -36.833 -7 -55.5c0 -20 4.33301 -36 13 -48s22.334 -18 41.001 -18zM738.996 361.998c42 0 75.667 -11.6689 101 -35.002
s38 -58.666 38 -105.999c0 -33.333 -5 -64.333 -15 -93s-24 -53.667 -42 -75s-39.167 -38.166 -63.5 -50.499s-50.5 -18.5 -78.5 -18.5c-42 0 -75.5 11.833 -100.5 35.5s-37.5 59.167 -37.5 106.5c0 32.667 5 63.5 15 92.5s24 54 42 75s39 37.667 63 50s50 18.5 78 18.5z
" />
    <glyph glyph-name="ampersand" unicode="&#x26;" horiz-adv-x="652" 
d="M272 -9c-26 0 -51.001 3.16895 -75.001 9.50195s-45 16.166 -63 29.499s-32.333 30.5 -43 51.5s-16 46.167 -16 75.5c0 28 4.33301 53.167 13 75.5s21 42.5 37 60.5s35.5 34.5 58.5 49.5s48.833 29.5 77.5 43.5c-12.667 20 -22.5 40.667 -29.5 62
s-10.5 43.666 -10.5 66.999c0 28.667 5.16699 54.834 15.5 78.501s25 44 44 61s42 30.333 69 40s57.167 14.5 90.5 14.5c48 0 86.167 -12.667 114.5 -38s42.5 -58.333 42.5 -99c0 -38 -12.167 -73.667 -36.5 -107s-58.833 -61.333 -103.5 -84
c-7.33301 -4 -14.833 -7.83301 -22.5 -11.5l-22.5 -10.5l100 -137c12 17.333 23.167 36 33.5 56s19.5 41.667 27.5 65l106 -13c-12 -32.667 -26.833 -65.167 -44.5 -97.5s-38.167 -62.833 -61.5 -91.5c17.333 -24 33 -47.833 47 -71.5s25.667 -46.834 35 -69.501h-123
c-4.66699 10 -10.167 20.5 -16.5 31.5s-13.166 22.167 -20.499 33.5c-31.333 -23.333 -65.333 -41.5 -102 -54.5s-77 -19.5 -121 -19.5zM284.999 87.002c24.667 0 50.332 4.33496 76.999 13.002s52.334 23 77.001 43l-127 172c-34 -14 -62.167 -32.833 -84.5 -56.5
s-33.5 -51.834 -33.5 -84.501c0 -24.667 7.16699 -45.334 21.5 -62.001s37.5 -25 69.5 -25zM330.997 516.004c0 -13.333 2.83105 -27.334 8.49805 -42.001s13.167 -30 22.5 -46c18 8 34.833 16.5 50.5 25.5s29.334 18.667 41.001 29s20.834 21.833 27.501 34.5s10 27 10 43
c0 17.333 -5.33301 31.5 -16 42.5s-26.667 16.5 -48 16.5c-12.667 0 -24.667 -2.16699 -36 -6.5s-21.5 -10.666 -30.5 -18.999s-16.167 -19 -21.5 -32s-8 -28.167 -8 -45.5z" />
    <glyph glyph-name="quotesingle" unicode="'" horiz-adv-x="259" 
d="M360 760l-14.999 -62c-8 -32 -18.5 -66.833 -31.5 -104.5s-27.167 -74.5 -42.5 -110.5h-77c0.666992 15.333 2 32.166 4 50.499s4.16699 37 6.5 56s5.16602 37.833 8.49902 56.5s7 36.334 11 53.001l15 61h121z" />
    <glyph glyph-name="parenleft" unicode="(" horiz-adv-x="330" 
d="M507 727c-40 -41.333 -76.333 -85.1641 -109 -131.497s-60.667 -94.5 -84 -144.5s-41.333 -101.333 -54 -154s-19 -106 -19 -160c0 -48.667 4 -94.834 12 -138.501s21 -86.5 39 -128.5l-90 -53c-26 45.333 -45.667 94.5 -59 147.5s-20 107.833 -20 164.5
c0 61.333 7 121.666 21 180.999s34.167 116.666 60.5 171.999s58.333 108.333 96 159s80.167 98 127.5 142z" />
    <glyph glyph-name="parenright" unicode=")" horiz-adv-x="330" 
d="M-53 -129c40 41.333 76.333 85.165 109 131.498s60.667 94.5 84 144.5s41.333 101.333 54 154s19 106 19 160c0 48.667 -4 94.834 -12 138.501s-21 86.5 -39 128.5l90 53c26 -45.333 45.667 -94.5 59 -147.5s20 -107.833 20 -164.5c0 -61.333 -7 -121.666 -21 -180.999
s-34.167 -116.833 -60.5 -172.5s-58.333 -108.667 -96 -159s-80.167 -97.5 -127.5 -141.5z" />
    <glyph glyph-name="asterisk" unicode="*" horiz-adv-x="471" 
d="M374 530l63.501 39.999c23 14 45.5 24.667 67.5 32l15 5l34 -104l-16 -5c-22.667 -7.33301 -47.334 -12 -74.001 -14s-51.667 -3.33301 -75 -4c21.333 -15.333 42 -32.333 62 -51s37.333 -37.334 52 -56.001l7 -9l-90 -63l-9 13c-13.333 19.333 -25.333 41.333 -36 66
s-20 47.667 -28 69c-4.66699 -10.667 -9.5 -22.334 -14.5 -35.001s-10.333 -25.167 -16 -37.5s-11.667 -24.5 -18 -36.5s-12.833 -22.333 -19.5 -31l-6 -8l-89 63l10 14c14 19.333 31.167 37.5 51.5 54.5l58.5 47.5c-23.333 0.666992 -47.5 1.83398 -72.5 3.50098
s-50.167 6.5 -75.5 14.5l-16 5l34 104l9 -3c22 -7.33301 45.333 -18.166 70 -32.499s47 -28.166 67 -41.499c-6.66699 22.667 -13 46.834 -19 72.501s-9 50.167 -9 73.5v17h110v-17c0 -23.333 -3 -47.833 -9 -73.5s-12.333 -49.834 -19 -72.501z" />
    <glyph glyph-name="plus" unicode="+" horiz-adv-x="568" 
d="M132 337h174l47 196h111l-47 -196h174l-25 -102h-174l-47 -196h-110l46 196h-174z" />
    <glyph glyph-name="comma" unicode="," horiz-adv-x="268" 
d="M223 133c-4 -53.333 -18.999 -105.168 -44.999 -155.501s-56.667 -96.5 -92 -138.5l-86 27c26 40.667 47.667 84.334 65 131.001s27.666 92 30.999 136h127z" />
    <glyph glyph-name="hyphen" unicode="-" horiz-adv-x="319" 
d="M109 341h266l-26 -111h-266z" />
    <glyph glyph-name="period" unicode="." horiz-adv-x="265" 
d="M150 146c21.333 0 38.667 -6 52 -18s20 -29.667 20 -53c0 -13.333 -2.5 -25.5 -7.5 -36.5s-11.5 -20.333 -19.5 -28s-17.167 -13.5 -27.5 -17.5s-20.833 -6 -31.5 -6c-21.333 0 -38.5 5.83301 -51.5 17.5s-19.5 29.167 -19.5 52.5c0 28 8.66699 49.833 26 65.5
s37 23.5 59 23.5z" />
    <glyph glyph-name="slash" unicode="/" horiz-adv-x="399" 
d="M53 -185h-122l559 968h122z" />
    <glyph glyph-name="zero" unicode="0" horiz-adv-x="568" 
d="M295 90c21.333 0 41.168 6.33105 59.501 18.998s35.166 29.5 50.499 50.5s28.833 45.167 40.5 72.5s21.5 55.666 29.5 84.999s14.167 58.5 18.5 87.5s6.5 56.167 6.5 81.5c0 42 -5.66699 72.333 -17 91s-30 28 -56 28c-21.333 0 -41.333 -6.33301 -60 -19
s-35.5 -29.667 -50.5 -51s-28.333 -45.666 -40 -72.999s-21.667 -55.666 -30 -84.999s-14.5 -58.666 -18.5 -87.999s-6 -56.333 -6 -81c0 -42 5.66699 -72.167 17 -90.5s30 -27.5 56 -27.5zM278.002 -15.002c-30.667 0 -56.834 5.16699 -78.501 15.5
s-39.5 24.666 -53.5 42.999s-24.167 40.166 -30.5 65.499s-9.5 53 -9.5 83c0 62.667 7.5 124.834 22.5 186.501s36.833 117 65.5 166s64 88.667 106 119s89.667 45.5 143 45.5c30.667 0 56.834 -5.16699 78.501 -15.5s39.5 -24.666 53.5 -42.999s24.333 -40.166 31 -65.499
s10 -53 10 -83c0 -62.667 -7.5 -124.834 -22.5 -186.501s-37 -117 -66 -166s-64.333 -88.667 -106 -119s-89.5 -45.5 -143.5 -45.5z" />
    <glyph glyph-name="one" unicode="1" horiz-adv-x="568" 
d="M213 549c42 15.333 85.333 35 130 59s85.667 52.333 123 85h86l-167 -693h-121l127 527c-21.333 -14 -46.5 -27.5 -75.5 -40.5s-57.5 -24.167 -85.5 -33.5z" />
    <glyph glyph-name="two" unicode="2" horiz-adv-x="568" 
d="M423 709c29.333 0 55.501 -4.50098 78.501 -13.501s42.333 -20.833 58 -35.5s27.5 -31.834 35.5 -51.501s12 -39.834 12 -60.501c0 -30 -4.16699 -56.833 -12.5 -80.5s-20.5 -45.667 -36.5 -66s-35.667 -40.333 -59 -60l-79 -63.5l-54 -40.5
c-18.667 -13.667 -36.5 -27.667 -53.5 -42s-32.833 -29.333 -47.5 -45s-27 -32.167 -37 -49.5h299l-24 -101h-433c6 38.667 16 72.834 30 102.501s31.167 56.667 51.5 81s43.166 47 68.499 68l80 63.5l76 58.5c22.667 17.667 42 34.834 58 51.501s28.333 33.334 37 50.001
s13 34.667 13 54c0 22 -7 40 -21 54s-34 21 -60 21c-32.667 0 -62.5 -7 -89.5 -21s-51.167 -29.667 -72.5 -47l-41 91c29.333 24.667 63 44.5 101 59.5s78.667 22.5 122 22.5z" />
    <glyph glyph-name="three" unicode="3" horiz-adv-x="568" 
d="M455 368c25.333 -11.333 47 -30.001 65 -56.001s27 -57.333 27 -94c0 -31.333 -6 -61 -18 -89s-30 -52.667 -54 -74s-54.333 -38.333 -91 -51s-80 -19 -130 -19c-42 0 -79.5 4.66699 -112.5 14s-59.167 19.333 -78.5 30l44 99c14.667 -9.33301 35 -18.666 61 -27.999
s56.667 -14 92 -14c22.667 0 44.167 2.66699 64.5 8s38 13.5 53 24.5s26.833 24.833 35.5 41.5s13 36.667 13 60c0 33.333 -12.833 58 -38.5 74s-60.5 24 -104.5 24h-40l23 97h50c18.667 0 37.334 2.16699 56.001 6.5s35.334 11 50.001 20s26.667 20.667 36 35
s14 31.833 14 52.5c0 25.333 -8.33301 44.5 -25 57.5s-39.334 19.5 -68.001 19.5c-24.667 0 -49.167 -4.16699 -73.5 -12.5s-47.166 -18.5 -68.499 -30.5l-30 92c25.333 15.333 54.666 28.166 87.999 38.499s68 15.5 104 15.5c33.333 0 62.166 -4.5 86.499 -13.5
s44.5 -21 60.5 -36s28 -32.333 36 -52s12 -40.167 12 -61.5c0 -39.333 -12.167 -74.666 -36.5 -105.999s-58.5 -55.333 -102.5 -72z" />
    <glyph glyph-name="four" unicode="4" horiz-adv-x="568" 
d="M472 547c-20.667 -18 -42.167 -38.166 -64.5 -60.499l-67 -70.5c-22.333 -24.667 -44 -49.834 -65 -75.501s-40.167 -51.167 -57.5 -76.5h186zM622 693.001l-102.999 -429h77l-24 -98h-77l-40 -166h-116l39 166h-302l20 86c20 30.667 45.167 65.167 75.5 103.5
s63.666 77.5 99.999 117.5s74.5 79.167 114.5 117.5s79.333 72.5 118 102.5h118z" />
    <glyph glyph-name="five" unicode="5" horiz-adv-x="568" 
d="M114 128c16.667 -9.33301 37.3301 -18.1631 61.9971 -26.4961s52.334 -12.5 83.001 -12.5c52 0 93.5 11.167 124.5 33.5s46.5 55.166 46.5 98.499c0 23.333 -6.33301 42.666 -19 57.999s-30 27.5 -52 36.5s-48.167 15.5 -78.5 19.5s-63.166 6.33301 -98.499 7l60.5 179
c19 57.333 36.167 114.666 51.5 171.999h347l-24 -101h-244l-13 -41.5l-14 -44.5l-13.5 -42c-4.33301 -13.333 -8.16602 -24.666 -11.499 -33.999c77.333 -8.66699 135 -30.334 173 -65.001s57 -79.334 57 -134.001c0 -36 -6 -69 -18 -99s-30.167 -55.833 -54.5 -77.5
s-54.833 -38.667 -91.5 -51s-79.667 -18.5 -129 -18.5c-18 0 -36.167 1.33301 -54.5 4s-36 6 -53 10s-32.5 8.5 -46.5 13.5s-25.667 10.167 -35 15.5z" />
    <glyph glyph-name="six" unicode="6" horiz-adv-x="568" 
d="M463 246c0 32 -8.16602 55.1641 -24.499 69.4971s-39.5 21.5 -69.5 21.5c-41.333 0 -81.333 -8.66699 -120 -26c-5.33301 -17.333 -9.5 -34.666 -12.5 -51.999s-4.5 -33.666 -4.5 -48.999c0 -36.667 7.5 -66.667 22.5 -90s39.5 -35 73.5 -35
c20.667 0 39.5 4.33301 56.5 13s31.167 20.334 42.5 35.001s20.166 31.667 26.499 51s9.5 40 9.5 62zM627.001 598.997c-89.333 -1.33301 -163.829 -18.3311 -223.496 -50.998s-103.167 -81.334 -130.5 -146.001c18 8.66699 38.667 15.834 62 21.501s46.666 8.5 69.999 8.5
c55.333 0 98.333 -15.833 129 -47.5s46 -74.5 46 -128.5c0 -38 -6 -73.5 -18 -106.5s-29.5 -61.667 -52.5 -86s-50.833 -43.5 -83.5 -57.5s-69.334 -21 -110.001 -21c-30 0 -57.333 5 -82 15s-45.834 24.5 -63.501 43.5s-31.334 42.167 -41.001 69.5
s-14.5 58.666 -14.5 93.999c0 64 11 125.667 33 185s54 111.666 96 156.999s94 81.5 156 108.5s133.667 40.5 215 40.5h12c4.66699 0 9.66699 -0.333008 15 -1z" />
    <glyph glyph-name="seven" unicode="7" horiz-adv-x="568" 
d="M142 0c14 51.333 34.1621 104.998 60.4951 160.998s55.833 110.5 88.5 163.5s66.834 102.5 102.501 148.5s69.834 84.667 102.501 116h-315l25 104h460l-22 -94c-18 -15.333 -38.167 -35.166 -60.5 -59.499s-45.666 -51.833 -69.999 -82.5s-48.666 -64 -72.999 -100
s-47.333 -73.5 -69 -112.5s-41.667 -79.167 -60 -120.5s-33.166 -82.666 -44.499 -123.999h-125z" />
    <glyph glyph-name="eight" unicode="8" horiz-adv-x="568" 
d="M95 149c0 44 13 83.6699 39 119.003s65 67.666 117 96.999c-18.667 15.333 -33.167 33.166 -43.5 53.499s-15.5 43.833 -15.5 70.5c0 28 5.16699 55.167 15.5 81.5s25.833 49.833 46.5 70.5s46 37.167 76 49.5s65 18.5 105 18.5c29.333 0 55.5 -4.16699 78.5 -12.5
s42.333 -19.833 58 -34.5s27.667 -31.667 36 -51s12.5 -40 12.5 -62c0 -38 -10.667 -74.167 -32 -108.5s-58.333 -64.5 -111 -90.5c23.333 -16 42.833 -35.167 58.5 -57.5s23.5 -51.833 23.5 -88.5c0 -29.333 -5.66699 -57.333 -17 -84s-28.166 -50 -50.499 -70
s-50 -35.833 -83 -47.5s-71.5 -17.5 -115.5 -17.5c-29.333 0 -56 3.83301 -80 11.5s-44.833 18.5 -62.5 32.5s-31.334 31.167 -41.001 51.5s-14.5 43.166 -14.5 68.499zM441 198.003c0 29.333 -10.165 52.999 -30.498 70.999s-46.833 34 -79.5 48
c-39.333 -17.333 -69 -39.666 -89 -66.999s-30 -55.333 -30 -84c0 -25.333 7.66699 -45.5 23 -60.5s39 -22.5 71 -22.5c18 0 35.167 2.83301 51.5 8.5s30.666 13.5 42.999 23.5s22.166 22 29.499 36s11 29.667 11 47zM306.002 498.002c0 -24.667 7.5 -45.166 22.5 -61.499
s36.5 -30.5 64.5 -42.5c36 17.333 63.667 37.5 83 60.5s29 49.167 29 78.5c0 21.333 -6.5 39.666 -19.5 54.999s-34.833 23 -65.5 23c-16.667 0 -32 -2.83301 -46 -8.5s-26 -13.667 -36 -24s-17.833 -22.333 -23.5 -36s-8.5 -28.5 -8.5 -44.5z" />
    <glyph glyph-name="nine" unicode="9" horiz-adv-x="568" 
d="M264 449c0 -32 8.33105 -55.002 24.998 -69.002s40 -21 70 -21c40 0 80 8.66699 120 26c5.33301 16.667 9.33301 33.834 12 51.501s4 35.167 4 52.5c0 34 -7.66699 62.5 -23 85.5s-39.666 34.5 -72.999 34.5c-21.333 0 -40.333 -4.33301 -57 -13
s-30.667 -20.167 -42 -34.5s-20.166 -31.166 -26.499 -50.499s-9.5 -40 -9.5 -62zM98.998 94.998c9.33301 -0.666992 19.668 -0.832031 31.001 -0.499023s19.666 0.833008 24.999 1.5c78.667 7.33301 142 27 190 59s84.667 78.333 110 139c-19.333 -10 -41 -17.5 -65 -22.5
s-46.667 -7.5 -68 -7.5c-55.333 0 -98.333 15.833 -129 47.5s-46 74.167 -46 127.5c0 38 6.16699 73.5 18.5 106.5s29.833 61.667 52.5 86s50 43.333 82 57s68 20.5 108 20.5c62 0 111.5 -19.333 148.5 -58s55.5 -93.334 55.5 -164.001c0 -65.333 -10.667 -127.5 -32 -186.5
s-52.833 -111 -94.5 -156s-93.5 -80.833 -155.5 -107.5s-133.667 -40 -215 -40h-14.5c-5 0 -11.167 0.333008 -18.5 1z" />
    <glyph glyph-name="colon" unicode=":" horiz-adv-x="255" 
d="M150 146c21.333 0 38.667 -6 52 -18s20 -29.667 20 -53c0 -13.333 -2.5 -25.5 -7.5 -36.5s-11.5 -20.333 -19.5 -28s-17.167 -13.5 -27.5 -17.5s-20.833 -6 -31.5 -6c-21.333 0 -38.5 5.83301 -51.5 17.5s-19.5 29.167 -19.5 52.5c0 28 8.66699 49.833 26 65.5
s37 23.5 59 23.5zM235.001 523c21.333 0 38.667 -6 52 -18s20 -29.667 20 -53c0 -13.333 -2.5 -25.5 -7.5 -36.5s-11.5 -20.333 -19.5 -28s-17.167 -13.5 -27.5 -17.5s-20.833 -6 -31.5 -6c-21.333 0 -38.5 5.83301 -51.5 17.5s-19.5 29.167 -19.5 52.5
c0 28 8.66699 49.833 26 65.5s37 23.5 59 23.5z" />
    <glyph glyph-name="semicolon" unicode=";" horiz-adv-x="255" 
d="M223 133c-4 -53.333 -18.999 -105.168 -44.999 -155.501s-56.667 -96.5 -92 -138.5l-86 27c26 40.667 47.667 84.334 65 131.001s27.666 92 30.999 136h127zM236.001 522.998c21.333 0 38.667 -6 52 -18s20 -29.667 20 -53c0 -13.333 -2.5 -25.5 -7.5 -36.5
s-11.5 -20.333 -19.5 -28s-17.167 -13.5 -27.5 -17.5s-20.833 -6 -31.5 -6c-21.333 0 -38.5 5.83301 -51.5 17.5s-19.5 29.167 -19.5 52.5c0 28 8.66699 49.833 26 65.5s37 23.5 59 23.5z" />
    <glyph glyph-name="less" unicode="&#x3c;" horiz-adv-x="568" 
d="M129 337l471 182l8 -103l-364 -133l298 -138l-53 -92l-383 186z" />
    <glyph glyph-name="equal" unicode="=" horiz-adv-x="568" 
d="M108 229h460l-25 -102h-459zM160 445h460l-25 -102h-459z" />
    <glyph glyph-name="greater" unicode="&#x3e;" horiz-adv-x="568" 
d="M560 235l-471 -182l-8 103l364 133l-298 138l53 92l383 -186z" />
    <glyph glyph-name="question" unicode="?" horiz-adv-x="408" 
d="M287 412l38.001 29.998c12.667 10 24.167 20.5 34.5 31.5s18.666 22.667 24.999 35s9.5 25.833 9.5 40.5c0 20 -6.66699 34.833 -20 44.5s-31.666 14.5 -54.999 14.5c-28 0 -54 -4 -78 -12s-43.333 -16 -58 -24l-15 95c21.333 12 47.333 22 78 30s62 12 94 12
c55.333 0 98.333 -13 129 -39s46 -61 46 -105c0 -30.667 -6 -57.334 -18 -80.001s-27.167 -43.167 -45.5 -61.5s-38 -35 -59 -50s-40.667 -30.333 -59 -46s-33.833 -32.167 -46.5 -49.5s-19.334 -37.333 -20.001 -60h-106c0.666992 22.667 4.16699 42.834 10.5 60.501
s15 33.834 26 48.501s24.167 28.834 39.5 42.501zM200.001 145.998c21.333 0 38.667 -6 52 -18s20 -29.667 20 -53c0 -13.333 -2.5 -25.5 -7.5 -36.5s-11.5 -20.333 -19.5 -28s-17.167 -13.5 -27.5 -17.5s-20.833 -6 -31.5 -6c-21.333 0 -38.5 5.83301 -51.5 17.5
s-19.5 29.167 -19.5 52.5c0 28 8.66699 49.833 26 65.5s37 23.5 59 23.5z" />
    <glyph glyph-name="at" unicode="@" horiz-adv-x="942" 
d="M628 -139c-20 -5.33301 -45.1631 -9.99707 -75.4961 -13.9971s-59.833 -6 -88.5 -6c-53.333 0 -101.833 7.5 -145.5 22.5s-81.167 36.667 -112.5 65s-55.5 63 -72.5 104s-25.5 87.833 -25.5 140.5c0 76.667 13 148 39 214s62.167 123.167 108.5 171.5
s101.166 86.166 164.499 113.499s132 41 206 41c50 0 96 -6.66699 138 -20s78.333 -33.5 109 -60.5s54.667 -60.5 72 -100.5s26 -87 26 -141c0 -25.333 -2 -51.666 -6 -78.999s-10.333 -54.166 -19 -80.499s-20.167 -51.5 -34.5 -75.5s-31.5 -44.833 -51.5 -62.5
s-43.5 -31.834 -70.5 -42.501s-57.833 -16 -92.5 -16c-40 0 -69.333 12.333 -88 37c-19.333 -11.333 -39.833 -20 -61.5 -26s-44.5 -9 -68.5 -9c-51.333 0 -91.833 15.833 -121.5 47.5s-44.5 75.834 -44.5 132.501c0 35.333 6.5 70.666 19.5 105.999s32.333 67 58 95
s57.167 50.833 94.5 68.5s80 26.5 128 26.5c36.667 0 68 -3.16699 94 -9.5s47 -12.833 63 -19.5l-72 -300c-1.33301 -4 -2.33301 -8 -3 -12s-1 -7.66699 -1 -11c0 -20.667 12 -31 36 -31c22.667 0 42.667 7.16699 60 21.5s32 33.333 44 57s21.167 50.5 27.5 80.5
s9.5 61 9.5 93c0 78.667 -22 139 -66 181s-108 63 -192 63c-53.333 0 -104.333 -10.833 -153 -32.5s-91.667 -52.167 -129 -91.5s-67 -86.333 -89 -141s-33 -115.334 -33 -182.001c0 -46 7 -84.833 21 -116.5s33.167 -57.334 57.5 -77.001s53.166 -34 86.499 -43
s69.333 -13.5 108 -13.5c31.333 0 60.666 2.16699 87.999 6.5s48.666 8.16602 63.999 11.499zM584.004 149.003c0 8 0.666016 15.8301 1.99902 23.4971s3 15.5 5 23.5l53 220c-11.333 3.33301 -28 5 -50 5c-28 0 -52.5 -5.66699 -73.5 -17s-38.667 -26.166 -53 -44.499
s-25.166 -39.166 -32.499 -62.499s-11 -46.666 -11 -69.999c0 -65.333 26.333 -98 79 -98c27.333 0 54.333 6.66699 81 20z" />
    <glyph glyph-name="A" unicode="A" horiz-adv-x="656" 
d="M528 0c-2 28 -4.16602 55.833 -6.49902 83.5s-4.83301 54.5 -7.5 80.5h-281l-45.5 -79.5l-45.5 -84.5h-135l116.5 200l108 179l104 162.5l103.5 151.5h117c21.333 -99.333 39.666 -207.833 54.999 -325.5s30 -240.167 44 -367.5h-127zM470.001 561l-84.5 -132.5
c-31 -49 -63.833 -103.833 -98.5 -164.5h217c-4 47.333 -8.83301 95.833 -14.5 145.5s-12.167 100.167 -19.5 151.5z" />
    <glyph glyph-name="B" unicode="B" horiz-adv-x="634" 
d="M289 -8c-34 0 -69.832 1.49707 -107.499 4.49707s-71.167 7.83301 -100.5 14.5l161 671c30 6.66699 61.667 11.334 95 14.001s67 4 101 4c28 0 56.5 -2 85.5 -6s55.167 -11.833 78.5 -23.5s42.5 -27.667 57.5 -48s22.5 -46.5 22.5 -78.5
c0 -35.333 -9.83301 -68.666 -29.5 -99.999s-52.834 -56.666 -99.501 -75.999c29.333 -12 52 -29.333 68 -52s24 -49 24 -79c0 -78 -30.5 -138.333 -91.5 -181s-149.167 -64 -264.5 -64zM278.001 312.997l-50.999 -212.996c9.33301 -1.33301 21.666 -2.5 36.999 -3.5
s32.333 -1.5 51 -1.5c22 0 45 1.66699 69 5s45.667 9.66602 65 18.999s35.5 22.666 48.5 39.999s19.5 39.666 19.5 66.999c0 25.333 -9.66699 46.166 -29 62.499s-51.333 24.5 -96 24.5h-114zM302.002 410.001l95.999 0.000976562c20.667 0 40.667 2 60 6
s36.166 10.5 50.499 19.5s25.833 20.167 34.5 33.5s13 29.666 13 48.999c0 30.667 -11.5 51.667 -34.5 63s-53.833 17 -92.5 17c-15.333 0 -30.666 -0.5 -45.999 -1.5s-27.666 -2.16699 -36.999 -3.5z" />
    <glyph glyph-name="C" unicode="C" horiz-adv-x="606" 
d="M600 30c-22 -11.333 -50.0029 -21.6689 -84.0029 -31.002s-75.333 -14 -124 -14c-42.667 0 -80.667 6.5 -114 19.5s-61.666 31.833 -84.999 56.5s-41.166 54.334 -53.499 89.001s-18.5 73.667 -18.5 117c0 56 9.33301 110.5 28 163.5s45.667 100.167 81 141.5
s78.333 74.5 129 99.5s108 37.5 172 37.5c42 0 78.5 -4.66699 109.5 -14s58.167 -20.666 81.5 -33.999l-48 -101c-21.333 12.667 -44.166 22.5 -68.499 29.5s-51.833 10.5 -82.5 10.5c-42 0 -79.667 -9.33301 -113 -28s-61.833 -43.167 -85.5 -73.5
s-41.667 -64.833 -54 -103.5s-18.5 -78 -18.5 -118c0 -62 13.5 -107.833 40.5 -137.5s66.5 -44.5 118.5 -44.5c40 0 74 4.5 102 13.5s52 18.167 72 27.5z" />
    <glyph glyph-name="D" unicode="D" horiz-adv-x="702" 
d="M229 103c7.33301 -1.33301 15.8311 -2.16797 25.498 -2.50098s24.834 -0.5 45.501 -0.5c48 0 91.333 7.66699 130 23s71.5 37.166 98.5 65.499s47.833 62.333 62.5 102s22 83.834 22 132.501c0 52.667 -15 94.334 -45 125.001s-79 46 -147 46
c-17.333 0 -31.166 -0.333008 -41.499 -1s-21.5 -1.66699 -33.5 -3zM742.998 426.998c0 -62 -10.001 -119.665 -30.001 -172.998s-49.667 -99.333 -89 -138s-88.5 -69 -147.5 -91s-127.5 -33 -205.5 -33c-28 0 -59.333 1.5 -94 4.5s-66.667 7.83301 -96 14.5l161 671
c32.667 7.33301 65.667 12.166 99 14.499s64 3.5 92 3.5c50.667 0 95.334 -6.5 134.001 -19.5s71 -31.333 97 -55s45.667 -52.334 59 -86.001s20 -71.167 20 -112.5z" />
    <glyph glyph-name="E" unicode="E" horiz-adv-x="572" 
d="M78 0l166 693h430l-25 -105h-305l-41 -174h270l-25 -103h-269l-50 -206h328l-25 -105h-454z" />
    <glyph glyph-name="F" unicode="F" horiz-adv-x="540" 
d="M78 0l166 693h427l-25 -105h-302l-43 -180h267l-25 -104h-266l-73 -304h-126z" />
    <glyph glyph-name="G" unicode="G" horiz-adv-x="655" 
d="M412 94c19.333 0 36.666 1 51.999 3s27.333 4.33301 36 7l59 248h125l-80 -332c-17.333 -8 -44.5 -15.667 -81.5 -23s-80.5 -11 -130.5 -11c-44 0 -83 6.5 -117 19.5s-62.333 31.667 -85 56s-39.834 53.833 -51.501 88.5s-17.5 73.667 -17.5 117
c0 56 9.33301 110.5 28 163.5s45.834 100.167 81.501 141.5s79.334 74.5 131.001 99.5s110.167 37.5 175.5 37.5c46.667 0 86.5 -5.66699 119.5 -17s59.5 -23.666 79.5 -36.999l-49 -100c-17.333 11.333 -39.333 21.666 -66 30.999s-57 14 -91 14
c-44 0 -83.167 -9.33301 -117.5 -28s-63.5 -43.167 -87.5 -73.5s-42.167 -64.833 -54.5 -103.5s-18.5 -78 -18.5 -118c0 -122 53.333 -183 160 -183z" />
    <glyph glyph-name="H" unicode="H" horiz-adv-x="696" 
d="M654 693h126l-166 -693h-126l74 308h-284l-74 -308h-126l166 693h126l-67 -278h284z" />
    <glyph glyph-name="I" unicode="I" horiz-adv-x="286" 
d="M244 693h126l-166 -693h-126z" />
    <glyph glyph-name="J" unicode="J" horiz-adv-x="495" 
d="M469 216c-8 -33.333 -17.834 -64.1689 -29.501 -92.502s-27.5 -52.666 -47.5 -72.999s-45.167 -36.333 -75.5 -48s-68.5 -17.5 -114.5 -17.5c-40.667 0 -76.667 6.5 -108 19.5s-55.666 27.167 -72.999 42.5l58 95c13.333 -11.333 30 -22.166 50 -32.499
s45 -15.5 75 -15.5c20.667 0 38.667 2.5 54 7.5s28.5 13.167 39.5 24.5s20.5 26 28.5 44s15 40 21 66l109 457h127z" />
    <glyph glyph-name="K" unicode="K" horiz-adv-x="634" 
d="M494 0c-13.333 26.667 -28.1699 54.4961 -44.5029 83.4961s-33.666 57.333 -51.999 85s-37.666 53.834 -57.999 78.501s-40.5 46.334 -60.5 65.001l-75 -312h-126l166 693h126l-67 -277l85 70l86 74l79.5 71l66.5 62h153l-87.5 -80l-95 -85.5l-98 -86l-97.5 -80.5
c20.667 -21.333 42 -45.666 64 -72.999s43.333 -56.666 64 -87.999s40.334 -64 59.001 -98s35.667 -68 51 -102h-139z" />
    <glyph glyph-name="L" unicode="L" horiz-adv-x="536" 
d="M536 106l-25 -106h-433l166 693h126l-141 -587h307z" />
    <glyph glyph-name="M" unicode="M" horiz-adv-x="862" 
d="M396 693c6 -23.333 12.8311 -53.501 20.498 -90.501s15.334 -76.5 23.001 -118.5l23 -127l20.5 -116l75.5 116l83 125l80 117.5l66.5 93.5h119c-5.33301 -50.667 -11.666 -104.667 -18.999 -162s-15.833 -116 -25.5 -176l-30.5 -180.5l-32 -174.5h-125
c17.333 80.667 34 163.5 50 248.5s30.667 169.167 44 252.5c-11.333 -16 -24.333 -35.333 -39 -58l-47 -71.5l-51 -77.5l-50.5 -77.5l-45.5 -69.5l-36 -55h-97c-3.33301 22 -8 51 -14 87s-12.667 73.833 -20 113.5l-21.5 116c-7 37.667 -13.167 68.834 -18.5 93.501
c-27.333 -83.333 -52.833 -167.833 -76.5 -253.5l-67.5 -248.5h-124l51 178l55.5 182.5l56.5 175.5l54 157h118z" />
    <glyph glyph-name="N" unicode="N" horiz-adv-x="719" 
d="M535 0c-12.667 38.667 -27.167 80.333 -43.5 125s-33.666 89.334 -51.999 134.001s-37.333 88.167 -57 130.5s-39.5 81.166 -59.5 116.499l-121 -506h-124l166 693h101c18.667 -30 38.167 -64.333 58.5 -103s40.166 -79.167 59.499 -121.5l56 -127.5
c18 -42.667 33.667 -83 47 -121l111 473h125l-166 -693h-101z" />
    <glyph glyph-name="O" unicode="O" horiz-adv-x="742" 
d="M505 600c-38 0 -72.499 -9.5 -103.499 -28.5s-57.5 -43.833 -79.5 -74.5s-39.167 -65.5 -51.5 -104.5s-18.5 -78.5 -18.5 -118.5c0 -54.667 11.667 -98.334 35 -131.001s60.666 -49 111.999 -49c38 0 72.667 9.5 104 28.5s58 43.833 80 74.5s39.167 65.5 51.5 104.5
s18.5 78.5 18.5 118.5c0 54.667 -11.833 98.334 -35.5 131.001s-61.167 49 -112.5 49zM386.001 -15c-38.667 0 -74.1689 6.16699 -106.502 18.5s-60.333 30.166 -84 53.499s-42 52.333 -55 87s-19.5 74.334 -19.5 119.001c0 53.333 8.66699 106.666 26 159.999
s42.833 101.166 76.5 143.499s75.167 76.666 124.5 102.999s106 39.5 170 39.5c38.667 0 74.334 -6.16699 107.001 -18.5s60.667 -30.166 84 -53.499s41.5 -52.333 54.5 -87s19.5 -74.334 19.5 -119.001c0 -53.333 -8.66699 -106.666 -26 -159.999
s-42.666 -101.166 -75.999 -143.499s-74.833 -76.666 -124.5 -102.999s-106.5 -39.5 -170.5 -39.5z" />
    <glyph glyph-name="P" unicode="P" horiz-adv-x="605" 
d="M427 700c83.333 0 147.166 -16.332 191.499 -48.999s66.5 -79.334 66.5 -140.001c0 -48 -9.16699 -88.833 -27.5 -122.5s-43.666 -61.167 -75.999 -82.5s-71 -36.833 -116 -46.5s-94.5 -14.5 -148.5 -14.5h-54l-59 -245h-126l163 683c32 6.66699 64 11.167 96 13.5
s62 3.5 90 3.5zM415 594.001c-12.667 0 -24.668 -0.333008 -36.001 -1s-22.666 -1.66699 -33.999 -3l-57 -239h51c28 0 55 2.33301 81 7s49 12.5 69 23.5s36 26 48 45s18 43.167 18 72.5c0 34 -12.5 58.333 -37.5 73s-59.167 22 -102.5 22z" />
    <glyph glyph-name="Q" unicode="Q" horiz-adv-x="742" 
d="M594 -187c-38.667 2.66699 -74.0029 7.6709 -106.003 15.0039s-59.5 17.5 -82.5 30.5s-40.833 29.5 -53.5 49.5s-19 44 -19 72v3c0 1.33301 0.333008 3.66602 1 6.99902c-32 4.66699 -61.167 14.167 -87.5 28.5s-48.666 33 -66.999 56s-32.666 50.333 -42.999 82
s-15.5 67.167 -15.5 106.5c0 53.333 8.66699 106.666 26 159.999s42.833 101.166 76.5 143.499s75.167 76.666 124.5 102.999s106 39.5 170 39.5c38.667 0 74.334 -6.16699 107.001 -18.5s60.667 -30.166 84 -53.499s41.5 -52.333 54.5 -87s19.5 -74.334 19.5 -119.001
c0 -48.667 -7.16699 -97.167 -21.5 -145.5s-35.333 -92.833 -63 -133.5s-62.167 -75.5 -103.5 -104.5s-89 -47.833 -143 -56.5c-0.666992 -2 -1 -4.66699 -1 -8c0 -14 5 -25.5 15 -34.5s23.5 -16.333 40.5 -22s36.5 -10 58.5 -13s45 -5.5 69 -7.5zM504.997 600.004
c-38 0 -72.499 -9.5 -103.499 -28.5s-57.5 -43.833 -79.5 -74.5s-39.167 -65.5 -51.5 -104.5s-18.5 -78.5 -18.5 -118.5c0 -54.667 11.667 -98.334 35 -131.001s60.666 -49 111.999 -49c38 0 72.667 9.5 104 28.5s58 43.833 80 74.5s39.167 65.5 51.5 104.5
s18.5 78.5 18.5 118.5c0 54.667 -11.833 98.334 -35.5 131.001s-61.167 49 -112.5 49z" />
    <glyph glyph-name="R" unicode="R" horiz-adv-x="624" 
d="M429 700c82.667 0 145.5 -17.167 188.5 -51.5s64.5 -79.833 64.5 -136.5c0 -25.333 -3.5 -49.5 -10.5 -72.5s-18 -44.333 -33 -64s-34.333 -37.167 -58 -52.5s-52.167 -28 -85.5 -38c8.66699 -15.333 18 -33.833 28 -55.5l31 -70c10.667 -25 21 -51.167 31 -78.5
s19 -54.333 27 -81h-133l-25 73c-8.66699 24.667 -17.667 48.5 -27 71.5s-18.833 44.667 -28.5 65s-19.167 38.5 -28.5 54.5c-6 -0.666992 -13.333 -1 -22 -1h-23h-58l-63 -263h-126l163 683c32 6.66699 64.5 11.167 97.5 13.5s63.167 3.5 90.5 3.5zM554 498
c0 36.667 -13.3291 61.833 -39.9961 75.5s-62.334 20.5 -107.001 20.5c-9.33301 0 -19.333 -0.333008 -30 -1s-21.334 -1.66699 -32.001 -3l-54 -226h56c30 0 57.667 2.5 83 7.5s47.166 12.833 65.499 23.5s32.666 24.5 42.999 41.5s15.5 37.5 15.5 61.5z" />
    <glyph glyph-name="S" unicode="S" horiz-adv-x="527" 
d="M255 92c18 0 35.8281 1.66113 53.4951 4.99414s33.667 9 48 17s25.833 18.833 34.5 32.5s13 30.834 13 51.501c0 15.333 -3.33301 28.5 -10 39.5s-15.667 20.833 -27 29.5s-24.166 16.834 -38.499 24.501l-45.5 24.5c-17.333 8.66699 -33.833 18.5 -49.5 29.5
s-29.5 23.5 -41.5 37.5s-21.5 30.333 -28.5 49s-10.5 40.667 -10.5 66c0 30.667 5.83301 58.834 17.5 84.501s29 47.834 52 66.501s51.333 33.334 85 44.001s72.834 16 117.501 16c20.667 0 40.5 -1.66699 59.5 -5s36.833 -7.5 53.5 -12.5s31.334 -10.5 44.001 -16.5
s22.667 -11.667 30 -17l-55 -96c-14 11.333 -33.5 21 -58.5 29s-52.5 12 -82.5 12c-18 0 -35.167 -1.83301 -51.5 -5.5s-30.666 -9.33398 -42.999 -17.001s-22 -17.667 -29 -30s-10.5 -26.833 -10.5 -43.5c0 -15.333 2.5 -28 7.5 -38s12 -18.833 21 -26.5
s19.5 -14.667 31.5 -21l39 -21.5c20.667 -11.333 40.167 -22.666 58.5 -33.999s34.5 -24.333 48.5 -39s25.167 -31.5 33.5 -50.5s12.5 -41.833 12.5 -68.5c0 -37.333 -7 -70 -21 -98s-33.667 -51.167 -59 -69.5s-55.333 -32.166 -90 -41.499s-72.667 -14 -114 -14
c-27.333 0 -52.5 2 -75.5 6s-43.5 9 -61.5 15s-33.5 12.333 -46.5 19s-23.167 12.667 -30.5 18l56 99c6.66699 -4.66699 15.5 -10 26.5 -16s23.5 -11.5 37.5 -16.5s29.333 -9.16699 46 -12.5s34.334 -5 53.001 -5z" />
    <glyph glyph-name="T" unicode="T" horiz-adv-x="582" 
d="M729 693l-26 -106h-206l-141 -587h-126l141 587h-206l25 106h539z" />
    <glyph glyph-name="U" unicode="U" horiz-adv-x="677" 
d="M660 255c-10 -42.667 -22.6689 -80.665 -38.002 -113.998s-35.166 -61.5 -59.499 -84.5s-54 -40.667 -89 -53s-77.167 -18.5 -126.5 -18.5c-38.667 0 -71.834 5.16699 -99.501 15.5s-50.167 24.5 -67.5 42.5s-30.166 39.5 -38.499 64.5s-12.5 52.167 -12.5 81.5
c0 15.333 1.16699 32.333 3.5 51s5.83301 36.667 10.5 54l95 399h127l-99 -413c-3.33301 -12.667 -6 -25.834 -8 -39.501s-3 -26.834 -3 -39.501c0 -14.667 1.83301 -28.5 5.5 -41.5s9.83398 -24.167 18.501 -33.5s20 -16.833 34 -22.5s31.333 -8.5 52 -8.5
c48.667 0 86 14.333 112 43s45.667 71.667 59 129l102 426h127z" />
    <glyph glyph-name="V" unicode="V" horiz-adv-x="639" 
d="M379 0h-119.999c-20.667 107.333 -39 218.666 -55 333.999s-29.667 235 -41 359h133c7.33301 -98 15.5 -193.667 24.5 -287s19.167 -179 30.5 -257c24.667 37.333 50.167 78 76.5 122l79.5 136.5l78 143l72 142.5h137l-195.5 -351.5
c-67.667 -116.333 -140.834 -230.166 -219.501 -341.499z" />
    <glyph glyph-name="W" unicode="W" horiz-adv-x="928" 
d="M653 614c2 -36 4.49902 -73.665 7.49902 -112.998s6.5 -78.5 10.5 -117.5l12 -114.5c4 -37.333 8 -72 12 -104c18.667 35.333 38 74.166 58 116.499l60 131.5l59 139.5l56 140.5h134c-52.667 -128.667 -105.834 -250.334 -159.501 -365.001s-110.5 -224 -170.5 -328h-122
l-15.5 106c-5 34.667 -9.66699 69.834 -14 105.501s-8.33301 72 -12 109s-7.16699 75.5 -10.5 115.5l-122.5 -222.5c-40.333 -71.667 -83.166 -142.834 -128.499 -213.501h-124c-5.33301 58 -9.16602 115.667 -11.499 173s-3.5 116 -3.5 176c0 109.333 4 224 12 344h126
c-4 -64 -7.33301 -127.5 -10 -190.5s-4 -126.833 -4 -191.5v-72.5c0 -24.333 0.666992 -48.833 2 -73.5l64 107.5l65 114.5l62.5 116l57.5 111h110z" />
    <glyph glyph-name="X" unicode="X" horiz-adv-x="629" 
d="M481 0c-8 26 -16 50.5 -24 73.5s-16.167 45.167 -24.5 66.5l-25.5 63l-28 64l-223 -267h-146l317 373l-141 320h139l94 -235l97.5 118c31.667 40 60.5 79 86.5 117h141l-62 -83.5l-68 -85l-70.5 -84l-69.5 -79.5l75 -178.5c23.333 -57.667 45.333 -118.5 66 -182.5h-134z
" />
    <glyph glyph-name="Y" unicode="Y" horiz-adv-x="595" 
d="M382 387l120.498 150.5c39 50.333 75.5 102.166 109.5 155.499h142l-78 -107l-79.5 -103.5l-83.5 -102.5l-89 -104l-66 -276h-126l66 276c-27.333 70 -52.166 139.5 -74.499 208.5s-43.166 138.5 -62.499 208.5h134c11.333 -51.333 24.333 -102.666 39 -153.999
s30.667 -102 48 -152z" />
    <glyph glyph-name="Z" unicode="Z" horiz-adv-x="577" 
d="M681 600c-27.333 -24 -60.833 -55.332 -100.5 -93.999l-124.5 -125.5l-129 -139c-42.667 -47.667 -81 -92.834 -115 -135.501h359l-25 -106h-514l19 79l63.5 80.5l75 89.5l82 92.5l84.5 90.5l81.5 83.5l73.5 71.5h-322l25 106h489z" />
    <glyph glyph-name="bracketleft" unicode="[" horiz-adv-x="340" 
d="M277 783h246l-23 -96h-131l-187 -776h132l-24 -96h-245z" />
    <glyph glyph-name="backslash" unicode="\" horiz-adv-x="393" 
d="M262 -185l-104 968h113l106 -968h-115z" />
    <glyph glyph-name="bracketright" unicode="]" horiz-adv-x="340" 
d="M202 -185h-246l23 96h131l187 776h-132l24 96h245z" />
    <glyph glyph-name="asciicircum" unicode="^" horiz-adv-x="568" 
d="M604 346l-103 -44l-84 264l-212 -261l-87 53l274 335h99z" />
    <glyph glyph-name="underscore" unicode="_" horiz-adv-x="500" 
d="M-20 -84h500l-24 -101h-499z" />
    <glyph glyph-name="grave" unicode="`" horiz-adv-x="313" 
d="M224 789l148 -157l-56 -56l-166 134z" />
    <glyph glyph-name="a" unicode="a" horiz-adv-x="558" 
d="M530 203c-2 -7.33301 -4.00098 -19.333 -6.00098 -36s-3 -32.334 -3 -47.001c0 -19.333 1.66699 -38.166 5 -56.499s8.66602 -36.833 15.999 -55.5l-108 -16c-8 16 -14.333 33 -19 51c-16.667 -14.667 -37.167 -27.834 -61.5 -39.501s-51.833 -17.5 -82.5 -17.5
c-31.333 0 -58.166 5.16699 -80.499 15.5s-40.5 24.666 -54.5 42.999s-24.333 39.833 -31 64.5s-10 51.334 -10 80.001c0 48.667 8.66699 94 26 136s41.5 78.333 72.5 109s67.833 54.834 110.5 72.501s89.334 26.5 140.001 26.5c26 0 52.167 -2.16699 78.5 -6.5
s52.833 -12.5 79.5 -24.5zM463.999 429c-12.667 2.66699 -27.001 4.00098 -43.001 4.00098c-30 0 -57.667 -6.5 -83 -19.5s-47.166 -30.333 -65.499 -52s-32.5 -46.5 -42.5 -74.5s-15 -57.333 -15 -88c0 -15.333 1.33301 -29.666 4 -42.999s7.16699 -25 13.5 -35
s14.833 -18 25.5 -24s24.334 -9 41.001 -9c21.333 0 40.166 4.5 56.499 13.5s31.5 21.167 45.5 36.5c0.666992 17.333 2.16699 33.666 4.5 48.999s5.5 30.666 9.5 45.999z" />
    <glyph glyph-name="b" unicode="b" horiz-adv-x="569" 
d="M415 535c30.667 0 57.166 -5.16797 79.499 -15.501s40.833 -24.5 55.5 -42.5s25.667 -39.167 33 -63.5s11 -50.5 11 -78.5c0 -46 -8 -90 -24 -132s-38.833 -79 -68.5 -111s-65.834 -57.5 -108.501 -76.5s-90.667 -28.5 -144 -28.5c-8 0 -18.667 0.333008 -32 1
s-28 2.33398 -44 5.00098s-32.333 6.33398 -49 11.001s-32 10.667 -46 18l175 734l126 20l-64 -268c14.667 7.33301 30.334 13.666 47.001 18.999s34.334 8 53.001 8zM264.999 88.999c30.667 0 58.833 6.49805 84.5 19.498s47.667 30.5 66 52.5s32.5 47.167 42.5 75.5
s15 57.833 15 88.5c0 15.333 -1.33301 29.5 -4 42.5s-7.33398 24.333 -14.001 34s-15.667 17.334 -27 23.001s-25.666 8.5 -42.999 8.5c-14.667 0 -30.667 -2.66699 -48 -8s-33.333 -13.666 -48 -24.999l-73 -306c6 -1.33301 12.833 -2.5 20.5 -3.5s17.167 -1.5 28.5 -1.5z
" />
    <glyph glyph-name="c" unicode="c" horiz-adv-x="459" 
d="M97 198c0 45.333 7.16699 88.499 21.5 129.499s34.833 77 61.5 108s59.334 55.5 98.001 73.5s82.667 27 132 27c26 0 49.833 -2.16699 71.5 -6.5s42.167 -10.833 61.5 -19.5l-43 -97c-12 5.33301 -25.333 10 -40 14s-32.667 6 -54 6
c-28.667 0 -54.5 -5.83301 -77.5 -17.5s-42.5 -27.5 -58.5 -47.5s-28.333 -43.667 -37 -71s-13 -56.333 -13 -87c0 -17.333 1.83301 -33.166 5.5 -47.499s9.66699 -27 18 -38s19.833 -19.5 34.5 -25.5s33 -9 55 -9c22.667 0 44.5 3 65.5 9s37.167 12 48.5 18l10 -99
c-15.333 -7.33301 -35.666 -14.5 -60.999 -21.5s-54 -10.5 -86 -10.5c-36.667 0 -68.334 5.5 -95.001 16.5s-48.834 26 -66.501 45s-30.667 41.333 -39 67s-12.5 53.5 -12.5 83.5z" />
    <glyph glyph-name="d" unicode="d" horiz-adv-x="572" 
d="M273 -14c-31.333 0 -58.332 5.16602 -80.999 15.499s-41.167 24.5 -55.5 42.5s-24.833 39.333 -31.5 64s-10 51.334 -10 80.001c0 44.667 7.83301 87.834 23.5 129.501s38 78.334 67 110.001s64.5 57 106.5 76s89.667 28.5 143 28.5c6.66699 0 14.667 -0.333008 24 -1
s19.666 -2.33398 30.999 -5.00098l55 230l126 20l-137 -567c-3.33301 -15.333 -5.83301 -30.833 -7.5 -46.5s-2.5 -30.5 -2.5 -44.5c0 -18 1.66699 -36 5 -54s8.66602 -36.667 15.999 -56l-108 -16c-7.33301 14 -13.666 31 -18.999 51
c-16.667 -14.667 -37 -27.834 -61 -39.501s-52 -17.5 -84 -17.5zM466.001 427.999c-12.667 2.66699 -27.998 3.99902 -45.998 3.99902c-30.667 0 -58.667 -6.5 -84 -19.5s-47 -30.333 -65 -52s-31.833 -46.5 -41.5 -74.5s-14.5 -57 -14.5 -87
c0 -15.333 1.5 -29.666 4.5 -42.999s7.83301 -25 14.5 -35s15.5 -18 26.5 -24s24.5 -9 40.5 -9c21.333 0 40.166 4.33301 56.499 13s31.833 20.667 46.5 36c0.666992 14 2.16699 28.667 4.5 44s5.16602 30.333 8.49902 45z" />
    <glyph glyph-name="e" unicode="e" horiz-adv-x="523" 
d="M97 189c0 44.667 7.16797 87.8301 21.501 129.497s35 78.667 62 111s59.5 58.166 97.5 77.499s80.667 29 128 29c50.667 0 90 -13 118 -39s42 -59.333 42 -100c0 -42 -10.333 -76 -31 -102s-47.5 -46.333 -80.5 -61s-70.333 -24.667 -112 -30
s-83.834 -8.66602 -126.501 -9.99902c-0.666992 -1.33301 -1 -2.66602 -1 -3.99902v-10c0 -60.667 38.333 -91 115 -91c45.333 0 90.666 9.33301 135.999 28l10 -98c-16 -7.33301 -38.667 -14.666 -68 -21.999s-62.666 -11 -99.999 -11s-69.333 5.33301 -96 16
s-48.5 25.334 -65.5 44.001s-29.5 40.167 -37.5 64.5s-12 50.5 -12 78.5zM388.001 436.996c-20 0 -39 -4.00098 -57 -12.001s-34 -19 -48 -33s-26.167 -30.5 -36.5 -49.5s-17.833 -39.5 -22.5 -61.5c80 2.66699 138.167 12.334 174.5 29.001s54.5 41.667 54.5 75
c0 13.333 -4.83301 25.333 -14.5 36s-26.5 16 -50.5 16z" />
    <glyph glyph-name="f" unicode="f" horiz-adv-x="388" 
d="M322 523l175.002 -0.000976562l-24 -100h-175l-75 -313c-8.66699 -36 -16.834 -68 -24.501 -96s-16.5 -53.667 -26.5 -77s-21.833 -45.166 -35.5 -65.499s-30.834 -40.5 -51.501 -60.5l-105 16c12.667 16 24.5 32.167 35.5 48.5s21 33.666 30 51.999s17.333 38.333 25 60
s14.5 45.834 20.5 72.501l119 500c8 34 18.833 64.5 32.5 91.5s30.667 49.667 51 68s44.666 32.333 72.999 42s61.166 14.5 98.499 14.5c26.667 0 50.834 -2.83301 72.501 -8.5s38.167 -11.167 49.5 -16.5l-44 -95c-8.66699 4 -20.167 7.83301 -34.5 11.5
s-31.166 5.5 -50.499 5.5c-20 0 -37 -2.83301 -51 -8.5s-26 -13.5 -36 -23.5s-18.167 -22.167 -24.5 -36.5s-11.5 -29.833 -15.5 -46.5z" />
    <glyph glyph-name="g" unicode="g" horiz-adv-x="569" 
d="M220 -86c49.333 0 86.4951 11.3311 111.495 33.998s41.833 53.667 50.5 93l3 14c-13.333 -6.66699 -29.333 -12.834 -48 -18.501s-38.334 -8.5 -59.001 -8.5c-58.667 0 -102.167 15.833 -130.5 47.5s-42.5 73.834 -42.5 126.501c0 48 8.33301 92.333 25 133
s40.167 75.834 70.5 105.501s66.833 52.834 109.5 69.501s90 25 142 25c25.333 0 52.5 -2.83301 81.5 -8.5s55.167 -14.834 78.5 -27.501l-106 -444c-9.33301 -39.333 -21.166 -74.166 -35.499 -104.499s-33.166 -55.666 -56.499 -75.999s-52.166 -35.833 -86.499 -46.5
s-75.833 -16 -124.5 -16c-35.333 0 -67.166 3.83301 -95.499 11.5s-53.166 17.167 -74.499 28.5l43 98c18 -10.667 38.833 -19.334 62.5 -26.001s50.834 -10 81.501 -10zM307.995 125.998c18 0 36.5 3.33203 55.5 9.99902s34.833 15 47.5 25l64 267
c-15.333 3.33301 -30.333 5 -45 5c-30.667 0 -58.5 -5.66699 -83.5 -17s-46.5 -26.666 -64.5 -45.999s-32 -41.833 -42 -67.5s-15 -53.167 -15 -82.5s6.33301 -52.333 19 -69s34 -25 64 -25z" />
    <glyph glyph-name="h" unicode="h" 
d="M73 0l181 756l126 20l-62 -257c13.333 3.33301 27.833 6.5 43.5 9.5s31.167 4.5 46.5 4.5c29.333 0 54.5 -4.16699 75.5 -12.5s38.333 -19.833 52 -34.5s23.667 -32.334 30 -53.001s9.5 -43 9.5 -67c0 -28.667 -4 -59 -12 -91l-66 -275h-121l63 262l10 47
c3.33301 16 5 31 5 45c0 22 -5.83301 40.5 -17.5 55.5s-33.834 22.5 -66.501 22.5c-13.333 0 -26.666 -1.16699 -39.999 -3.5s-25.333 -5.16602 -36 -8.49902l-100 -420h-121z" />
    <glyph glyph-name="i" unicode="i" horiz-adv-x="271" 
d="M193 0h-120l125 523h121zM283 602c-18 0 -33.667 5.33398 -47 16.001s-20 26.667 -20 48c0 24.667 8.5 45 25.5 61s36.5 24 58.5 24c18 0 33.833 -5.5 47.5 -16.5s20.5 -27.167 20.5 -48.5c0 -24.667 -8.66699 -44.834 -26 -60.501s-37 -23.5 -59 -23.5z" />
    <glyph glyph-name="j" unicode="j" horiz-adv-x="276" 
d="M289 602c-18 0 -33.667 5.33398 -47 16.001s-20 26.667 -20 48c0 24.667 8.5 45 25.5 61s36.5 24 58.5 24c18 0 33.833 -5.5 47.5 -16.5s20.5 -27.167 20.5 -48.5c0 -24.667 -8.66699 -44.834 -26 -60.501s-37 -23.5 -59 -23.5zM203 19.001
c-8.66699 -36 -18.835 -67 -30.502 -93s-26 -47.333 -43 -64s-37 -29 -60 -37s-50.5 -12 -82.5 -12c-15.333 0 -31.166 1.83301 -47.499 5.5s-30.166 8.16699 -41.499 13.5l30 97c8 -3.33301 17.167 -6.33301 27.5 -9s21.5 -4 33.5 -4c27.333 0 48 9.5 62 28.5
s24.667 44.5 32 76.5l120 502h121z" />
    <glyph glyph-name="k" unicode="k" horiz-adv-x="559" 
d="M271 324l62.998 50.498c21.333 17.667 41.5 35.334 60.5 53.001l53.5 51c16.667 16.333 31 31.166 43 44.499h139c-16 -18.667 -34.333 -38.334 -55 -59.001l-65 -62l-70 -61l-70 -57c16.667 -17.333 33.334 -37.666 50.001 -60.999s32.667 -47.666 48 -72.999
s29.333 -51 42 -77s23 -50.333 31 -73h-134c-9.33301 22 -19.666 44.333 -30.999 67s-23.666 44.834 -36.999 66.501s-27.333 42 -42 61s-29.334 35.833 -44.001 50.5l-60 -245h-120l181 756l126 20z" />
    <glyph glyph-name="l" unicode="l" horiz-adv-x="298" 
d="M273 -10c-31.333 0.666992 -57.833 4.66699 -79.5 12s-39 17.333 -52 30s-22.333 27.667 -28 45s-8.5 36.333 -8.5 57c0 21.333 2.5 43.833 7.5 67.5s10.5 47.167 16.5 70.5l116 484l126 20l-62 -260.5l-63 -260.5c-3.33301 -14 -7 -27.833 -11 -41.5
s-6 -27.167 -6 -40.5c0 -11.333 0.166992 -21.833 0.5 -31.5s3 -18 8 -25s12.5 -12.833 22.5 -17.5s23 -7.66699 39 -9z" />
    <glyph glyph-name="m" unicode="m" horiz-adv-x="842" 
d="M193 501c26.667 8 56.668 15.5029 90.001 22.5029s70 10.5 110 10.5c30 0 55.167 -4.33301 75.5 -13s37.5 -21 51.5 -37c19.333 11.333 42.833 22.5 70.5 33.5s59.167 16.5 94.5 16.5c30.667 0 56.667 -4.33301 78 -13s38.666 -20.667 51.999 -36s23 -33.5 29 -54.5
s9 -43.833 9 -68.5c0 -27.333 -3.66699 -56.333 -11 -87l-66 -275h-121l62 262c3.33301 12.667 6.5 26.5 9.5 41.5s4.5 30.167 4.5 45.5c0 10.667 -1.16699 21.167 -3.5 31.5s-6.5 19.166 -12.5 26.499s-14.167 13.333 -24.5 18s-23.5 7 -39.5 7
c-17.333 0 -34.333 -3.33301 -51 -10s-30.667 -13.667 -42 -21c2.66699 -12.667 4 -26.334 4 -41.001c0 -13.333 -1 -27.333 -3 -42s-4.66699 -29 -8 -43l-66 -275h-121l62 262c3.33301 12 6.5 25.833 9.5 41.5s4.5 31.167 4.5 46.5c0 22 -5.16699 41.167 -15.5 57.5
s-29.833 24.5 -58.5 24.5c-13.333 0 -26 -0.833008 -38 -2.5s-23 -3.83398 -33 -6.50098l-101 -423h-121z" />
    <glyph glyph-name="n" unicode="n" 
d="M193 501c26.667 8 57.167 15.502 91.5 22.502s71.833 10.5 112.5 10.5c61.333 0 106.333 -15 135 -45s43 -70.333 43 -121c0 -14 -1.16699 -28.833 -3.5 -44.5s-5.16602 -31.834 -8.49902 -48.501l-66 -275h-121l62 262l10 45c3.33301 15.333 5.33301 30 6 44
c0.666992 23.333 -4.83301 42.666 -16.5 57.999s-34.5 23 -68.5 23c-28.667 0 -53.334 -3 -74.001 -9l-101 -423h-121z" />
    <glyph glyph-name="o" unicode="o" 
d="M288 -14c-62 0 -109.333 18.332 -142 54.999s-49 85 -49 145c0 38.667 6 78.667 18 120s30.333 79 55 113s55.667 62 93 84s81.333 33 132 33c62 0 109.333 -18.167 142 -54.5s49 -84.5 49 -144.5c0 -39.333 -5.83301 -79.666 -17.5 -120.999s-29.667 -79 -54 -113
s-55.333 -62 -93 -84s-82.167 -33 -133.5 -33zM380 433.999c-26 0 -49.167 -7.50098 -69.5 -22.501s-37.333 -34.167 -51 -57.5s-24.167 -48.833 -31.5 -76.5s-11 -54.5 -11 -80.5c0 -33.333 6.33301 -59.666 19 -78.999s35 -29 67 -29c26 0 49.167 7.5 69.5 22.5
s37.333 34 51 57s24.167 48.5 31.5 76.5s11 54.667 11 80c0 33.333 -6.33301 59.833 -19 79.5s-35 29.5 -67 29.5z" />
    <glyph glyph-name="p" unicode="p" horiz-adv-x="564" 
d="M217 94c6.66699 -1.33301 13.668 -2.16602 21.001 -2.49902s14.666 -0.5 21.999 -0.5c32 0 60.833 6.16699 86.5 18.5s47.5 29 65.5 50s31.833 45.667 41.5 74s14.5 58.5 14.5 90.5c0 14.667 -1.66699 28.5 -5 41.5s-8.83301 24.5 -16.5 34.5s-18 18 -31 24
s-29.5 9 -49.5 9c-13.333 0 -26 -0.833008 -38 -2.5s-22.667 -3.83398 -32 -6.50098zM589.001 335c0 -47.333 -7.50098 -91.834 -22.501 -133.501s-37 -78.167 -66 -109.5s-64.333 -56.166 -106 -74.499s-89.5 -27.5 -143.5 -27.5c-9.33301 0 -18.833 0.5 -28.5 1.5
s-19.167 2.16699 -28.5 3.5l-44 -180h-121l165 687c27.333 10 57.833 18 91.5 24s67.5 9 101.5 9c34.667 0 64.834 -5.16699 90.501 -15.5s46.667 -24.5 63 -42.5s28.5 -39.167 36.5 -63.5s12 -50.5 12 -78.5z" />
    <glyph glyph-name="q" unicode="q" horiz-adv-x="565" 
d="M95 189c0 48 8.16699 93 24.5 135s39.666 78.5 69.999 109.5s67.333 55.5 111 73.5s92.5 27 146.5 27c24.667 0 51 -2.66699 79 -8s55.333 -14 82 -26l-164 -685h-121l47 197c-15.333 -7.33301 -31.666 -13.166 -48.999 -17.499s-35 -6.5 -53 -6.5
c-55.333 0 -98 18.167 -128 54.5s-45 85.166 -45 146.499zM470 428c-6 1.33301 -13 2.49805 -21 3.49805s-15.667 1.5 -23 1.5c-32.667 0 -62 -6.33301 -88 -19s-48.167 -29.667 -66.5 -51s-32.333 -46.166 -42 -74.499s-14.5 -58.166 -14.5 -89.499
c0 -33.333 6.5 -59.833 19.5 -79.5s35.167 -29.5 66.5 -29.5c16 0 32 2.33301 48 7s31.667 12.667 47 24z" />
    <glyph glyph-name="r" unicode="r" horiz-adv-x="399" 
d="M460 416c-13.333 4.66699 -27.666 8.33398 -42.999 11.001s-33.333 4 -54 4c-11.333 0 -23.333 -0.833008 -36 -2.5s-23.334 -3.83398 -32.001 -6.50098l-101 -422h-121l120 499c28 9.33301 58.333 17.5 91 24.5s68 10.5 106 10.5c8 0 17 -0.5 27 -1.5
s19.833 -2.16699 29.5 -3.5s18.667 -3 27 -5s15.5 -4.33301 21.5 -7z" />
    <glyph glyph-name="s" unicode="s" horiz-adv-x="438" 
d="M224 85c32 0 57.3369 5.1709 76.0039 15.5039s28 26.166 28 47.499c0 17.333 -6 31.166 -18 41.499s-33 22.5 -63 36.5c-16 7.33301 -30.833 15 -44.5 23s-25.5 17.333 -35.5 28s-18 23.167 -24 37.5s-9 31.5 -9 51.5c0 52 19 93.333 57 124s93 46 165 46
c33.333 0 63.166 -3.5 89.499 -10.5s46.166 -14.167 59.499 -21.5l-43 -94c-11.333 6.66699 -27.666 13.167 -48.999 19.5s-43.666 9.5 -66.999 9.5c-11.333 0 -22.5 -1 -33.5 -3s-20.833 -5.33301 -29.5 -10s-15.834 -11.167 -21.501 -19.5s-8.5 -18.5 -8.5 -30.5
c0 -15.333 6.16699 -27.833 18.5 -37.5s30.166 -19.834 53.499 -30.501c22 -10 40.667 -19.667 56 -29s28 -19.833 38 -31.5s17.333 -24.667 22 -39s7 -31.5 7 -51.5c0 -24.667 -5 -47.5 -15 -68.5s-24.5 -39 -43.5 -54s-42.5 -26.833 -70.5 -35.5s-60 -13 -96 -13
c-24.667 0 -46.834 1.66699 -66.501 5s-36.834 7.16602 -51.501 11.499s-27 8.83301 -37 13.5s-17.667 8.66699 -23 12l43 95c4.66699 -2.66699 11.5 -6.16699 20.5 -10.5s19.333 -8.5 31 -12.5s24.667 -7.5 39 -10.5s29.5 -4.5 45.5 -4.5z" />
    <glyph glyph-name="t" unicode="t" horiz-adv-x="401" 
d="M218 661l125.995 20.0029l-38 -158h171l-24 -100h-171l-50 -207c-3.33301 -14.667 -5.66602 -26.834 -6.99902 -36.501s-2 -18.5 -2 -26.5s0.833008 -15.833 2.5 -23.5s5 -14.334 10 -20.001s12.333 -10.334 22 -14.001s22.834 -5.5 39.501 -5.5
c18 0 35.333 2.33301 52 7s31.334 9.66699 44.001 15l9 -97c-15.333 -6.66699 -34.666 -13 -57.999 -19s-50.666 -9 -81.999 -9c-57.333 0 -98.333 12.5 -123 37.5s-37 59.167 -37 102.5c0 16 1.16699 32.5 3.5 49.5s5.83301 35.167 10.5 54.5z" />
    <glyph glyph-name="u" unicode="u" horiz-adv-x="567" 
d="M608 523l-73.998 -311.003c-3.33301 -15.333 -5.83301 -30.666 -7.5 -45.999s-2.5 -30.666 -2.5 -45.999c0 -19.333 1.5 -38.333 4.5 -57s8.16699 -37 15.5 -55l-108 -16c-4 7.33301 -7.5 15.5 -10.5 24.5s-5.83301 18.167 -8.5 27.5
c-16.667 -13.333 -37.334 -26.166 -62.001 -38.499s-53.334 -18.5 -86.001 -18.5c-29.333 0 -54.333 4.33301 -75 13s-37.5 20.5 -50.5 35.5s-22.333 32.667 -28 53s-8.5 41.833 -8.5 64.5c0 29.333 4 61 12 95l66 275h121l-65 -272c-8.66699 -34.667 -13 -63 -13 -85
c0 -10.667 1 -20.667 3 -30s5.5 -17.5 10.5 -24.5s12 -12.5 21 -16.5s20.167 -6 33.5 -6c22 0 41.667 4.5 59 13.5s33.333 21.167 48 36.5c2 28.667 6.66699 58 14 88l70 296h121z" />
    <glyph glyph-name="v" unicode="v" horiz-adv-x="511" 
d="M195 0c-16.667 68 -31.6689 146.833 -45.002 236.5s-22 185.167 -26 286.5h124c0.666992 -29.333 1.83398 -61 3.50098 -95s3.83398 -68.167 6.50098 -102.5s5.83398 -67.5 9.50098 -99.5s7.83398 -61 12.501 -87c17.333 22.667 36 49.834 56 81.501s39.333 65 58 100
s35.667 70.167 51 105.5s27.666 67.666 36.999 96.999h126c-16 -46 -36 -93.333 -60 -142s-50 -96 -78 -142s-56.833 -89.667 -86.5 -131s-57.834 -77.333 -84.501 -108h-104z" />
    <glyph glyph-name="w" unicode="w" horiz-adv-x="811" 
d="M488 331c-12.667 -28.667 -27.0029 -58.1611 -43.0029 -88.4941s-32.667 -60 -50 -89l-52 -83l-48 -70.5h-100c-6 30.667 -11.833 65.667 -17.5 105s-10.834 81.333 -15.501 126s-8.83398 91.667 -12.501 141s-6.16699 99.666 -7.5 150.999h120
c0 -28 0.333008 -58.167 1 -90.5s1.83398 -65.333 3.50098 -99s3.66699 -66.834 6 -99.501s5.5 -63.334 9.5 -92.001c18.667 28.667 37.167 59.167 55.5 91.5s35.833 65 52.5 98s32.167 65.833 46.5 98.5s26.833 63.667 37.5 93h104c0 -27.333 0.333008 -56.333 1 -87
s1.83398 -62.334 3.50098 -95.001s3.66699 -65.834 6 -99.501s5.5 -66.834 9.5 -99.501c17.333 25.333 35 54.333 53 87s35.333 66.167 52 100.5s31.834 68.333 45.501 102s24.834 64.167 33.501 91.5h126c-14 -40 -31.167 -82.5 -51.5 -127.5s-43.166 -90.5 -68.499 -136.5
s-52.5 -91.167 -81.5 -135.5s-59.167 -85.5 -90.5 -123.5h-100c-7.33301 56 -13.5 111.167 -18.5 165.5s-8.16699 109.5 -9.5 165.5z" />
    <glyph glyph-name="x" unicode="x" horiz-adv-x="499" 
d="M246 523l83.001 -175.999c25.333 30.667 49 60.667 71 90s42 58 60 86h125c-28 -41.333 -59 -83.5 -93 -126.5s-71 -86.5 -111 -130.5c24 -46 46 -90.833 66 -134.5s37.667 -87.5 53 -131.5h-122c-10.667 31.333 -22.834 62.666 -36.501 93.999s-27.5 61 -41.5 89
l-159 -183h-132l239 268l-129 255h127z" />
    <glyph glyph-name="y" unicode="y" horiz-adv-x="494" 
d="M583 523c-13.333 -38 -28.001 -77.499 -44.001 -118.499s-33.833 -82.167 -53.5 -123.5s-40.834 -82.5 -63.501 -123.5s-47 -80.833 -73 -119.5c-19.333 -29.333 -39.333 -57.5 -60 -84.5s-43.167 -50.833 -67.5 -71.5s-51.166 -37.334 -80.499 -50.001
s-62.666 -19 -99.999 -19c-20.667 0 -39.167 2.33301 -55.5 7s-30.166 10 -41.499 16l39 97c9.33301 -5.33301 19.833 -9.66602 31.5 -12.999s24.5 -5 38.5 -5c31.333 0 58.833 8.16699 82.5 24.5s45.167 38.5 64.5 66.5c-21.333 74 -39.333 154.333 -54 241
s-24.334 178.667 -29.001 276h122c0.666992 -28 2.16699 -59 4.5 -93s5.33301 -68.833 9 -104.5s8.16699 -70.834 13.5 -105.501s11.333 -66.667 18 -96c20 32 38.667 65.667 56 101s33.333 70.5 48 105.5s27.5 69 38.5 102s20.5 63.167 28.5 90.5h128z" />
    <glyph glyph-name="z" unicode="z" horiz-adv-x="468" 
d="M537 440l-42.5 -38.5l-55.5 -52.5l-63 -61.5l-65 -65.5l-61 -64.5l-51 -57.5h261l-24 -100h-406l18 73c20 26.667 43.833 56 71.5 88l86.5 95.5l89.5 91l79.5 75.5h-232l24 100h390z" />
    <glyph glyph-name="braceleft" unicode="{" horiz-adv-x="356" 
d="M122 346c20 0 37 3.17285 51 9.50586s25.833 14.666 35.5 24.999s17.334 22.166 23.001 35.499s10.167 27 13.5 41l33 135c8 33.333 18 62 30 86s27.833 43.833 47.5 59.5s43.834 27.167 72.501 34.5s63.667 11 105 11h7l-24 -96c-20 0 -37 -1.33301 -51 -4
s-25.667 -7.33398 -35 -14.001s-17 -15.834 -23 -27.501s-11.333 -26.834 -16 -45.501l-38 -160c-8.66699 -35.333 -21.167 -63.833 -37.5 -85.5s-40.5 -38.834 -72.5 -51.501c18 -11.333 30.5 -24.5 37.5 -39.5s10.5 -31.833 10.5 -50.5c0 -10 -0.833008 -20.333 -2.5 -31
s-3.83398 -21.667 -6.50098 -33l-34 -144c-4 -17.333 -6 -31.333 -6 -42c0 -20 6.66699 -33 20 -39s35.666 -9 66.999 -9l-24 -96c-28.667 0 -54 1.83301 -76 5.5s-40.5 10 -55.5 19s-26.5 21.167 -34.5 36.5s-12 34.666 -12 57.999c0 12.667 1.66699 26.667 5 42l36 146
c5.33301 24.667 8 45.334 8 62.001c0 23.333 -6.5 40 -19.5 50s-32.167 15.667 -57.5 17z" />
    <glyph glyph-name="bar" unicode="|" horiz-adv-x="297" 
d="M278 783h113l-233 -968h-113z" />
    <glyph glyph-name="braceright" unicode="}" horiz-adv-x="356" 
d="M373 252c-20 0 -37.001 -3.17578 -51.001 -9.50879s-25.833 -14.666 -35.5 -24.999s-17.334 -22.166 -23.001 -35.499s-10.167 -27 -13.5 -41l-33 -135c-8 -33.333 -18 -62.166 -30 -86.499s-27.833 -44.166 -47.5 -59.499s-43.834 -26.666 -72.501 -33.999
s-63.667 -11 -105 -11h-7l24 96c20 0 36.833 1.33301 50.5 4s25.334 7.33398 35.001 14.001s17.5 15.834 23.5 27.501s11.333 26.834 16 45.501l38 160c8.66699 35.333 21.167 63.833 37.5 85.5s40.5 38.834 72.5 51.501c-18 11.333 -30.5 24.5 -37.5 39.5
s-10.5 31.833 -10.5 50.5c0 10 0.833008 20.333 2.5 31s3.83398 21.667 6.50098 33l34 144c4 16.667 6 30.667 6 42c0 20 -6.66699 33 -20 39s-35.666 9 -66.999 9l24 96c28.667 0 54 -1.83301 76 -5.5s40.5 -10 55.5 -19s26.5 -21.167 34.5 -36.5s12 -34.666 12 -57.999
c0 -12.667 -1.66699 -26.667 -5 -42l-36 -146c-5.33301 -24.667 -8 -45.334 -8 -62.001c0 -23.333 6.5 -40 19.5 -50s32.167 -15.667 57.5 -17z" />
    <glyph glyph-name="asciitilde" unicode="~" horiz-adv-x="568" 
d="M435 202c-22.667 0 -42 4.16699 -58 12.5s-30.667 17.5 -44 27.5s-26.166 19.167 -38.499 27.5s-26.5 12.5 -42.5 12.5c-17.333 0 -31.666 -6.5 -42.999 -19.5s-23 -31.833 -35 -56.5l-79 24c6 18.667 14 37.5 24 56.5s22.333 36 37 51s31.5 27.167 50.5 36.5
s40.5 14 64.5 14c22.667 0 42 -4.16699 58 -12.5s30.667 -17.5 44 -27.5s26.166 -19.167 38.499 -27.5s26.5 -12.5 42.5 -12.5c17.333 0 31.666 6.5 42.999 19.5s23 31.833 35 56.5l79 -24c-7.33301 -20 -16 -39.333 -26 -58s-22 -35.5 -36 -50.5s-30.5 -27 -49.5 -36
s-40.5 -13.5 -64.5 -13.5z" />
    <glyph glyph-name="uni00A0" unicode="&#xa0;" horiz-adv-x="237" 
 />
    <glyph glyph-name="exclamdown" unicode="&#xa1;" horiz-adv-x="266" 
d="M227 366c-21.333 0 -38.5 5.83301 -51.5 17.5s-19.5 29.167 -19.5 52.5c0 28 8.83301 49.833 26.5 65.5s37.5 23.5 59.5 23.5c21.333 0 38.5 -6 51.5 -18s19.5 -29.667 19.5 -53c0 -13.333 -2.5 -25.5 -7.5 -36.5s-11.5 -20.333 -19.5 -28s-17.167 -13.5 -27.5 -17.5
s-20.833 -6 -31.5 -6zM70 4c5.33301 22 11.5 45.499 18.5 70.499s14.5 50.5 22.5 76.5s16.333 51.333 25 76s17 47.334 25 68.001h85c-5.33301 -46.667 -11.333 -93.167 -18 -139.5s-16.667 -96.833 -30 -151.5l-44 -184h-128z" />
    <glyph glyph-name="cent" unicode="&#xa2;" horiz-adv-x="568" 
d="M509 62c-15.333 -7.33301 -34.001 -14.1689 -56.001 -20.502s-45.333 -10.166 -70 -11.499l-33 -139h-112l36 149c-38 12 -67.5 33.5 -88.5 64.5s-31.5 72.5 -31.5 124.5c0 39.333 5.83301 76.666 17.5 111.999s28 67 49 95s46.333 51.833 76 71.5
s62.834 33.5 99.501 41.5l34 144h112l-34 -140c15.333 -2 30.166 -5.16699 44.499 -9.5s28.5 -10.166 42.5 -17.499l-42 -95c-26.667 15.333 -58 23 -94 23c-27.333 0 -52.166 -5.66699 -74.499 -17s-41.5 -27 -57.5 -47s-28.333 -43.5 -37 -70.5s-13 -55.833 -13 -86.5
c0 -33.333 8.33301 -58.666 25 -75.999s42.334 -26 77.001 -26c22.667 0 45.167 3.16699 67.5 9.5s40.166 12.833 53.499 19.5z" />
    <glyph glyph-name="sterling" unicode="&#xa3;" horiz-adv-x="568" 
d="M357 383l183.004 0.00195312l-24 -98h-182l-8 -29c-6.66699 -25.333 -14.5 -51.333 -23.5 -78s-18.167 -52 -27.5 -76h281l-25 -102h-414c21.333 50.667 40.666 100 57.999 148s30.666 93.667 39.999 137h-90l23 98h90l23 90c11.333 44.667 25.5 82 42.5 112
s36.833 54 59.5 72s47.667 30.667 75 38s56.666 11 87.999 11c30 0 57.333 -3.5 82 -10.5s45 -15.167 61 -24.5l-51 -92c-15.333 7.33301 -31.166 13.166 -47.499 17.499s-33.5 6.5 -51.5 6.5c-16.667 0 -32.334 -2.16699 -47.001 -6.5s-28 -12 -40 -23
s-22.833 -25.833 -32.5 -44.5s-17.834 -42.334 -24.501 -71.001z" />
    <glyph glyph-name="currency" unicode="&#xa4;" horiz-adv-x="568" 
d="M360 541c37.333 0 70.333 -7.66699 99 -23l74 73l76 -75l-73 -71c16.667 -29.333 25 -62 25 -98c0 -37.333 -8.33301 -70 -25 -98l73 -72l-76 -75l-75 73c-29.333 -15.333 -62 -23 -98 -23c-37.333 0 -70.333 7.66699 -99 23l-74 -72l-75 74l72 71c-16 28 -24 61 -24 99
c0 37.333 8 70 24 98l-72 71l76 75l74 -73c28 15.333 60.667 23 98 23zM360 241c28 0 51.667 9.16699 71 27.5s29 44.5 29 78.5c0 33.333 -9.66699 59.166 -29 77.499s-43 27.5 -71 27.5s-51.667 -9.16699 -71 -27.5s-29 -44.166 -29 -77.499
c0 -34 9.66699 -60.167 29 -78.5s43 -27.5 71 -27.5z" />
    <glyph glyph-name="yen" unicode="&#xa5;" horiz-adv-x="568" 
d="M517 108l-153.999 -0.000976562l-26 -108h-123l26 108h-154l20 83h154l20 86h-153l20 83h127c-22 56.667 -42.5 113.667 -61.5 171s-34.5 111.333 -46.5 162h124c10 -47.333 21.833 -94.666 35.5 -141.999s29.5 -95 47.5 -143c37.333 44 73.666 90 108.999 138
s69 97 101 147h133c-38.667 -56.667 -79.667 -113 -123 -169s-88 -110.667 -134 -164h118l-20 -83h-154l-20 -86h154z" />
    <glyph glyph-name="brokenbar" unicode="&#xa6;" horiz-adv-x="297" 
d="M139 205h113l-94 -390h-113zM278 783h113l-94 -390h-113z" />
    <glyph glyph-name="section" unicode="&#xa7;" horiz-adv-x="492" 
d="M107 286c0 34 11.3311 66.3271 33.998 96.9941s52 55.667 88 75c-9.33301 10.667 -16.666 23.167 -21.999 37.5s-8 29.166 -8 44.499c0 24 5.16699 46.333 15.5 67s25.166 38.5 44.499 53.5s43 26.833 71 35.5s59.667 13 95 13c31.333 0 60.166 -3.33301 86.499 -10
s49.5 -15.334 69.5 -26.001l-43 -89c-16 8 -33.667 14.833 -53 20.5s-40.666 8.5 -63.999 8.5c-12 0 -24.167 -1.16699 -36.5 -3.5s-23.5 -6.16602 -33.5 -11.499s-18.167 -12.333 -24.5 -21s-9.5 -19.667 -9.5 -33c0 -9.33301 2.33301 -17.333 7 -24s10.667 -12.667 18 -18
s15.5 -10 24.5 -14l26.5 -12c20.667 -8.66699 39.334 -17.5 56.001 -26.5s30.667 -19.333 42 -31s20 -24.834 26 -39.501s9 -32 9 -52c0 -30.667 -9 -59.667 -27 -87s-41 -50.666 -69 -69.999c-4 -3.33301 -8.16699 -6.16602 -12.5 -8.49902l-13.5 -7.5
c10 -11.333 18.333 -24.166 25 -38.499s10 -31.166 10 -50.499c0 -23.333 -5 -45.5 -15 -66.5s-24.833 -39.5 -44.5 -55.5s-44.334 -28.833 -74.001 -38.5s-64.5 -14.5 -104.5 -14.5c-33.333 0 -65 3.5 -95 10.5s-55.667 16.833 -77 29.5l43 89
c16.667 -9.33301 36.167 -17.166 58.5 -23.499s46.5 -9.5 72.5 -9.5c40.667 0 70.834 7 90.501 21s29.5 31 29.5 51c0 26.667 -13.333 46.334 -40 59.001l-72.5 35c-21.667 10 -40.167 20.833 -55.5 32.5s-27.166 25.334 -35.499 41.001s-12.5 35.834 -12.5 60.501z
M215.998 302.994c0 -13.333 3 -24.167 9 -32.5s14.333 -16 25 -23s23.5 -13.833 38.5 -20.5s31.167 -15 48.5 -25c21.333 12 39.833 27.167 55.5 45.5s23.5 38.833 23.5 61.5c0 13.333 -3 24.5 -9 33.5s-14.5 17 -25.5 24s-23.833 13.833 -38.5 20.5s-30.667 14.667 -48 24
c-20 -11.333 -38.167 -26.5 -54.5 -45.5s-24.5 -39.833 -24.5 -62.5z" />
    <glyph glyph-name="dieresis" unicode="&#xa8;" horiz-adv-x="458" 
d="M451 609c-17.333 0 -31.668 5.33203 -43.001 15.999s-17 24.667 -17 42c0 11.333 2.16699 21.833 6.5 31.5s9.83301 17.834 16.5 24.501s14.334 11.834 23.001 15.501s17.334 5.5 26.001 5.5c17.333 0 31.833 -5.5 43.5 -16.5s17.5 -25.833 17.5 -44.5
c0 -10.667 -2.16699 -20.5 -6.5 -29.5s-10 -16.833 -17 -23.5s-14.833 -11.834 -23.5 -15.501s-17.334 -5.5 -26.001 -5.5zM244.998 608.999c-17.333 0 -31.668 5.33203 -43.001 15.999s-17 24.667 -17 42c0 11.333 2.16699 21.833 6.5 31.5s9.83301 17.834 16.5 24.501
s14.334 11.834 23.001 15.501s17.334 5.5 26.001 5.5c17.333 0 31.833 -5.5 43.5 -16.5s17.5 -25.833 17.5 -44.5c0 -10.667 -2.16699 -20.5 -6.5 -29.5s-10 -16.833 -17 -23.5s-14.833 -11.834 -23.5 -15.501s-17.334 -5.5 -26.001 -5.5z" />
    <glyph glyph-name="copyright" unicode="&#xa9;" horiz-adv-x="814" 
d="M829 347c0 -56.667 -9.33301 -107.5 -28 -152.5s-43.834 -83 -75.501 -114s-68.334 -54.667 -110.001 -71s-85.5 -24.5 -131.5 -24.5s-89.833 8.16699 -131.5 24.5s-78.334 40 -110.001 71s-56.834 69 -75.501 114s-28 95.833 -28 152.5s9.33301 107.5 28 152.5
s43.834 83 75.501 114s68.334 54.667 110.001 71s85.5 24.5 131.5 24.5s89.833 -8.16699 131.5 -24.5s78.334 -40 110.001 -71s56.834 -69 75.501 -114s28 -95.833 28 -152.5zM741 347c0 42 -6.33301 80.167 -19 114.5s-30.334 63.833 -53.001 88.5s-49.667 43.667 -81 57
s-66 20 -104 20s-72.667 -6.66699 -104 -20s-58.5 -32.333 -81.5 -57s-40.833 -54.167 -53.5 -88.5s-19 -72.5 -19 -114.5s6.33301 -80.333 19 -115s30.5 -64.334 53.5 -89.001s50.167 -43.667 81.5 -57s66 -20 104 -20s72.667 6.66699 104 20s58.333 32.333 81 57
s40.334 54.334 53.001 89.001s19 73 19 115zM498 150c-58.667 0 -104.666 17.167 -137.999 51.5s-50 83.166 -50 146.499c0 30.667 4.83301 58.334 14.5 83.001s22.834 45.334 39.501 62.001s36.334 29.5 59.001 38.5s47 13.5 73 13.5c34 0 61.333 -4.5 82 -13.5
s34 -15.5 40 -19.5l-27 -74c-8.66699 5.33301 -20.334 10.5 -35.001 15.5s-32.667 7.5 -54 7.5c-28 0 -51 -9.5 -69 -28.5s-27 -46.5 -27 -82.5c0 -16 1.83301 -31 5.5 -45s9.5 -26.333 17.5 -37s18.167 -19 30.5 -25s27.166 -9 44.499 -9c23.333 0 42.666 2.5 57.999 7.5
s27.666 9.83301 36.999 14.5l23 -76c-7.33301 -4.66699 -22.166 -10.834 -44.499 -18.501s-48.833 -11.5 -79.5 -11.5z" />
    <glyph glyph-name="ordfeminine" unicode="&#xaa;" horiz-adv-x="430" 
d="M420 625c-2.66699 1.33301 -6.33301 2.16602 -11 2.49902s-9 0.5 -13 0.5c-22 0 -42.167 -4 -60.5 -12s-34.333 -19 -48 -33s-24.334 -30.333 -32.001 -49s-11.5 -39 -11.5 -61c0 -19.333 4.66699 -36.666 14 -51.999s26.333 -23 51 -23s47.334 7.66699 68.001 23
c-0.666992 2.66699 -1 5.5 -1 8.5v8.5c0 9.33301 1.33301 20.5 4 33.5s5.66699 25.833 9 38.5zM526.001 690l-17.999 -61.002c-6.66699 -23.333 -13.167 -47.5 -19.5 -72.5s-11.666 -49.5 -15.999 -73.5s-6.5 -45.333 -6.5 -64c0 -14 1.33301 -28.167 4 -42.5
s7.66699 -29.166 15 -44.499l-76 -11c-2.66699 3.33301 -5.33398 8 -8.00098 14s-4.66699 11.667 -6 17c-15.333 -10 -32.166 -18.333 -50.499 -25s-37.5 -10 -57.5 -10c-22.667 0 -42.167 3.83301 -58.5 11.5s-30 18.167 -41 31.5s-19.167 28.833 -24.5 46.5
s-8 36.834 -8 57.501c0 36.667 6.66699 70 20 100s31.666 55.5 54.999 76.5s50.666 37.333 81.999 49s65.333 17.5 102 17.5c18 0 37.333 -1.66699 58 -5s38.667 -7.33301 54 -12z" />
    <glyph glyph-name="guillemotleft" unicode="&#xab;" horiz-adv-x="550" 
d="M380 469l-157 -194l74 -184l-81 -38l-123 237l211 224zM619 469l-157 -194l74 -184l-81 -38l-123 237l211 224z" />
    <glyph glyph-name="logicalnot" unicode="&#xac;" horiz-adv-x="568" 
d="M600 397l-84 -350h-110l60 248h-350l25 102h459z" />
    <glyph glyph-name="uni00AD" unicode="&#xad;" horiz-adv-x="319" 
d="M109 341h266l-26 -111h-266z" />
    <glyph glyph-name="registered" unicode="&#xae;" horiz-adv-x="814" 
d="M829 347c0 -57.333 -9.33301 -108.333 -28 -153s-43.834 -82.5 -75.501 -113.5s-68.334 -54.667 -110.001 -71s-85.5 -24.5 -131.5 -24.5c-45.333 0 -88.833 8.16699 -130.5 24.5s-78.334 40 -110.001 71s-57 68.833 -76 113.5s-28.5 95.667 -28.5 153
c0 56.667 9.5 107.5 28.5 152.5s44.333 83 76 114s68.334 54.667 110.001 71s85.167 24.5 130.5 24.5c46 0 89.833 -8.16699 131.5 -24.5s78.334 -40 110.001 -71s56.834 -69 75.501 -114s28 -95.833 28 -152.5zM742 347c0 42 -6.33301 80.167 -19 114.5
s-30.5 63.833 -53.5 88.5s-50.167 43.667 -81.5 57s-66 20 -104 20s-72.667 -6.66699 -104 -20s-58.333 -32.333 -81 -57s-40.334 -54.167 -53.001 -88.5s-19 -72.5 -19 -114.5s6.33301 -80.333 19 -115s30.334 -64.334 53.001 -89.001s49.667 -43.667 81 -57
s66 -20 104 -20s72.667 6.66699 104 20s58.5 32.333 81.5 57s40.833 54.334 53.5 89.001s19 73 19 115zM564 162c-13.333 28 -26.665 53.498 -39.998 76.498s-26 42.167 -38 57.5h-54v-134h-84v365c20.667 5.33301 41 9 61 11s37.667 3 53 3
c55.333 0 97.166 -10.333 125.499 -31s42.5 -52 42.5 -94c0 -22.667 -5.5 -42.5 -16.5 -59.5s-26.833 -30.167 -47.5 -39.5c13.333 -19.333 27.666 -41.666 42.999 -66.999s30.333 -54.666 45 -87.999h-90zM432.001 363.998l28 -0.000976562c26 0 46.667 3.5 62 10.5
s23 21.167 23 42.5c0 18.667 -7.16699 31.834 -21.5 39.501s-32.5 11.5 -54.5 11.5h-17.5c-5.66699 0 -12.167 -0.666992 -19.5 -2v-102z" />
    <glyph glyph-name="macron" unicode="&#xaf;" horiz-adv-x="365" 
d="M168 631l21 87h301l-21 -87h-301z" />
    <glyph glyph-name="degree" unicode="&#xb0;" horiz-adv-x="359" 
d="M307 778c20 0 39.167 -3.33301 57.5 -10s34.5 -16.334 48.5 -29.001s25 -28.167 33 -46.5s12 -38.833 12 -61.5s-4 -43.167 -12 -61.5s-19 -33.833 -33 -46.5s-30.167 -22.334 -48.5 -29.001s-37.5 -10 -57.5 -10s-39 3.33301 -57 10s-34 16.334 -48 29.001
s-25 28.167 -33 46.5s-12 38.833 -12 61.5s4 43.167 12 61.5s19 33.833 33 46.5s30 22.334 48 29.001s37 10 57 10zM307 565c17.333 0 32.333 5.83301 45 17.5s19 27.834 19 48.501s-6.33301 37 -19 49s-27.667 18 -45 18s-32.333 -6 -45 -18s-19 -28.333 -19 -49
s6.33301 -36.834 19 -48.501s27.667 -17.5 45 -17.5z" />
    <glyph glyph-name="plusminus" unicode="&#xb1;" horiz-adv-x="568" 
d="M75 102h459l-25 -102h-459zM155 437h174l45 188h111l-45 -188h174l-25 -102h-174l-44 -186h-110l44 186h-175z" />
    <glyph glyph-name="twosuperior" unicode="&#xb2;" horiz-adv-x="363" 
d="M230 385l178.002 -0.00292969l-17 -77h-275c1.33301 22.667 5 42.834 11 60.501s14.5 34 25.5 49s24.667 29 41 42s35.833 26.167 58.5 39.5c18 10.667 33.167 20 45.5 28s22.166 15.667 29.499 23s12.5 14.5 15.5 21.5s4.5 15.167 4.5 24.5c0 11.333 -4 20 -12 26
s-18.333 9 -31 9c-20 0 -38.833 -4.5 -56.5 -13.5s-33.167 -19.167 -46.5 -30.5l-30 64c17.333 16.667 38.666 30.5 63.999 41.5s53 16.5 83 16.5c36 0 64.667 -8.5 86 -25.5s32 -42.167 32 -75.5c0 -20 -3.83301 -37.667 -11.5 -53s-18.167 -29.666 -31.5 -42.999
s-29 -26.166 -47 -38.499l-59 -39.5l-34 -23c-11.333 -8 -19 -16.667 -23 -26z" />
    <glyph glyph-name="threesuperior" unicode="&#xb3;" horiz-adv-x="363" 
d="M147 400c12 -7.33301 27.001 -13.3359 45.001 -18.0029s36 -7 54 -7c12 0 23.667 1 35 3s21.333 5.33301 30 10s15.667 10.834 21 18.501s8 17.167 8 28.5c0 29.333 -26.333 44 -79 44h-36l17 67h35c10 0 20 1.16699 30 3.5s19 5.83301 27 10.5s14.5 10.334 19.5 17.001
s7.5 14 7.5 22c0 23.333 -17 35 -51 35c-17.333 0 -34.666 -2.66699 -51.999 -8s-32 -11 -44 -17l-17 66c14 8 33.833 15.667 59.5 23s50.5 11 74.5 11c36 0 64 -7.33301 84 -22s30 -37 30 -67c0 -23.333 -6.33301 -43.666 -19 -60.999s-30.334 -31 -53.001 -41
c15.333 -7.33301 27.833 -17.833 37.5 -31.5s14.5 -30.5 14.5 -50.5c0 -23.333 -4.83301 -43.5 -14.5 -60.5s-22.834 -31.167 -39.501 -42.5s-36.167 -19.666 -58.5 -24.999s-45.833 -8 -70.5 -8c-26.667 0 -51 2.66699 -73 8s-40.667 12.666 -56 21.999z" />
    <glyph glyph-name="acute" unicode="&#xb4;" horiz-adv-x="333" 
d="M314 792l65 -82l-189 -127l-49 60z" />
    <glyph glyph-name="mu" unicode="&#xb5;" horiz-adv-x="589" 
d="M624 523l-73.0049 -303.998c-3.33301 -14.667 -6.16602 -28 -8.49902 -40s-3.5 -23 -3.5 -33c0 -16.667 4.16699 -29.834 12.5 -39.501s23.833 -15.5 46.5 -17.5l-35 -99c-34.667 0.666992 -61.667 5.66699 -81 15s-33.666 21.666 -42.999 36.999
c-23.333 -17.333 -48.333 -30.5 -75 -39.5s-54 -13.5 -82 -13.5c-17.333 0 -34.166 3 -50.499 9s-29.833 15.333 -40.5 28c-1.33301 -16 -3.66602 -33 -6.99902 -51s-7.66602 -38.333 -12.999 -61l-22 -90h-120l167 699h121l-63 -264
c-3.33301 -13.333 -6.83301 -28.333 -10.5 -45s-5.5 -33 -5.5 -49c0 -10 1.16699 -19.667 3.5 -29s6.33301 -17.5 12 -24.5s13.334 -12.5 23.001 -16.5s22.167 -6 37.5 -6c17.333 0 34.666 3.16699 51.999 9.5s35.333 17.833 54 34.5c1.33301 34.667 6 69 14 103l69 287h121
z" />
    <glyph glyph-name="paragraph" unicode="&#xb6;" horiz-adv-x="674" 
d="M320 260c-57.333 5.33301 -99.998 22.668 -127.998 52.001s-42 68.666 -42 117.999c0 46.667 10.667 87 32 121s50.166 62 86.499 84s78.666 38.333 126.999 49s99.833 16 154.5 16c30 0 60.833 -1.33301 92.5 -4s62.5 -7 92.5 -13l-208 -868h-110l189 785
c-4.66699 1.33301 -12.334 2.5 -23.001 3.5s-21.667 1.5 -33 1.5h-18c-7.33301 0 -13.666 -0.333008 -18.999 -1l-190 -789h-110z" />
    <glyph glyph-name="periodcentered" unicode="&#xb7;" horiz-adv-x="265" 
d="M207 374c21.333 0 38.667 -6 52 -18s20 -29.667 20 -53c0 -13.333 -2.5 -25.5 -7.5 -36.5s-11.5 -20.333 -19.5 -28s-17.167 -13.5 -27.5 -17.5s-20.833 -6 -31.5 -6c-21.333 0 -38.5 5.83301 -51.5 17.5s-19.5 29.167 -19.5 52.5c0 28 8.66699 49.833 26 65.5
s37 23.5 59 23.5z" />
    <glyph glyph-name="cedilla" unicode="&#xb8;" horiz-adv-x="353" 
d="M206 -41c28 -14 41.999 -35.3359 41.999 -64.0029c0 -17.333 -3.33301 -32.166 -10 -44.499s-15.834 -22.666 -27.501 -30.999s-25.167 -14.5 -40.5 -18.5s-31.666 -6 -48.999 -6c-36.667 0 -67 6.33301 -91 19l30 68c7.33301 -3.33301 15.833 -6.16602 25.5 -8.49902
s20.167 -3.5 31.5 -3.5c12 0 21.5 2 28.5 6s10.5 10 10.5 18s-2.5 14.167 -7.5 18.5s-13.167 9.16602 -24.5 14.499l-13 6c4 6.66699 8.83301 14.334 14.5 23.001l17.5 25.5l17 23c5.33301 7 9 12.167 11 15.5h79l-22 -30c-9.33301 -12.667 -16.666 -23 -21.999 -31z" />
    <glyph glyph-name="onesuperior" unicode="&#xb9;" horiz-adv-x="363" 
d="M188 547l-9.99805 72c31.333 10.667 61.166 23 89.499 37s53.166 29 74.499 45h69l-94 -393h-93l67 280c-15.333 -8 -32 -15.5 -50 -22.5s-35.667 -13.167 -53 -18.5z" />
    <glyph glyph-name="ordmasculine" unicode="&#xba;" horiz-adv-x="454" 
d="M160 452c0 30 4.50293 60.333 13.5029 91s22.667 58.167 41 82.5s41.666 44.333 69.999 60s62.166 23.5 101.499 23.5c46 0 80.833 -12 104.5 -36s35.5 -57 35.5 -99c0 -30 -4.5 -60.333 -13.5 -91s-22.667 -58.167 -41 -82.5s-41.833 -44.333 -70.5 -60
s-62.334 -23.5 -101.001 -23.5c-46 0 -80.833 12 -104.5 36s-35.5 57 -35.5 99zM250.003 459c0 -23.333 5.5 -40.166 16.5 -50.499s26.167 -15.5 45.5 -15.5c18 0 34.5 5 49.5 15s28 23.167 39 39.5s19.667 35 26 56s9.5 42.167 9.5 63.5c0 23.333 -5.5 40.166 -16.5 50.499
s-26.167 15.5 -45.5 15.5c-18 0 -34.667 -5 -50 -15s-28.5 -23.167 -39.5 -39.5s-19.5 -35 -25.5 -56s-9 -42.167 -9 -63.5z" />
    <glyph glyph-name="guillemotright" unicode="&#xbb;" horiz-adv-x="550" 
d="M67 98l157 194l-74 184l81 38l123 -237l-211 -224zM306 98l157 194l-74 184l81 38l123 -237l-211 -224z" />
    <glyph glyph-name="onequarter" unicode="&#xbc;" horiz-adv-x="878" 
d="M829 693l-535 -693h-116l536 693h115zM178 547l-9.99805 72c31.333 10.667 61.166 23 89.499 37s53.166 29 74.499 45h69l-94 -393h-93l67 280c-15.333 -8 -32 -15.5 -50 -22.5s-35.667 -13.167 -53 -18.5zM746.002 160l35 144c-23.333 -19.333 -48 -41.833 -74 -67.5
s-48 -51.167 -66 -76.5h105zM802.002 394h82l-56 -234h48l-17 -68h-48l-22 -91h-82l22 91h-189l13 57c14 20.667 30.5 42 49.5 64s39.333 43.5 61 64.5s44.167 41.5 67.5 61.5s47 38.333 71 55z" />
    <glyph glyph-name="onehalf" unicode="&#xbd;" horiz-adv-x="878" 
d="M807 693l-535 -693h-116l536 693h115zM183 547l-9.99805 72c31.333 10.667 61.166 23 89.499 37s53.166 29 74.499 45h69l-94 -393h-93l67 280c-15.333 -8 -32 -15.5 -50 -22.5s-35.667 -13.167 -53 -18.5zM680.002 78l178.002 -0.00292969l-17 -77h-275
c1.33301 22.667 5 42.834 11 60.501s14.5 34 25.5 49s24.667 29 41 42s35.833 26.167 58.5 39.5c18 10.667 33.167 20 45.5 28s22.166 15.667 29.499 23s12.5 14.5 15.5 21.5s4.5 15.167 4.5 24.5c0 11.333 -4 20 -12 26s-18.333 9 -31 9c-20 0 -38.833 -4.5 -56.5 -13.5
s-33.167 -19.167 -46.5 -30.5l-30 64c17.333 16.667 38.666 30.5 63.999 41.5s53 16.5 83 16.5c36 0 64.667 -8.5 86 -25.5s32 -42.167 32 -75.5c0 -20 -3.83301 -37.667 -11.5 -53s-18.167 -29.666 -31.5 -42.999s-29 -26.166 -47 -38.499l-59 -39.5l-34 -23
c-11.333 -8 -19 -16.667 -23 -26z" />
    <glyph glyph-name="threequarters" unicode="&#xbe;" horiz-adv-x="878" 
d="M851 693l-535 -693h-116l536 693h115zM756 160l35 144c-23.333 -19.333 -48 -41.833 -74 -67.5s-48 -51.167 -66 -76.5h105zM812 394h82l-56 -234h48l-17 -68h-48l-22 -91h-82l22 91h-189l13 57c14 20.667 30.5 42 49.5 64s39.333 43.5 61 64.5s44.167 41.5 67.5 61.5
s47 38.333 71 55zM132 400c12 -7.33301 27.001 -13.3359 45.001 -18.0029s36 -7 54 -7c12 0 23.667 1 35 3s21.333 5.33301 30 10s15.667 10.834 21 18.501s8 17.167 8 28.5c0 29.333 -26.333 44 -79 44h-36l17 67h35c10 0 20 1.16699 30 3.5s19 5.83301 27 10.5
s14.5 10.334 19.5 17.001s7.5 14 7.5 22c0 23.333 -17 35 -51 35c-17.333 0 -34.666 -2.66699 -51.999 -8s-32 -11 -44 -17l-17 66c14 8 33.833 15.667 59.5 23s50.5 11 74.5 11c36 0 64 -7.33301 84 -22s30 -37 30 -67c0 -23.333 -6.33301 -43.666 -19 -60.999
s-30.334 -31 -53.001 -41c15.333 -7.33301 27.833 -17.833 37.5 -31.5s14.5 -30.5 14.5 -50.5c0 -23.333 -4.83301 -43.5 -14.5 -60.5s-22.834 -31.167 -39.501 -42.5s-36.167 -19.666 -58.5 -24.999s-45.833 -8 -70.5 -8c-26.667 0 -51 2.66699 -73 8
s-40.667 12.666 -56 21.999z" />
    <glyph glyph-name="questiondown" unicode="&#xbf;" horiz-adv-x="414" 
d="M260 101c-26.667 -20.667 -48.333 -39.832 -65 -57.499s-27.167 -31.834 -31.5 -42.501s-6.5 -21 -6.5 -31c0 -8.66699 1.66699 -17.334 5 -26.001s10.5 -16.667 21.5 -24s27.167 -11 48.5 -11c28 0 54 4 78 12s43.333 16 58 24l15 -95c-21.333 -12 -47.333 -22 -78 -30
s-62 -12 -94 -12c-55.333 0 -98.333 12.833 -129 38.5s-46 59.834 -46 102.501c0 22.667 3.16699 43.167 9.5 61.5s15 35 26 50s23.833 29 38.5 42s30 25.833 46 38.5l34 27c20.667 16.667 40 35.167 58 55.5s27.333 42.833 28 67.5h107c-0.666992 -22 -4.5 -42 -11.5 -60
s-16 -34.5 -27 -49.5s-23.833 -29 -38.5 -42s-30 -25.833 -46 -38.5zM342.001 364.002c-21.333 0 -38.499 5.83301 -51.499 17.5s-19.5 29.167 -19.5 52.5c0 28 8.66699 49.833 26 65.5s37 23.5 59 23.5c21.333 0 38.666 -6 51.999 -18s20 -29.667 20 -53
c0 -13.333 -2.5 -25.5 -7.5 -36.5s-11.5 -20.333 -19.5 -28s-17.167 -13.5 -27.5 -17.5s-20.833 -6 -31.5 -6z" />
    <glyph glyph-name="Agrave" unicode="&#xc0;" horiz-adv-x="656" 
d="M528 0c-2 28 -4.16602 55.833 -6.49902 83.5s-4.83301 54.5 -7.5 80.5h-281l-45.5 -79.5l-45.5 -84.5h-135l116.5 200l108 179l104 162.5l103.5 151.5h117c21.333 -99.333 39.666 -207.833 54.999 -325.5s30 -240.167 44 -367.5h-127zM470.001 561l-84.5 -132.5
c-31 -49 -63.833 -103.833 -98.5 -164.5h217c-4 47.333 -8.83301 95.833 -14.5 145.5s-12.167 100.167 -19.5 151.5zM445.001 951l148 -157l-56 -56l-166 134z" />
    <glyph glyph-name="Aacute" unicode="&#xc1;" horiz-adv-x="656" 
d="M528 0c-2 28 -4.16602 55.833 -6.49902 83.5s-4.83301 54.5 -7.5 80.5h-281l-45.5 -79.5l-45.5 -84.5h-135l116.5 200l108 179l104 162.5l103.5 151.5h117c21.333 -99.333 39.666 -207.833 54.999 -325.5s30 -240.167 44 -367.5h-127zM470.001 561l-84.5 -132.5
c-31 -49 -63.833 -103.833 -98.5 -164.5h217c-4 47.333 -8.83301 95.833 -14.5 145.5s-12.167 100.167 -19.5 151.5zM583.001 954l65 -82l-189 -127l-49 60z" />
    <glyph glyph-name="Acircumflex" unicode="&#xc2;" horiz-adv-x="656" 
d="M528 0c-2 28 -4.16602 55.833 -6.49902 83.5s-4.83301 54.5 -7.5 80.5h-281l-45.5 -79.5l-45.5 -84.5h-135l116.5 200l108 179l104 162.5l103.5 151.5h117c21.333 -99.333 39.666 -207.833 54.999 -325.5s30 -240.167 44 -367.5h-127zM470.001 561l-84.5 -132.5
c-31 -49 -63.833 -103.833 -98.5 -164.5h217c-4 47.333 -8.83301 95.833 -14.5 145.5s-12.167 100.167 -19.5 151.5zM544.001 945l114 -159l-52 -47l-81 88l-118 -86l-40 53z" />
    <glyph glyph-name="Atilde" unicode="&#xc3;" horiz-adv-x="656" 
d="M528 0c-2 28 -4.16602 55.833 -6.49902 83.5s-4.83301 54.5 -7.5 80.5h-281l-45.5 -79.5l-45.5 -84.5h-135l116.5 200l108 179l104 162.5l103.5 151.5h117c21.333 -99.333 39.666 -207.833 54.999 -325.5s30 -240.167 44 -367.5h-127zM470.001 561l-84.5 -132.5
c-31 -49 -63.833 -103.833 -98.5 -164.5h217c-4 47.333 -8.83301 95.833 -14.5 145.5s-12.167 100.167 -19.5 151.5zM576.001 773c-12 0 -22.999 2 -32.999 6s-19.5 8.16699 -28.5 12.5l-26 12.5c-8.33301 4 -16.833 6 -25.5 6c-11.333 0 -21.333 -3.83301 -30 -11.5
s-17.667 -18.5 -27 -32.5l-57 35c14 31.333 31 55.333 51 72s45 25 75 25c13.333 0 25.166 -2 35.499 -6s19.833 -8.33301 28.5 -13l25 -13c8 -4 16.333 -6 25 -6c11.333 0 21.333 4 30 12s17.667 19 27 33l57 -35c-14.667 -32 -32 -56.167 -52 -72.5s-45 -24.5 -75 -24.5z
" />
    <glyph glyph-name="Adieresis" unicode="&#xc4;" horiz-adv-x="656" 
d="M528 0c-2 28 -4.16602 55.833 -6.49902 83.5s-4.83301 54.5 -7.5 80.5h-281l-45.5 -79.5l-45.5 -84.5h-135l116.5 200l108 179l104 162.5l103.5 151.5h117c21.333 -99.333 39.666 -207.833 54.999 -325.5s30 -240.167 44 -367.5h-127zM470.001 561l-84.5 -132.5
c-31 -49 -63.833 -103.833 -98.5 -164.5h217c-4 47.333 -8.83301 95.833 -14.5 145.5s-12.167 100.167 -19.5 151.5zM625.001 767c-17.333 0 -31.668 5.33203 -43.001 15.999s-17 24.667 -17 42c0 11.333 2.16699 21.833 6.5 31.5s9.83301 17.834 16.5 24.501
s14.334 11.834 23.001 15.501s17.334 5.5 26.001 5.5c17.333 0 31.833 -5.5 43.5 -16.5s17.5 -25.833 17.5 -44.5c0 -10.667 -2.16699 -20.5 -6.5 -29.5s-10 -16.833 -17 -23.5s-14.833 -11.834 -23.5 -15.501s-17.334 -5.5 -26.001 -5.5zM418.999 766.999
c-17.333 0 -31.668 5.33203 -43.001 15.999s-17 24.667 -17 42c0 11.333 2.16699 21.833 6.5 31.5s9.83301 17.834 16.5 24.501s14.334 11.834 23.001 15.501s17.334 5.5 26.001 5.5c17.333 0 31.833 -5.5 43.5 -16.5s17.5 -25.833 17.5 -44.5
c0 -10.667 -2.16699 -20.5 -6.5 -29.5s-10 -16.833 -17 -23.5s-14.833 -11.834 -23.5 -15.501s-17.334 -5.5 -26.001 -5.5z" />
    <glyph glyph-name="Aring" unicode="&#xc5;" horiz-adv-x="656" 
d="M615 752c0 -22 -4.83008 -41 -14.4971 -57s-22.167 -28.333 -37.5 -37c19.333 -96 36.166 -199.667 50.499 -311s28.166 -227 41.499 -347h-127c-2 28 -4.16699 55.833 -6.5 83.5s-4.83301 54.5 -7.5 80.5h-281l-45.5 -79.5l-45.5 -84.5h-135l112 193.5l105 174l101 158
l100 147.5c-9.33301 9.33301 -16.833 20.5 -22.5 33.5s-8.5 28.167 -8.5 45.5c0 16.667 3 31.834 9 45.501s14 25 24 34s21.667 16 35 21s27.333 7.5 42 7.5s28.667 -2.5 42 -7.5s25.166 -12 35.499 -21s18.5 -20.333 24.5 -34s9 -28.834 9 -45.501zM470.003 561
l-84.5 -132.5c-31 -49 -63.833 -103.833 -98.5 -164.5h217c-4 47.333 -8.83301 95.833 -14.5 145.5s-12.167 100.167 -19.5 151.5zM553.003 752c0 16 -4.83301 28.5 -14.5 37.5s-21.167 13.5 -34.5 13.5s-24.833 -4.5 -34.5 -13.5s-14.5 -21.5 -14.5 -37.5
s4.83301 -28.5 14.5 -37.5s21.167 -13.5 34.5 -13.5s24.833 4.5 34.5 13.5s14.5 21.5 14.5 37.5z" />
    <glyph glyph-name="AE" unicode="&#xc6;" horiz-adv-x="951" 
d="M510 171h-245l-65 -86l-62 -85h-136l155.5 201.5l143.5 177.5l139 161.5c46 51.667 93.667 102.5 143 152.5h470l-26 -106h-297l-41 -173h262l-25 -103h-261l-50 -205h320l-25 -106h-441zM608 579l-64 -69.5l-68.5 -78l-68.5 -81l-65 -78.5h192z" />
    <glyph glyph-name="Ccedilla" unicode="&#xc7;" horiz-adv-x="606" 
d="M381 -41c28 -14 41.999 -35.3359 41.999 -64.0029c0 -17.333 -3.33301 -32.166 -10 -44.499s-15.834 -22.666 -27.501 -30.999s-25.167 -14.5 -40.5 -18.5s-31.666 -6 -48.999 -6c-36.667 0 -67 6.33301 -91 19l30 68c7.33301 -3.33301 15.833 -6.16602 25.5 -8.49902
s20.167 -3.5 31.5 -3.5c12 0 21.5 2 28.5 6s10.5 10 10.5 18s-2.5 14.167 -7.5 18.5s-13.167 9.16602 -24.5 14.499l-13 6c4.66699 8 10.5 17.333 17.5 28l20.5 30c-64.667 12.667 -114.667 43.167 -150 91.5s-53 109.833 -53 184.5c0 56 9.33301 110.5 28 163.5
s45.667 100.167 81 141.5s78.333 74.5 129 99.5s108 37.5 172 37.5c42 0 78.5 -4.66699 109.5 -14s58.167 -20.666 81.5 -33.999l-48 -101c-21.333 12.667 -44.166 22.5 -68.499 29.5s-51.833 10.5 -82.5 10.5c-42 0 -79.667 -9.33301 -113 -28s-61.833 -43.167 -85.5 -73.5
s-41.667 -64.833 -54 -103.5s-18.5 -78 -18.5 -118c0 -62 13.5 -107.833 40.5 -137.5s66.5 -44.5 118.5 -44.5c40 0 74 4.5 102 13.5s52 18.167 72 27.5l15 -106c-21.333 -11.333 -48.5 -21.5 -81.5 -30.5s-72.833 -13.833 -119.5 -14.5c-8 -10 -14 -18.667 -18 -26z" />
    <glyph glyph-name="Egrave" unicode="&#xc8;" horiz-adv-x="572" 
d="M78 0l166 693h430l-25 -105h-305l-41 -174h270l-25 -103h-269l-50 -206h328l-25 -105h-454zM420 951l148 -157l-56 -56l-166 134z" />
    <glyph glyph-name="Eacute" unicode="&#xc9;" horiz-adv-x="572" 
d="M78 0l166 693h430l-25 -105h-305l-41 -174h270l-25 -103h-269l-50 -206h328l-25 -105h-454zM568 954l65 -82l-189 -127l-49 60z" />
    <glyph glyph-name="Ecircumflex" unicode="&#xca;" horiz-adv-x="572" 
d="M78 0l166 693h430l-25 -105h-305l-41 -174h270l-25 -103h-269l-50 -206h328l-25 -105h-454zM516 945l114 -159l-52 -47l-81 88l-118 -86l-40 53z" />
    <glyph glyph-name="Edieresis" unicode="&#xcb;" horiz-adv-x="572" 
d="M78 0l166 693h430l-25 -105h-305l-41 -174h270l-25 -103h-269l-50 -206h328l-25 -105h-454zM584 767c-17.333 0 -31.668 5.33203 -43.001 15.999s-17 24.667 -17 42c0 11.333 2.16699 21.833 6.5 31.5s9.83301 17.834 16.5 24.501s14.334 11.834 23.001 15.501
s17.334 5.5 26.001 5.5c17.333 0 31.833 -5.5 43.5 -16.5s17.5 -25.833 17.5 -44.5c0 -10.667 -2.16699 -20.5 -6.5 -29.5s-10 -16.833 -17 -23.5s-14.833 -11.834 -23.5 -15.501s-17.334 -5.5 -26.001 -5.5zM377.998 766.999c-17.333 0 -31.668 5.33203 -43.001 15.999
s-17 24.667 -17 42c0 11.333 2.16699 21.833 6.5 31.5s9.83301 17.834 16.5 24.501s14.334 11.834 23.001 15.501s17.334 5.5 26.001 5.5c17.333 0 31.833 -5.5 43.5 -16.5s17.5 -25.833 17.5 -44.5c0 -10.667 -2.16699 -20.5 -6.5 -29.5s-10 -16.833 -17 -23.5
s-14.833 -11.834 -23.5 -15.501s-17.334 -5.5 -26.001 -5.5z" />
    <glyph glyph-name="Igrave" unicode="&#xcc;" horiz-adv-x="286" 
d="M244 693h126l-166 -693h-126zM256 951l148 -157l-56 -56l-166 134z" />
    <glyph glyph-name="Iacute" unicode="&#xcd;" horiz-adv-x="286" 
d="M244 693h126l-166 -693h-126zM412 954l65 -82l-189 -127l-49 60z" />
    <glyph glyph-name="Icircumflex" unicode="&#xce;" horiz-adv-x="286" 
d="M244 693h126l-166 -693h-126zM361 945l114 -159l-52 -47l-81 88l-118 -86l-40 53z" />
    <glyph glyph-name="Idieresis" unicode="&#xcf;" horiz-adv-x="286" 
d="M244 693h126l-166 -693h-126zM437 767c-17.333 0 -31.668 5.33203 -43.001 15.999s-17 24.667 -17 42c0 11.333 2.16699 21.833 6.5 31.5s9.83301 17.834 16.5 24.501s14.334 11.834 23.001 15.501s17.334 5.5 26.001 5.5c17.333 0 31.833 -5.5 43.5 -16.5
s17.5 -25.833 17.5 -44.5c0 -10.667 -2.16699 -20.5 -6.5 -29.5s-10 -16.833 -17 -23.5s-14.833 -11.834 -23.5 -15.501s-17.334 -5.5 -26.001 -5.5zM230.998 766.999c-17.333 0 -31.668 5.33203 -43.001 15.999s-17 24.667 -17 42c0 11.333 2.16699 21.833 6.5 31.5
s9.83301 17.834 16.5 24.501s14.334 11.834 23.001 15.501s17.334 5.5 26.001 5.5c17.333 0 31.833 -5.5 43.5 -16.5s17.5 -25.833 17.5 -44.5c0 -10.667 -2.16699 -20.5 -6.5 -29.5s-10 -16.833 -17 -23.5s-14.833 -11.834 -23.5 -15.501s-17.334 -5.5 -26.001 -5.5z" />
    <glyph glyph-name="Eth" unicode="&#xd0;" horiz-adv-x="723" 
d="M116 408l80.999 0.00195312l66 274c32.667 7.33301 65.667 12.166 99 14.499s64 3.5 92 3.5c50.667 0 95.334 -6.5 134.001 -19.5s71 -31.333 97 -55s45.667 -52.334 59 -86.001s20 -71.167 20 -112.5c0 -62 -10 -119.667 -30 -173s-49.667 -99.333 -89 -138
s-88.5 -69 -147.5 -91s-127.5 -33 -205.5 -33c-28 0 -59.333 1.5 -94 4.5s-66.667 7.83301 -96 14.5l72 302h-80zM322.999 408.002l127.998 -0.00195312l-23 -95h-128l-50 -210c7.33301 -1.33301 15.833 -2.16602 25.5 -2.49902s24.834 -0.5 45.501 -0.5
c48 0 91.333 7.66699 130 23s71.5 37.166 98.5 65.499s47.833 62.333 62.5 102s22 83.834 22 132.501c0 52.667 -15 94.334 -45 125.001s-79 46 -147 46c-17.333 0 -31.166 -0.333008 -41.499 -1s-21.5 -1.66699 -33.5 -3z" />
    <glyph glyph-name="Ntilde" unicode="&#xd1;" horiz-adv-x="719" 
d="M535 0c-12.667 38.667 -27.167 80.333 -43.5 125s-33.666 89.334 -51.999 134.001s-37.333 88.167 -57 130.5s-39.5 81.166 -59.5 116.499l-121 -506h-124l166 693h101c18.667 -30 38.167 -64.333 58.5 -103s40.166 -79.167 59.499 -121.5l56 -127.5
c18 -42.667 33.667 -83 47 -121l111 473h125l-166 -693h-101zM604 772.999c-12 0 -22.999 2 -32.999 6s-19.5 8.16699 -28.5 12.5l-26 12.5c-8.33301 4 -16.833 6 -25.5 6c-11.333 0 -21.333 -3.83301 -30 -11.5s-17.667 -18.5 -27 -32.5l-57 35c14 31.333 31 55.333 51 72
s45 25 75 25c13.333 0 25.166 -2 35.499 -6s19.833 -8.33301 28.5 -13l25 -13c8 -4 16.333 -6 25 -6c11.333 0 21.333 4 30 12s17.667 19 27 33l57 -35c-14.667 -32 -32 -56.167 -52 -72.5s-45 -24.5 -75 -24.5z" />
    <glyph glyph-name="Ograve" unicode="&#xd2;" horiz-adv-x="742" 
d="M505 600c-38 0 -72.499 -9.5 -103.499 -28.5s-57.5 -43.833 -79.5 -74.5s-39.167 -65.5 -51.5 -104.5s-18.5 -78.5 -18.5 -118.5c0 -54.667 11.667 -98.334 35 -131.001s60.666 -49 111.999 -49c38 0 72.667 9.5 104 28.5s58 43.833 80 74.5s39.167 65.5 51.5 104.5
s18.5 78.5 18.5 118.5c0 54.667 -11.833 98.334 -35.5 131.001s-61.167 49 -112.5 49zM386.001 -15c-38.667 0 -74.1689 6.16699 -106.502 18.5s-60.333 30.166 -84 53.499s-42 52.333 -55 87s-19.5 74.334 -19.5 119.001c0 53.333 8.66699 106.666 26 159.999
s42.833 101.166 76.5 143.499s75.167 76.666 124.5 102.999s106 39.5 170 39.5c38.667 0 74.334 -6.16699 107.001 -18.5s60.667 -30.166 84 -53.499s41.5 -52.333 54.5 -87s19.5 -74.334 19.5 -119.001c0 -53.333 -8.66699 -106.666 -26 -159.999
s-42.666 -101.166 -75.999 -143.499s-74.833 -76.666 -124.5 -102.999s-106.5 -39.5 -170.5 -39.5zM506.999 951l148 -157l-56 -56l-166 134z" />
    <glyph glyph-name="Oacute" unicode="&#xd3;" horiz-adv-x="742" 
d="M505 600c-38 0 -72.499 -9.5 -103.499 -28.5s-57.5 -43.833 -79.5 -74.5s-39.167 -65.5 -51.5 -104.5s-18.5 -78.5 -18.5 -118.5c0 -54.667 11.667 -98.334 35 -131.001s60.666 -49 111.999 -49c38 0 72.667 9.5 104 28.5s58 43.833 80 74.5s39.167 65.5 51.5 104.5
s18.5 78.5 18.5 118.5c0 54.667 -11.833 98.334 -35.5 131.001s-61.167 49 -112.5 49zM386.001 -15c-38.667 0 -74.1689 6.16699 -106.502 18.5s-60.333 30.166 -84 53.499s-42 52.333 -55 87s-19.5 74.334 -19.5 119.001c0 53.333 8.66699 106.666 26 159.999
s42.833 101.166 76.5 143.499s75.167 76.666 124.5 102.999s106 39.5 170 39.5c38.667 0 74.334 -6.16699 107.001 -18.5s60.667 -30.166 84 -53.499s41.5 -52.333 54.5 -87s19.5 -74.334 19.5 -119.001c0 -53.333 -8.66699 -106.666 -26 -159.999
s-42.666 -101.166 -75.999 -143.499s-74.833 -76.666 -124.5 -102.999s-106.5 -39.5 -170.5 -39.5zM610.999 954l65 -82l-189 -127l-49 60z" />
    <glyph glyph-name="Ocircumflex" unicode="&#xd4;" horiz-adv-x="742" 
d="M505 600c-38 0 -72.499 -9.5 -103.499 -28.5s-57.5 -43.833 -79.5 -74.5s-39.167 -65.5 -51.5 -104.5s-18.5 -78.5 -18.5 -118.5c0 -54.667 11.667 -98.334 35 -131.001s60.666 -49 111.999 -49c38 0 72.667 9.5 104 28.5s58 43.833 80 74.5s39.167 65.5 51.5 104.5
s18.5 78.5 18.5 118.5c0 54.667 -11.833 98.334 -35.5 131.001s-61.167 49 -112.5 49zM386.001 -15c-38.667 0 -74.1689 6.16699 -106.502 18.5s-60.333 30.166 -84 53.499s-42 52.333 -55 87s-19.5 74.334 -19.5 119.001c0 53.333 8.66699 106.666 26 159.999
s42.833 101.166 76.5 143.499s75.167 76.666 124.5 102.999s106 39.5 170 39.5c38.667 0 74.334 -6.16699 107.001 -18.5s60.667 -30.166 84 -53.499s41.5 -52.333 54.5 -87s19.5 -74.334 19.5 -119.001c0 -53.333 -8.66699 -106.666 -26 -159.999
s-42.666 -101.166 -75.999 -143.499s-74.833 -76.666 -124.5 -102.999s-106.5 -39.5 -170.5 -39.5zM571.999 945l114 -159l-52 -47l-81 88l-118 -86l-40 53z" />
    <glyph glyph-name="Otilde" unicode="&#xd5;" horiz-adv-x="742" 
d="M505 600c-38 0 -72.499 -9.5 -103.499 -28.5s-57.5 -43.833 -79.5 -74.5s-39.167 -65.5 -51.5 -104.5s-18.5 -78.5 -18.5 -118.5c0 -54.667 11.667 -98.334 35 -131.001s60.666 -49 111.999 -49c38 0 72.667 9.5 104 28.5s58 43.833 80 74.5s39.167 65.5 51.5 104.5
s18.5 78.5 18.5 118.5c0 54.667 -11.833 98.334 -35.5 131.001s-61.167 49 -112.5 49zM386.001 -15c-38.667 0 -74.1689 6.16699 -106.502 18.5s-60.333 30.166 -84 53.499s-42 52.333 -55 87s-19.5 74.334 -19.5 119.001c0 53.333 8.66699 106.666 26 159.999
s42.833 101.166 76.5 143.499s75.167 76.666 124.5 102.999s106 39.5 170 39.5c38.667 0 74.334 -6.16699 107.001 -18.5s60.667 -30.166 84 -53.499s41.5 -52.333 54.5 -87s19.5 -74.334 19.5 -119.001c0 -53.333 -8.66699 -106.666 -26 -159.999
s-42.666 -101.166 -75.999 -143.499s-74.833 -76.666 -124.5 -102.999s-106.5 -39.5 -170.5 -39.5zM600.999 773c-12 0 -22.999 2 -32.999 6s-19.5 8.16699 -28.5 12.5l-26 12.5c-8.33301 4 -16.833 6 -25.5 6c-11.333 0 -21.333 -3.83301 -30 -11.5
s-17.667 -18.5 -27 -32.5l-57 35c14 31.333 31 55.333 51 72s45 25 75 25c13.333 0 25.166 -2 35.499 -6s19.833 -8.33301 28.5 -13l25 -13c8 -4 16.333 -6 25 -6c11.333 0 21.333 4 30 12s17.667 19 27 33l57 -35c-14.667 -32 -32 -56.167 -52 -72.5s-45 -24.5 -75 -24.5z
" />
    <glyph glyph-name="Odieresis" unicode="&#xd6;" horiz-adv-x="742" 
d="M505 600c-38 0 -72.499 -9.5 -103.499 -28.5s-57.5 -43.833 -79.5 -74.5s-39.167 -65.5 -51.5 -104.5s-18.5 -78.5 -18.5 -118.5c0 -54.667 11.667 -98.334 35 -131.001s60.666 -49 111.999 -49c38 0 72.667 9.5 104 28.5s58 43.833 80 74.5s39.167 65.5 51.5 104.5
s18.5 78.5 18.5 118.5c0 54.667 -11.833 98.334 -35.5 131.001s-61.167 49 -112.5 49zM386.001 -15c-38.667 0 -74.1689 6.16699 -106.502 18.5s-60.333 30.166 -84 53.499s-42 52.333 -55 87s-19.5 74.334 -19.5 119.001c0 53.333 8.66699 106.666 26 159.999
s42.833 101.166 76.5 143.499s75.167 76.666 124.5 102.999s106 39.5 170 39.5c38.667 0 74.334 -6.16699 107.001 -18.5s60.667 -30.166 84 -53.499s41.5 -52.333 54.5 -87s19.5 -74.334 19.5 -119.001c0 -53.333 -8.66699 -106.666 -26 -159.999
s-42.666 -101.166 -75.999 -143.499s-74.833 -76.666 -124.5 -102.999s-106.5 -39.5 -170.5 -39.5zM649.999 767c-17.333 0 -31.668 5.33203 -43.001 15.999s-17 24.667 -17 42c0 11.333 2.16699 21.833 6.5 31.5s9.83301 17.834 16.5 24.501s14.334 11.834 23.001 15.501
s17.334 5.5 26.001 5.5c17.333 0 31.833 -5.5 43.5 -16.5s17.5 -25.833 17.5 -44.5c0 -10.667 -2.16699 -20.5 -6.5 -29.5s-10 -16.833 -17 -23.5s-14.833 -11.834 -23.5 -15.501s-17.334 -5.5 -26.001 -5.5zM443.997 766.999c-17.333 0 -31.668 5.33203 -43.001 15.999
s-17 24.667 -17 42c0 11.333 2.16699 21.833 6.5 31.5s9.83301 17.834 16.5 24.501s14.334 11.834 23.001 15.501s17.334 5.5 26.001 5.5c17.333 0 31.833 -5.5 43.5 -16.5s17.5 -25.833 17.5 -44.5c0 -10.667 -2.16699 -20.5 -6.5 -29.5s-10 -16.833 -17 -23.5
s-14.833 -11.834 -23.5 -15.501s-17.334 -5.5 -26.001 -5.5z" />
    <glyph glyph-name="multiply" unicode="&#xd7;" horiz-adv-x="568" 
d="M540 509l58 -76l-176 -143l105 -139l-82 -67l-105 140l-176 -143l-59 76l177 142l-106 140l83 66l105 -139z" />
    <glyph glyph-name="Oslash" unicode="&#xd8;" horiz-adv-x="742" 
d="M390 -15c-61.333 0 -113.666 14.667 -156.999 44l-61 -70l-68 53l68 77c-15.333 22.667 -27 48.334 -35 77.001s-12 61 -12 97c0 53.333 8.66699 106.666 26 159.999s42.833 101.166 76.5 143.499s75.167 76.666 124.5 102.999s106 39.5 170 39.5
c30 0 58.167 -3.83301 84.5 -11.5s50.166 -18.5 71.499 -32.5l61 69l67 -53l-67 -76c15.333 -22.667 27.166 -48.334 35.499 -77.001s12.5 -61 12.5 -97c0 -53.333 -8.66699 -106.666 -26 -159.999s-42.666 -101.166 -75.999 -143.499s-74.833 -76.666 -124.5 -102.999
s-106.5 -39.5 -170.5 -39.5zM657 420c0 30.667 -3.33301 57 -10 79l-334 -379c23.333 -17.333 53.333 -26 90 -26c38 0 72.667 9.5 104 28.5s58 43.833 80 74.5s39.167 65.5 51.5 104.5s18.5 78.5 18.5 118.5zM509 600c-38 0 -72.499 -9.5 -103.499 -28.5
s-57.5 -43.833 -79.5 -74.5s-39.167 -65.5 -51.5 -104.5s-18.5 -78.5 -18.5 -118.5c0 -30.667 3.33301 -57 10 -79l332 379c-22.667 17.333 -52.334 26 -89.001 26z" />
    <glyph glyph-name="Ugrave" unicode="&#xd9;" horiz-adv-x="677" 
d="M660 255c-10 -42.667 -22.6689 -80.665 -38.002 -113.998s-35.166 -61.5 -59.499 -84.5s-54 -40.667 -89 -53s-77.167 -18.5 -126.5 -18.5c-38.667 0 -71.834 5.16699 -99.501 15.5s-50.167 24.5 -67.5 42.5s-30.166 39.5 -38.499 64.5s-12.5 52.167 -12.5 81.5
c0 15.333 1.16699 32.333 3.5 51s5.83301 36.667 10.5 54l95 399h127l-99 -413c-3.33301 -12.667 -6 -25.834 -8 -39.501s-3 -26.834 -3 -39.501c0 -14.667 1.83301 -28.5 5.5 -41.5s9.83398 -24.167 18.501 -33.5s20 -16.833 34 -22.5s31.333 -8.5 52 -8.5
c48.667 0 86 14.333 112 43s45.667 71.667 59 129l102 426h127zM447.998 951.002l148 -157l-56 -56l-166 134z" />
    <glyph glyph-name="Uacute" unicode="&#xda;" horiz-adv-x="677" 
d="M660 255c-10 -42.667 -22.6689 -80.665 -38.002 -113.998s-35.166 -61.5 -59.499 -84.5s-54 -40.667 -89 -53s-77.167 -18.5 -126.5 -18.5c-38.667 0 -71.834 5.16699 -99.501 15.5s-50.167 24.5 -67.5 42.5s-30.166 39.5 -38.499 64.5s-12.5 52.167 -12.5 81.5
c0 15.333 1.16699 32.333 3.5 51s5.83301 36.667 10.5 54l95 399h127l-99 -413c-3.33301 -12.667 -6 -25.834 -8 -39.501s-3 -26.834 -3 -39.501c0 -14.667 1.83301 -28.5 5.5 -41.5s9.83398 -24.167 18.501 -33.5s20 -16.833 34 -22.5s31.333 -8.5 52 -8.5
c48.667 0 86 14.333 112 43s45.667 71.667 59 129l102 426h127zM589.998 954.002l65 -82l-189 -127l-49 60z" />
    <glyph glyph-name="Ucircumflex" unicode="&#xdb;" horiz-adv-x="677" 
d="M660 255c-10 -42.667 -22.6689 -80.665 -38.002 -113.998s-35.166 -61.5 -59.499 -84.5s-54 -40.667 -89 -53s-77.167 -18.5 -126.5 -18.5c-38.667 0 -71.834 5.16699 -99.501 15.5s-50.167 24.5 -67.5 42.5s-30.166 39.5 -38.499 64.5s-12.5 52.167 -12.5 81.5
c0 15.333 1.16699 32.333 3.5 51s5.83301 36.667 10.5 54l95 399h127l-99 -413c-3.33301 -12.667 -6 -25.834 -8 -39.501s-3 -26.834 -3 -39.501c0 -14.667 1.83301 -28.5 5.5 -41.5s9.83398 -24.167 18.501 -33.5s20 -16.833 34 -22.5s31.333 -8.5 52 -8.5
c48.667 0 86 14.333 112 43s45.667 71.667 59 129l102 426h127zM547.998 945.002l114 -159l-52 -47l-81 88l-118 -86l-40 53z" />
    <glyph glyph-name="Udieresis" unicode="&#xdc;" horiz-adv-x="677" 
d="M660 255c-10 -42.667 -22.6689 -80.665 -38.002 -113.998s-35.166 -61.5 -59.499 -84.5s-54 -40.667 -89 -53s-77.167 -18.5 -126.5 -18.5c-38.667 0 -71.834 5.16699 -99.501 15.5s-50.167 24.5 -67.5 42.5s-30.166 39.5 -38.499 64.5s-12.5 52.167 -12.5 81.5
c0 15.333 1.16699 32.333 3.5 51s5.83301 36.667 10.5 54l95 399h127l-99 -413c-3.33301 -12.667 -6 -25.834 -8 -39.501s-3 -26.834 -3 -39.501c0 -14.667 1.83301 -28.5 5.5 -41.5s9.83398 -24.167 18.501 -33.5s20 -16.833 34 -22.5s31.333 -8.5 52 -8.5
c48.667 0 86 14.333 112 43s45.667 71.667 59 129l102 426h127zM621.998 767.002c-17.333 0 -31.668 5.33203 -43.001 15.999s-17 24.667 -17 42c0 11.333 2.16699 21.833 6.5 31.5s9.83301 17.834 16.5 24.501s14.334 11.834 23.001 15.501s17.334 5.5 26.001 5.5
c17.333 0 31.833 -5.5 43.5 -16.5s17.5 -25.833 17.5 -44.5c0 -10.667 -2.16699 -20.5 -6.5 -29.5s-10 -16.833 -17 -23.5s-14.833 -11.834 -23.5 -15.501s-17.334 -5.5 -26.001 -5.5zM415.996 767.001c-17.333 0 -31.668 5.33203 -43.001 15.999s-17 24.667 -17 42
c0 11.333 2.16699 21.833 6.5 31.5s9.83301 17.834 16.5 24.501s14.334 11.834 23.001 15.501s17.334 5.5 26.001 5.5c17.333 0 31.833 -5.5 43.5 -16.5s17.5 -25.833 17.5 -44.5c0 -10.667 -2.16699 -20.5 -6.5 -29.5s-10 -16.833 -17 -23.5s-14.833 -11.834 -23.5 -15.501
s-17.334 -5.5 -26.001 -5.5z" />
    <glyph glyph-name="Yacute" unicode="&#xdd;" horiz-adv-x="595" 
d="M382 387l120.498 150.5c39 50.333 75.5 102.166 109.5 155.499h142l-78 -107l-79.5 -103.5l-83.5 -102.5l-89 -104l-66 -276h-126l66 276c-27.333 70 -52.166 139.5 -74.499 208.5s-43.166 138.5 -62.499 208.5h134c11.333 -51.333 24.333 -102.666 39 -153.999
s30.667 -102 48 -152zM547.998 954l65 -82l-189 -127l-49 60z" />
    <glyph glyph-name="Thorn" unicode="&#xde;" horiz-adv-x="628" 
d="M370 693l-25.998 -107c11.333 1.33301 24.666 2.16602 39.999 2.49902s28.666 0.5 39.999 0.5c40.667 0 76.167 -4.66699 106.5 -14s55.5 -22.166 75.5 -38.499s34.833 -36 44.5 -59s14.5 -47.833 14.5 -74.5c0 -38 -7.5 -73.333 -22.5 -106s-37.667 -61 -68 -85
s-68 -42.833 -113 -56.5s-97.5 -20.5 -157.5 -20.5h-69l-32 -135h-126l166 693h127zM392.002 482c-18 0 -33 -0.333984 -45 -1.00098s-21.667 -1.66699 -29 -3l-57 -236h56c28 0 55.167 2.16699 81.5 6.5s49.5 12.333 69.5 24s36.167 27.334 48.5 47.001
s18.5 44.5 18.5 74.5c0 32.667 -12.833 55.5 -38.5 68.5s-60.5 19.5 -104.5 19.5z" />
    <glyph glyph-name="germandbls" unicode="&#xdf;" horiz-adv-x="621" 
d="M209 561c9.33301 38.667 22.3359 71.502 39.0029 98.502s36.167 49.167 58.5 66.5s47.5 30 75.5 38s58 12 90 12c26.667 0 51.167 -3.5 73.5 -10.5s41.666 -16.833 57.999 -29.5s29 -27.667 38 -45s13.5 -36.333 13.5 -57c0 -30.667 -7 -57.167 -21 -79.5
s-35.333 -46.5 -64 -72.5c-20.667 -18.667 -38.167 -35.167 -52.5 -49.5s-21.5 -31.833 -21.5 -52.5c0 -14 6 -26 18 -36s26.667 -21 44 -33c24 -17.333 43.667 -36.166 59 -56.499s23 -46.5 23 -78.5s-6 -59.667 -18 -83s-28.333 -42.833 -49 -58.5
s-44.667 -27.334 -72 -35.001s-56.333 -11.5 -87 -11.5c-30 0 -58.333 3.66699 -85 11s-47.334 15.333 -62.001 24l44 96c13.333 -8 29.333 -15.167 48 -21.5s39.334 -9.5 62.001 -9.5c28.667 0 52.167 6.66699 70.5 20s27.5 32.333 27.5 57c0 14 -4.16699 26.667 -12.5 38
s-22.166 23.666 -41.499 36.999c-20 12.667 -36 24.167 -48 34.5s-21.167 20.5 -27.5 30.5s-10.666 20 -12.999 30s-3.5 20.667 -3.5 32c0 26 7.16699 48.667 21.5 68s30.666 37.666 48.999 54.999l53 50.5c17 16.333 27.167 30.333 30.5 42s5 24.167 5 37.5
c0 14 -5.5 26.333 -16.5 37s-29.167 16 -54.5 16c-32.667 0 -60.834 -9.83301 -84.501 -29.5s-40.5 -50.834 -50.5 -93.501l-105 -440c-8.66699 -36 -16.834 -68 -24.501 -96s-16.5 -53.667 -26.5 -77s-21.833 -45.166 -35.5 -65.499s-30.834 -40.5 -51.501 -60.5l-105 16
c12.667 16 24.5 32.167 35.5 48.5s21 33.666 30 51.999s17.333 38.333 25 60s14.5 45.834 20.5 72.501z" />
    <glyph glyph-name="agrave" unicode="&#xe0;" horiz-adv-x="558" 
d="M530 203c-2 -7.33301 -4.00098 -19.333 -6.00098 -36s-3 -32.334 -3 -47.001c0 -19.333 1.66699 -38.166 5 -56.499s8.66602 -36.833 15.999 -55.5l-108 -16c-8 16 -14.333 33 -19 51c-16.667 -14.667 -37.167 -27.834 -61.5 -39.501s-51.833 -17.5 -82.5 -17.5
c-31.333 0 -58.166 5.16699 -80.499 15.5s-40.5 24.666 -54.5 42.999s-24.333 39.833 -31 64.5s-10 51.334 -10 80.001c0 48.667 8.66699 94 26 136s41.5 78.333 72.5 109s67.833 54.834 110.5 72.501s89.334 26.5 140.001 26.5c26 0 52.167 -2.16699 78.5 -6.5
s52.833 -12.5 79.5 -24.5zM463.999 429c-12.667 2.66699 -27.001 4.00098 -43.001 4.00098c-30 0 -57.667 -6.5 -83 -19.5s-47.166 -30.333 -65.499 -52s-32.5 -46.5 -42.5 -74.5s-15 -57.333 -15 -88c0 -15.333 1.33301 -29.666 4 -42.999s7.16699 -25 13.5 -35
s14.833 -18 25.5 -24s24.334 -9 41.001 -9c21.333 0 40.166 4.5 56.499 13.5s31.5 21.167 45.5 36.5c0.666992 17.333 2.16699 33.666 4.5 48.999s5.5 30.666 9.5 45.999zM398.998 789.001l148 -157l-56 -56l-166 134z" />
    <glyph glyph-name="aacute" unicode="&#xe1;" horiz-adv-x="558" 
d="M530 203c-2 -7.33301 -4.00098 -19.333 -6.00098 -36s-3 -32.334 -3 -47.001c0 -19.333 1.66699 -38.166 5 -56.499s8.66602 -36.833 15.999 -55.5l-108 -16c-8 16 -14.333 33 -19 51c-16.667 -14.667 -37.167 -27.834 -61.5 -39.501s-51.833 -17.5 -82.5 -17.5
c-31.333 0 -58.166 5.16699 -80.499 15.5s-40.5 24.666 -54.5 42.999s-24.333 39.833 -31 64.5s-10 51.334 -10 80.001c0 48.667 8.66699 94 26 136s41.5 78.333 72.5 109s67.833 54.834 110.5 72.501s89.334 26.5 140.001 26.5c26 0 52.167 -2.16699 78.5 -6.5
s52.833 -12.5 79.5 -24.5zM463.999 429c-12.667 2.66699 -27.001 4.00098 -43.001 4.00098c-30 0 -57.667 -6.5 -83 -19.5s-47.166 -30.333 -65.499 -52s-32.5 -46.5 -42.5 -74.5s-15 -57.333 -15 -88c0 -15.333 1.33301 -29.666 4 -42.999s7.16699 -25 13.5 -35
s14.833 -18 25.5 -24s24.334 -9 41.001 -9c21.333 0 40.166 4.5 56.499 13.5s31.5 21.167 45.5 36.5c0.666992 17.333 2.16699 33.666 4.5 48.999s5.5 30.666 9.5 45.999zM514.998 792.001l65 -82l-189 -127l-49 60z" />
    <glyph glyph-name="acircumflex" unicode="&#xe2;" horiz-adv-x="558" 
d="M530 203c-2 -7.33301 -4.00098 -19.333 -6.00098 -36s-3 -32.334 -3 -47.001c0 -19.333 1.66699 -38.166 5 -56.499s8.66602 -36.833 15.999 -55.5l-108 -16c-8 16 -14.333 33 -19 51c-16.667 -14.667 -37.167 -27.834 -61.5 -39.501s-51.833 -17.5 -82.5 -17.5
c-31.333 0 -58.166 5.16699 -80.499 15.5s-40.5 24.666 -54.5 42.999s-24.333 39.833 -31 64.5s-10 51.334 -10 80.001c0 48.667 8.66699 94 26 136s41.5 78.333 72.5 109s67.833 54.834 110.5 72.501s89.334 26.5 140.001 26.5c26 0 52.167 -2.16699 78.5 -6.5
s52.833 -12.5 79.5 -24.5zM463.999 429c-12.667 2.66699 -27.001 4.00098 -43.001 4.00098c-30 0 -57.667 -6.5 -83 -19.5s-47.166 -30.333 -65.499 -52s-32.5 -46.5 -42.5 -74.5s-15 -57.333 -15 -88c0 -15.333 1.33301 -29.666 4 -42.999s7.16699 -25 13.5 -35
s14.833 -18 25.5 -24s24.334 -9 41.001 -9c21.333 0 40.166 4.5 56.499 13.5s31.5 21.167 45.5 36.5c0.666992 17.333 2.16699 33.666 4.5 48.999s5.5 30.666 9.5 45.999zM459.998 784.001l114 -159l-52 -47l-81 88l-118 -86l-40 53z" />
    <glyph glyph-name="atilde" unicode="&#xe3;" horiz-adv-x="558" 
d="M530 203c-2 -7.33301 -4.00098 -19.333 -6.00098 -36s-3 -32.334 -3 -47.001c0 -19.333 1.66699 -38.166 5 -56.499s8.66602 -36.833 15.999 -55.5l-108 -16c-8 16 -14.333 33 -19 51c-16.667 -14.667 -37.167 -27.834 -61.5 -39.501s-51.833 -17.5 -82.5 -17.5
c-31.333 0 -58.166 5.16699 -80.499 15.5s-40.5 24.666 -54.5 42.999s-24.333 39.833 -31 64.5s-10 51.334 -10 80.001c0 48.667 8.66699 94 26 136s41.5 78.333 72.5 109s67.833 54.834 110.5 72.501s89.334 26.5 140.001 26.5c26 0 52.167 -2.16699 78.5 -6.5
s52.833 -12.5 79.5 -24.5zM463.999 429c-12.667 2.66699 -27.001 4.00098 -43.001 4.00098c-30 0 -57.667 -6.5 -83 -19.5s-47.166 -30.333 -65.499 -52s-32.5 -46.5 -42.5 -74.5s-15 -57.333 -15 -88c0 -15.333 1.33301 -29.666 4 -42.999s7.16699 -25 13.5 -35
s14.833 -18 25.5 -24s24.334 -9 41.001 -9c21.333 0 40.166 4.5 56.499 13.5s31.5 21.167 45.5 36.5c0.666992 17.333 2.16699 33.666 4.5 48.999s5.5 30.666 9.5 45.999zM496.998 614.001c-12 0 -22.999 2 -32.999 6s-19.5 8.16699 -28.5 12.5l-26 12.5
c-8.33301 4 -16.833 6 -25.5 6c-11.333 0 -21.333 -3.83301 -30 -11.5s-17.667 -18.5 -27 -32.5l-57 35c14 31.333 31 55.333 51 72s45 25 75 25c13.333 0 25.166 -2 35.499 -6s19.833 -8.33301 28.5 -13l25 -13c8 -4 16.333 -6 25 -6c11.333 0 21.333 4 30 12
s17.667 19 27 33l57 -35c-14.667 -32 -32 -56.167 -52 -72.5s-45 -24.5 -75 -24.5z" />
    <glyph glyph-name="adieresis" unicode="&#xe4;" horiz-adv-x="558" 
d="M530 203c-2 -7.33301 -4.00098 -19.333 -6.00098 -36s-3 -32.334 -3 -47.001c0 -19.333 1.66699 -38.166 5 -56.499s8.66602 -36.833 15.999 -55.5l-108 -16c-8 16 -14.333 33 -19 51c-16.667 -14.667 -37.167 -27.834 -61.5 -39.501s-51.833 -17.5 -82.5 -17.5
c-31.333 0 -58.166 5.16699 -80.499 15.5s-40.5 24.666 -54.5 42.999s-24.333 39.833 -31 64.5s-10 51.334 -10 80.001c0 48.667 8.66699 94 26 136s41.5 78.333 72.5 109s67.833 54.834 110.5 72.501s89.334 26.5 140.001 26.5c26 0 52.167 -2.16699 78.5 -6.5
s52.833 -12.5 79.5 -24.5zM463.999 429c-12.667 2.66699 -27.001 4.00098 -43.001 4.00098c-30 0 -57.667 -6.5 -83 -19.5s-47.166 -30.333 -65.499 -52s-32.5 -46.5 -42.5 -74.5s-15 -57.333 -15 -88c0 -15.333 1.33301 -29.666 4 -42.999s7.16699 -25 13.5 -35
s14.833 -18 25.5 -24s24.334 -9 41.001 -9c21.333 0 40.166 4.5 56.499 13.5s31.5 21.167 45.5 36.5c0.666992 17.333 2.16699 33.666 4.5 48.999s5.5 30.666 9.5 45.999zM533.998 609.001c-17.333 0 -31.668 5.33203 -43.001 15.999s-17 24.667 -17 42
c0 11.333 2.16699 21.833 6.5 31.5s9.83301 17.834 16.5 24.501s14.334 11.834 23.001 15.501s17.334 5.5 26.001 5.5c17.333 0 31.833 -5.5 43.5 -16.5s17.5 -25.833 17.5 -44.5c0 -10.667 -2.16699 -20.5 -6.5 -29.5s-10 -16.833 -17 -23.5s-14.833 -11.834 -23.5 -15.501
s-17.334 -5.5 -26.001 -5.5zM327.996 609c-17.333 0 -31.668 5.33203 -43.001 15.999s-17 24.667 -17 42c0 11.333 2.16699 21.833 6.5 31.5s9.83301 17.834 16.5 24.501s14.334 11.834 23.001 15.501s17.334 5.5 26.001 5.5c17.333 0 31.833 -5.5 43.5 -16.5
s17.5 -25.833 17.5 -44.5c0 -10.667 -2.16699 -20.5 -6.5 -29.5s-10 -16.833 -17 -23.5s-14.833 -11.834 -23.5 -15.501s-17.334 -5.5 -26.001 -5.5z" />
    <glyph glyph-name="aring" unicode="&#xe5;" horiz-adv-x="558" 
d="M530 203c-2 -7.33301 -4.00098 -19.333 -6.00098 -36s-3 -32.334 -3 -47.001c0 -19.333 1.66699 -38.166 5 -56.499s8.66602 -36.833 15.999 -55.5l-108 -16c-8 16 -14.333 33 -19 51c-16.667 -14.667 -37.167 -27.834 -61.5 -39.501s-51.833 -17.5 -82.5 -17.5
c-31.333 0 -58.166 5.16699 -80.499 15.5s-40.5 24.666 -54.5 42.999s-24.333 39.833 -31 64.5s-10 51.334 -10 80.001c0 48.667 8.66699 94 26 136s41.5 78.333 72.5 109s67.833 54.834 110.5 72.501s89.334 26.5 140.001 26.5c26 0 52.167 -2.16699 78.5 -6.5
s52.833 -12.5 79.5 -24.5zM463.999 429c-12.667 2.66699 -27.001 4.00098 -43.001 4.00098c-30 0 -57.667 -6.5 -83 -19.5s-47.166 -30.333 -65.499 -52s-32.5 -46.5 -42.5 -74.5s-15 -57.333 -15 -88c0 -15.333 1.33301 -29.666 4 -42.999s7.16699 -25 13.5 -35
s14.833 -18 25.5 -24s24.334 -9 41.001 -9c21.333 0 40.166 4.5 56.499 13.5s31.5 21.167 45.5 36.5c0.666992 17.333 2.16699 33.666 4.5 48.999s5.5 30.666 9.5 45.999zM551.998 688.001c0 -17.333 -3 -32.666 -9 -45.999s-14.167 -24.666 -24.5 -33.999
s-22.166 -16.5 -35.499 -21.5s-27.333 -7.5 -42 -7.5s-28.667 2.5 -42 7.5s-25 12.167 -35 21.5s-18 20.666 -24 33.999s-9 28.666 -9 45.999c0 16.667 3 31.834 9 45.501s14 25 24 34s21.667 16 35 21s27.333 7.5 42 7.5s28.667 -2.5 42 -7.5s25.166 -12 35.499 -21
s18.5 -20.333 24.5 -34s9 -28.834 9 -45.501zM489.998 688.001c0 16 -4.83301 28.5 -14.5 37.5s-21.167 13.5 -34.5 13.5s-24.833 -4.5 -34.5 -13.5s-14.5 -21.5 -14.5 -37.5s4.83301 -28.5 14.5 -37.5s21.167 -13.5 34.5 -13.5s24.833 4.5 34.5 13.5s14.5 21.5 14.5 37.5z
" />
    <glyph glyph-name="ae" unicode="&#xe6;" horiz-adv-x="841" 
d="M626 -14c-46 0 -83.667 8.66699 -113 26s-52 39.666 -68 66.999c-26 -30 -56.833 -54.167 -92.5 -72.5s-75.167 -27.5 -118.5 -27.5c-50.667 0 -90 13 -118 39s-42 59.333 -42 100c0 43.333 10.5 78.333 31.5 105s48.167 47.5 81.5 62.5s70.833 25.167 112.5 30.5
s83.834 8.33301 126.501 9c0.666992 4 1 8.66699 1 14c0 58 -38.333 87 -115 87c-45.333 0 -90.666 -9.33301 -135.999 -28l-10 98c16 7.33301 38.667 14.666 68 21.999s62.666 11 99.999 11c44 0 80.667 -8.5 110 -25.5s51.666 -38.833 66.999 -65.5
c26.667 30 57.834 53.833 93.501 71.5s75.5 26.5 119.5 26.5c50.667 0 90 -13 118 -39s42 -59.333 42 -100c0 -42 -10.333 -76 -31 -102s-47.5 -46.333 -80.5 -61s-70.333 -24.667 -112 -30s-83.834 -8.66602 -126.501 -9.99902c-0.666992 -4 -1 -8.66699 -1 -14
c0 -60.667 38.333 -91 115 -91c45.333 0 90.666 9.33301 135.999 28l10 -98c-16 -7.33301 -38.667 -14.666 -68 -21.999s-62.666 -11 -99.999 -11zM252 78c20 0 39.168 4 57.501 12s34.833 19.167 49.5 33.5s27.167 31.333 37.5 51s17.5 41.167 21.5 64.5
c-80.667 -1.33301 -139.334 -10.833 -176.001 -28.5s-55 -44.5 -55 -80.5c0 -13.333 4.83301 -25.333 14.5 -36s26.5 -16 50.5 -16zM706.001 437c-20 0 -39 -4.00098 -57 -12.001s-34 -19 -48 -33s-26.167 -30.5 -36.5 -49.5s-17.833 -39.5 -22.5 -61.5
c80 2.66699 138.167 12.334 174.5 29.001s54.5 41.667 54.5 75c0 13.333 -4.83301 25.333 -14.5 36s-26.5 16 -50.5 16z" />
    <glyph glyph-name="ccedilla" unicode="&#xe7;" horiz-adv-x="459" 
d="M341 -105c0 -17.333 -3.33203 -32.1699 -9.99902 -44.5029s-15.834 -22.666 -27.501 -30.999s-25.167 -14.5 -40.5 -18.5s-31.666 -6 -48.999 -6c-36.667 0 -67 6.33301 -91 19l30 68c7.33301 -3.33301 15.833 -6.16602 25.5 -8.49902s20.167 -3.5 31.5 -3.5
c12 0 21.5 2 28.5 6s10.5 10 10.5 18s-2.5 14.167 -7.5 18.5s-13.167 9.16602 -24.5 14.499l-13 6c4.66699 8 10.667 17.667 18 29s14.666 21.666 21.999 30.999c-50.667 12 -87.834 36.667 -111.501 74s-35.5 81 -35.5 131c0 45.333 7.16699 88.5 21.5 129.5
s34.833 77 61.5 108s59.334 55.5 98.001 73.5s82.667 27 132 27c26 0 49.833 -2.16699 71.5 -6.5s42.167 -10.833 61.5 -19.5l-43 -97c-12 5.33301 -25.333 10 -40 14s-32.667 6 -54 6c-28.667 0 -54.5 -5.83301 -77.5 -17.5s-42.5 -27.5 -58.5 -47.5
s-28.333 -43.667 -37 -71s-13 -56.333 -13 -87c0 -17.333 1.83301 -33.166 5.5 -47.499s9.66699 -27 18 -38s19.833 -19.5 34.5 -25.5s33 -9 55 -9c22.667 0 44.5 3 65.5 9s37.167 12 48.5 18l10 -99c-15.333 -7.33301 -34.833 -14.166 -58.5 -20.499
s-50.5 -10.166 -80.5 -11.499l-19 -27c28 -14 42 -35.333 42 -64z" />
    <glyph glyph-name="egrave" unicode="&#xe8;" horiz-adv-x="523" 
d="M97 189c0 44.667 7.16797 87.8301 21.501 129.497s35 78.667 62 111s59.5 58.166 97.5 77.499s80.667 29 128 29c50.667 0 90 -13 118 -39s42 -59.333 42 -100c0 -42 -10.333 -76 -31 -102s-47.5 -46.333 -80.5 -61s-70.333 -24.667 -112 -30
s-83.834 -8.66602 -126.501 -9.99902c-0.666992 -1.33301 -1 -2.66602 -1 -3.99902v-10c0 -60.667 38.333 -91 115 -91c45.333 0 90.666 9.33301 135.999 28l10 -98c-16 -7.33301 -38.667 -14.666 -68 -21.999s-62.666 -11 -99.999 -11s-69.333 5.33301 -96 16
s-48.5 25.334 -65.5 44.001s-29.5 40.167 -37.5 64.5s-12 50.5 -12 78.5zM388.001 436.996c-20 0 -39 -4.00098 -57 -12.001s-34 -19 -48 -33s-26.167 -30.5 -36.5 -49.5s-17.833 -39.5 -22.5 -61.5c80 2.66699 138.167 12.334 174.5 29.001s54.5 41.667 54.5 75
c0 13.333 -4.83301 25.333 -14.5 36s-26.5 16 -50.5 16zM366.001 788.995l148 -157l-56 -56l-166 134z" />
    <glyph glyph-name="eacute" unicode="&#xe9;" horiz-adv-x="523" 
d="M97 189c0 44.667 7.16797 87.8301 21.501 129.497s35 78.667 62 111s59.5 58.166 97.5 77.499s80.667 29 128 29c50.667 0 90 -13 118 -39s42 -59.333 42 -100c0 -42 -10.333 -76 -31 -102s-47.5 -46.333 -80.5 -61s-70.333 -24.667 -112 -30
s-83.834 -8.66602 -126.501 -9.99902c-0.666992 -1.33301 -1 -2.66602 -1 -3.99902v-10c0 -60.667 38.333 -91 115 -91c45.333 0 90.666 9.33301 135.999 28l10 -98c-16 -7.33301 -38.667 -14.666 -68 -21.999s-62.666 -11 -99.999 -11s-69.333 5.33301 -96 16
s-48.5 25.334 -65.5 44.001s-29.5 40.167 -37.5 64.5s-12 50.5 -12 78.5zM388.001 436.996c-20 0 -39 -4.00098 -57 -12.001s-34 -19 -48 -33s-26.167 -30.5 -36.5 -49.5s-17.833 -39.5 -22.5 -61.5c80 2.66699 138.167 12.334 174.5 29.001s54.5 41.667 54.5 75
c0 13.333 -4.83301 25.333 -14.5 36s-26.5 16 -50.5 16zM486.001 791.995l65 -82l-189 -127l-49 60z" />
    <glyph glyph-name="ecircumflex" unicode="&#xea;" horiz-adv-x="523" 
d="M97 189c0 44.667 7.16797 87.8301 21.501 129.497s35 78.667 62 111s59.5 58.166 97.5 77.499s80.667 29 128 29c50.667 0 90 -13 118 -39s42 -59.333 42 -100c0 -42 -10.333 -76 -31 -102s-47.5 -46.333 -80.5 -61s-70.333 -24.667 -112 -30
s-83.834 -8.66602 -126.501 -9.99902c-0.666992 -1.33301 -1 -2.66602 -1 -3.99902v-10c0 -60.667 38.333 -91 115 -91c45.333 0 90.666 9.33301 135.999 28l10 -98c-16 -7.33301 -38.667 -14.666 -68 -21.999s-62.666 -11 -99.999 -11s-69.333 5.33301 -96 16
s-48.5 25.334 -65.5 44.001s-29.5 40.167 -37.5 64.5s-12 50.5 -12 78.5zM388.001 436.996c-20 0 -39 -4.00098 -57 -12.001s-34 -19 -48 -33s-26.167 -30.5 -36.5 -49.5s-17.833 -39.5 -22.5 -61.5c80 2.66699 138.167 12.334 174.5 29.001s54.5 41.667 54.5 75
c0 13.333 -4.83301 25.333 -14.5 36s-26.5 16 -50.5 16zM447.001 783.995l114 -159l-52 -47l-81 88l-118 -86l-40 53z" />
    <glyph glyph-name="edieresis" unicode="&#xeb;" horiz-adv-x="523" 
d="M97 189c0 44.667 7.16797 87.8301 21.501 129.497s35 78.667 62 111s59.5 58.166 97.5 77.499s80.667 29 128 29c50.667 0 90 -13 118 -39s42 -59.333 42 -100c0 -42 -10.333 -76 -31 -102s-47.5 -46.333 -80.5 -61s-70.333 -24.667 -112 -30
s-83.834 -8.66602 -126.501 -9.99902c-0.666992 -1.33301 -1 -2.66602 -1 -3.99902v-10c0 -60.667 38.333 -91 115 -91c45.333 0 90.666 9.33301 135.999 28l10 -98c-16 -7.33301 -38.667 -14.666 -68 -21.999s-62.666 -11 -99.999 -11s-69.333 5.33301 -96 16
s-48.5 25.334 -65.5 44.001s-29.5 40.167 -37.5 64.5s-12 50.5 -12 78.5zM388.001 436.996c-20 0 -39 -4.00098 -57 -12.001s-34 -19 -48 -33s-26.167 -30.5 -36.5 -49.5s-17.833 -39.5 -22.5 -61.5c80 2.66699 138.167 12.334 174.5 29.001s54.5 41.667 54.5 75
c0 13.333 -4.83301 25.333 -14.5 36s-26.5 16 -50.5 16zM535.001 608.995c-17.333 0 -31.668 5.33203 -43.001 15.999s-17 24.667 -17 42c0 11.333 2.16699 21.833 6.5 31.5s9.83301 17.834 16.5 24.501s14.334 11.834 23.001 15.501s17.334 5.5 26.001 5.5
c17.333 0 31.833 -5.5 43.5 -16.5s17.5 -25.833 17.5 -44.5c0 -10.667 -2.16699 -20.5 -6.5 -29.5s-10 -16.833 -17 -23.5s-14.833 -11.834 -23.5 -15.501s-17.334 -5.5 -26.001 -5.5zM328.999 608.994c-17.333 0 -31.668 5.33203 -43.001 15.999s-17 24.667 -17 42
c0 11.333 2.16699 21.833 6.5 31.5s9.83301 17.834 16.5 24.501s14.334 11.834 23.001 15.501s17.334 5.5 26.001 5.5c17.333 0 31.833 -5.5 43.5 -16.5s17.5 -25.833 17.5 -44.5c0 -10.667 -2.16699 -20.5 -6.5 -29.5s-10 -16.833 -17 -23.5s-14.833 -11.834 -23.5 -15.501
s-17.334 -5.5 -26.001 -5.5z" />
    <glyph glyph-name="igrave" unicode="&#xec;" horiz-adv-x="271" 
d="M193 0h-120l125 523h121zM217 789l148 -157l-56 -56l-166 134z" />
    <glyph glyph-name="iacute" unicode="&#xed;" horiz-adv-x="271" 
d="M193 0h-120l125 523h121zM362 792l65 -82l-189 -127l-49 60z" />
    <glyph glyph-name="icircumflex" unicode="&#xee;" horiz-adv-x="271" 
d="M193 0h-120l125 523h121zM311 784l114 -159l-52 -47l-81 88l-118 -86l-40 53z" />
    <glyph glyph-name="idieresis" unicode="&#xef;" horiz-adv-x="271" 
d="M193 0h-120l125 523h121zM392 609c-17.333 0 -31.668 5.33203 -43.001 15.999s-17 24.667 -17 42c0 11.333 2.16699 21.833 6.5 31.5s9.83301 17.834 16.5 24.501s14.334 11.834 23.001 15.501s17.334 5.5 26.001 5.5c17.333 0 31.833 -5.5 43.5 -16.5
s17.5 -25.833 17.5 -44.5c0 -10.667 -2.16699 -20.5 -6.5 -29.5s-10 -16.833 -17 -23.5s-14.833 -11.834 -23.5 -15.501s-17.334 -5.5 -26.001 -5.5zM185.998 608.999c-17.333 0 -31.668 5.33203 -43.001 15.999s-17 24.667 -17 42c0 11.333 2.16699 21.833 6.5 31.5
s9.83301 17.834 16.5 24.501s14.334 11.834 23.001 15.501s17.334 5.5 26.001 5.5c17.333 0 31.833 -5.5 43.5 -16.5s17.5 -25.833 17.5 -44.5c0 -10.667 -2.16699 -20.5 -6.5 -29.5s-10 -16.833 -17 -23.5s-14.833 -11.834 -23.5 -15.501s-17.334 -5.5 -26.001 -5.5z" />
    <glyph glyph-name="eth" unicode="&#xf0;" horiz-adv-x="579" 
d="M567 616c12.667 -29.333 22.332 -60.998 28.999 -94.998s10 -70.333 10 -109c0 -28.667 -2.16699 -59.167 -6.5 -91.5s-11.5 -64.333 -21.5 -96s-23 -61.834 -39 -90.501s-35.667 -54 -59 -76s-50.666 -39.5 -81.999 -52.5s-67.333 -19.5 -108 -19.5
c-29.333 0 -55.833 5 -79.5 15s-44 23.667 -61 41s-30 38.166 -39 62.499s-13.5 50.833 -13.5 79.5c0 50 7.16699 94 21.5 132s34.166 69.833 59.499 95.5s55 45 89 58s70.667 19.5 110 19.5c22.667 0 43.5 -2.66699 62.5 -8s35.5 -11.666 49.5 -18.999
c-1.33301 21.333 -4.16602 41.833 -8.49902 61.5s-10.833 39.167 -19.5 58.5l-124 -39l-9 73l97 31c-10 14 -21 26.667 -33 38s-25 22.666 -39 33.999l85 57c16 -11.333 32 -25 48 -41s30.667 -34.333 44 -55l137 45l9 -74zM305.998 91.002
c27.333 0 51.334 7.83398 72.001 23.501s38.167 36.167 52.5 61.5s25.666 53.833 33.999 85.5s13.833 63.834 16.5 96.501c-18 11.333 -36 19.5 -54 24.5s-35.333 7.5 -52 7.5c-25.333 0 -47.833 -4.83301 -67.5 -14.5s-36.167 -23.334 -49.5 -41.001
s-23.333 -38.834 -30 -63.501s-10 -51.667 -10 -81c0 -30 7.33301 -54 22 -72s36.667 -27 66 -27z" />
    <glyph glyph-name="ntilde" unicode="&#xf1;" 
d="M193 501c26.667 8 57.167 15.502 91.5 22.502s71.833 10.5 112.5 10.5c61.333 0 106.333 -15 135 -45s43 -70.333 43 -121c0 -14 -1.16699 -28.833 -3.5 -44.5s-5.16602 -31.834 -8.49902 -48.501l-66 -275h-121l62 262l10 45c3.33301 15.333 5.33301 30 6 44
c0.666992 23.333 -4.83301 42.666 -16.5 57.999s-34.5 23 -68.5 23c-28.667 0 -53.334 -3 -74.001 -9l-101 -423h-121zM483 614.002c-12 0 -22.999 2 -32.999 6s-19.5 8.16699 -28.5 12.5l-26 12.5c-8.33301 4 -16.833 6 -25.5 6c-11.333 0 -21.333 -3.83301 -30 -11.5
s-17.667 -18.5 -27 -32.5l-57 35c14 31.333 31 55.333 51 72s45 25 75 25c13.333 0 25.166 -2 35.499 -6s19.833 -8.33301 28.5 -13l25 -13c8 -4 16.333 -6 25 -6c11.333 0 21.333 4 30 12s17.667 19 27 33l57 -35c-14.667 -32 -32 -56.167 -52 -72.5s-45 -24.5 -75 -24.5z
" />
    <glyph glyph-name="ograve" unicode="&#xf2;" 
d="M288 -14c-62 0 -109.333 18.332 -142 54.999s-49 85 -49 145c0 38.667 6 78.667 18 120s30.333 79 55 113s55.667 62 93 84s81.333 33 132 33c62 0 109.333 -18.167 142 -54.5s49 -84.5 49 -144.5c0 -39.333 -5.83301 -79.666 -17.5 -120.999s-29.667 -79 -54 -113
s-55.333 -62 -93 -84s-82.167 -33 -133.5 -33zM380 433.999c-26 0 -49.167 -7.50098 -69.5 -22.501s-37.333 -34.167 -51 -57.5s-24.167 -48.833 -31.5 -76.5s-11 -54.5 -11 -80.5c0 -33.333 6.33301 -59.666 19 -78.999s35 -29 67 -29c26 0 49.167 7.5 69.5 22.5
s37.333 34 51 57s24.167 48.5 31.5 76.5s11 54.667 11 80c0 33.333 -6.33301 59.833 -19 79.5s-35 29.5 -67 29.5zM358 788.998l148 -157l-56 -56l-166 134z" />
    <glyph glyph-name="oacute" unicode="&#xf3;" 
d="M288 -14c-62 0 -109.333 18.332 -142 54.999s-49 85 -49 145c0 38.667 6 78.667 18 120s30.333 79 55 113s55.667 62 93 84s81.333 33 132 33c62 0 109.333 -18.167 142 -54.5s49 -84.5 49 -144.5c0 -39.333 -5.83301 -79.666 -17.5 -120.999s-29.667 -79 -54 -113
s-55.333 -62 -93 -84s-82.167 -33 -133.5 -33zM380 433.999c-26 0 -49.167 -7.50098 -69.5 -22.501s-37.333 -34.167 -51 -57.5s-24.167 -48.833 -31.5 -76.5s-11 -54.5 -11 -80.5c0 -33.333 6.33301 -59.666 19 -78.999s35 -29 67 -29c26 0 49.167 7.5 69.5 22.5
s37.333 34 51 57s24.167 48.5 31.5 76.5s11 54.667 11 80c0 33.333 -6.33301 59.833 -19 79.5s-35 29.5 -67 29.5zM499 791.998l65 -82l-189 -127l-49 60z" />
    <glyph glyph-name="ocircumflex" unicode="&#xf4;" 
d="M288 -14c-62 0 -109.333 18.332 -142 54.999s-49 85 -49 145c0 38.667 6 78.667 18 120s30.333 79 55 113s55.667 62 93 84s81.333 33 132 33c62 0 109.333 -18.167 142 -54.5s49 -84.5 49 -144.5c0 -39.333 -5.83301 -79.666 -17.5 -120.999s-29.667 -79 -54 -113
s-55.333 -62 -93 -84s-82.167 -33 -133.5 -33zM380 433.999c-26 0 -49.167 -7.50098 -69.5 -22.501s-37.333 -34.167 -51 -57.5s-24.167 -48.833 -31.5 -76.5s-11 -54.5 -11 -80.5c0 -33.333 6.33301 -59.666 19 -78.999s35 -29 67 -29c26 0 49.167 7.5 69.5 22.5
s37.333 34 51 57s24.167 48.5 31.5 76.5s11 54.667 11 80c0 33.333 -6.33301 59.833 -19 79.5s-35 29.5 -67 29.5zM450 783.998l114 -159l-52 -47l-81 88l-118 -86l-40 53z" />
    <glyph glyph-name="otilde" unicode="&#xf5;" 
d="M288 -14c-62 0 -109.333 18.332 -142 54.999s-49 85 -49 145c0 38.667 6 78.667 18 120s30.333 79 55 113s55.667 62 93 84s81.333 33 132 33c62 0 109.333 -18.167 142 -54.5s49 -84.5 49 -144.5c0 -39.333 -5.83301 -79.666 -17.5 -120.999s-29.667 -79 -54 -113
s-55.333 -62 -93 -84s-82.167 -33 -133.5 -33zM380 433.999c-26 0 -49.167 -7.50098 -69.5 -22.501s-37.333 -34.167 -51 -57.5s-24.167 -48.833 -31.5 -76.5s-11 -54.5 -11 -80.5c0 -33.333 6.33301 -59.666 19 -78.999s35 -29 67 -29c26 0 49.167 7.5 69.5 22.5
s37.333 34 51 57s24.167 48.5 31.5 76.5s11 54.667 11 80c0 33.333 -6.33301 59.833 -19 79.5s-35 29.5 -67 29.5zM479 613.998c-12 0 -22.999 2 -32.999 6s-19.5 8.16699 -28.5 12.5l-26 12.5c-8.33301 4 -16.833 6 -25.5 6c-11.333 0 -21.333 -3.83301 -30 -11.5
s-17.667 -18.5 -27 -32.5l-57 35c14 31.333 31 55.333 51 72s45 25 75 25c13.333 0 25.166 -2 35.499 -6s19.833 -8.33301 28.5 -13l25 -13c8 -4 16.333 -6 25 -6c11.333 0 21.333 4 30 12s17.667 19 27 33l57 -35c-14.667 -32 -32 -56.167 -52 -72.5s-45 -24.5 -75 -24.5z
" />
    <glyph glyph-name="odieresis" unicode="&#xf6;" 
d="M288 -14c-62 0 -109.333 18.332 -142 54.999s-49 85 -49 145c0 38.667 6 78.667 18 120s30.333 79 55 113s55.667 62 93 84s81.333 33 132 33c62 0 109.333 -18.167 142 -54.5s49 -84.5 49 -144.5c0 -39.333 -5.83301 -79.666 -17.5 -120.999s-29.667 -79 -54 -113
s-55.333 -62 -93 -84s-82.167 -33 -133.5 -33zM380 433.999c-26 0 -49.167 -7.50098 -69.5 -22.501s-37.333 -34.167 -51 -57.5s-24.167 -48.833 -31.5 -76.5s-11 -54.5 -11 -80.5c0 -33.333 6.33301 -59.666 19 -78.999s35 -29 67 -29c26 0 49.167 7.5 69.5 22.5
s37.333 34 51 57s24.167 48.5 31.5 76.5s11 54.667 11 80c0 33.333 -6.33301 59.833 -19 79.5s-35 29.5 -67 29.5zM525 608.998c-17.333 0 -31.668 5.33203 -43.001 15.999s-17 24.667 -17 42c0 11.333 2.16699 21.833 6.5 31.5s9.83301 17.834 16.5 24.501
s14.334 11.834 23.001 15.501s17.334 5.5 26.001 5.5c17.333 0 31.833 -5.5 43.5 -16.5s17.5 -25.833 17.5 -44.5c0 -10.667 -2.16699 -20.5 -6.5 -29.5s-10 -16.833 -17 -23.5s-14.833 -11.834 -23.5 -15.501s-17.334 -5.5 -26.001 -5.5zM318.998 608.997
c-17.333 0 -31.668 5.33203 -43.001 15.999s-17 24.667 -17 42c0 11.333 2.16699 21.833 6.5 31.5s9.83301 17.834 16.5 24.501s14.334 11.834 23.001 15.501s17.334 5.5 26.001 5.5c17.333 0 31.833 -5.5 43.5 -16.5s17.5 -25.833 17.5 -44.5
c0 -10.667 -2.16699 -20.5 -6.5 -29.5s-10 -16.833 -17 -23.5s-14.833 -11.834 -23.5 -15.501s-17.334 -5.5 -26.001 -5.5z" />
    <glyph glyph-name="divide" unicode="&#xf7;" horiz-adv-x="568" 
d="M131 337h459l-25 -102h-459zM310 162c18 0 32.833 -5.16699 44.5 -15.5s17.5 -25.166 17.5 -44.499c0 -24.667 -8.16699 -45.334 -24.5 -62.001s-36.166 -25 -59.499 -25c-18 0 -32.833 5.33301 -44.5 16s-17.5 25.667 -17.5 45c0 24.667 8.16699 45.167 24.5 61.5
s36.166 24.5 59.499 24.5zM405 556c18 0 32.833 -5.16699 44.5 -15.5s17.5 -25.166 17.5 -44.499c0 -24.667 -8.16699 -45.334 -24.5 -62.001s-36.166 -25 -59.499 -25c-18 0 -32.833 5.33301 -44.5 16s-17.5 25.667 -17.5 45c0 24.667 8.16699 45.167 24.5 61.5
s36.166 24.5 59.499 24.5z" />
    <glyph glyph-name="oslash" unicode="&#xf8;" 
d="M288 -14c-46 0 -84.333 10.332 -115 30.999l-48 -55l-58 45l56 64c-17.333 32.667 -26 71 -26 115c0 38.667 6 78.667 18 120s30.333 79 55 113s55.667 62 93 84s81.333 33 132 33c43.333 0 80.333 -9.66699 111 -29l46 53l58 -45l-53 -61
c19.333 -32.667 29 -71.667 29 -117c0 -39.333 -5.83301 -79.666 -17.5 -120.999s-29.667 -79 -54 -113s-55.333 -62 -93 -84s-82.167 -33 -133.5 -33zM466 324.999l-0.000976562 12c0 4 -0.333008 8 -1 12l-215 -245c12.667 -10 30.334 -15 53.001 -15
c26 0 49.167 7.5 69.5 22.5s37.333 34 51 57s24.167 48.5 31.5 76.5s11 54.667 11 80zM379.999 433.999c-26 0 -49.167 -7.5 -69.5 -22.5s-37.333 -34.167 -51 -57.5s-24.167 -48.833 -31.5 -76.5s-11 -54.5 -11 -80.5v-19l213 242c-13.333 9.33301 -30 14 -50 14z" />
    <glyph glyph-name="ugrave" unicode="&#xf9;" horiz-adv-x="567" 
d="M608 523l-73.998 -311.003c-3.33301 -15.333 -5.83301 -30.666 -7.5 -45.999s-2.5 -30.666 -2.5 -45.999c0 -19.333 1.5 -38.333 4.5 -57s8.16699 -37 15.5 -55l-108 -16c-4 7.33301 -7.5 15.5 -10.5 24.5s-5.83301 18.167 -8.5 27.5
c-16.667 -13.333 -37.334 -26.166 -62.001 -38.499s-53.334 -18.5 -86.001 -18.5c-29.333 0 -54.333 4.33301 -75 13s-37.5 20.5 -50.5 35.5s-22.333 32.667 -28 53s-8.5 41.833 -8.5 64.5c0 29.333 4 61 12 95l66 275h121l-65 -272c-8.66699 -34.667 -13 -63 -13 -85
c0 -10.667 1 -20.667 3 -30s5.5 -17.5 10.5 -24.5s12 -12.5 21 -16.5s20.167 -6 33.5 -6c22 0 41.667 4.5 59 13.5s33.333 21.167 48 36.5c2 28.667 6.66699 58 14 88l70 296h121zM349.002 788.997l148 -157l-56 -56l-166 134z" />
    <glyph glyph-name="uacute" unicode="&#xfa;" horiz-adv-x="567" 
d="M608 523l-73.998 -311.003c-3.33301 -15.333 -5.83301 -30.666 -7.5 -45.999s-2.5 -30.666 -2.5 -45.999c0 -19.333 1.5 -38.333 4.5 -57s8.16699 -37 15.5 -55l-108 -16c-4 7.33301 -7.5 15.5 -10.5 24.5s-5.83301 18.167 -8.5 27.5
c-16.667 -13.333 -37.334 -26.166 -62.001 -38.499s-53.334 -18.5 -86.001 -18.5c-29.333 0 -54.333 4.33301 -75 13s-37.5 20.5 -50.5 35.5s-22.333 32.667 -28 53s-8.5 41.833 -8.5 64.5c0 29.333 4 61 12 95l66 275h121l-65 -272c-8.66699 -34.667 -13 -63 -13 -85
c0 -10.667 1 -20.667 3 -30s5.5 -17.5 10.5 -24.5s12 -12.5 21 -16.5s20.167 -6 33.5 -6c22 0 41.667 4.5 59 13.5s33.333 21.167 48 36.5c2 28.667 6.66699 58 14 88l70 296h121zM502.002 791.997l65 -82l-189 -127l-49 60z" />
    <glyph glyph-name="ucircumflex" unicode="&#xfb;" horiz-adv-x="567" 
d="M608 523l-73.998 -311.003c-3.33301 -15.333 -5.83301 -30.666 -7.5 -45.999s-2.5 -30.666 -2.5 -45.999c0 -19.333 1.5 -38.333 4.5 -57s8.16699 -37 15.5 -55l-108 -16c-4 7.33301 -7.5 15.5 -10.5 24.5s-5.83301 18.167 -8.5 27.5
c-16.667 -13.333 -37.334 -26.166 -62.001 -38.499s-53.334 -18.5 -86.001 -18.5c-29.333 0 -54.333 4.33301 -75 13s-37.5 20.5 -50.5 35.5s-22.333 32.667 -28 53s-8.5 41.833 -8.5 64.5c0 29.333 4 61 12 95l66 275h121l-65 -272c-8.66699 -34.667 -13 -63 -13 -85
c0 -10.667 1 -20.667 3 -30s5.5 -17.5 10.5 -24.5s12 -12.5 21 -16.5s20.167 -6 33.5 -6c22 0 41.667 4.5 59 13.5s33.333 21.167 48 36.5c2 28.667 6.66699 58 14 88l70 296h121zM453.002 783.997l114 -159l-52 -47l-81 88l-118 -86l-40 53z" />
    <glyph glyph-name="udieresis" unicode="&#xfc;" horiz-adv-x="567" 
d="M608 523l-73.998 -311.003c-3.33301 -15.333 -5.83301 -30.666 -7.5 -45.999s-2.5 -30.666 -2.5 -45.999c0 -19.333 1.5 -38.333 4.5 -57s8.16699 -37 15.5 -55l-108 -16c-4 7.33301 -7.5 15.5 -10.5 24.5s-5.83301 18.167 -8.5 27.5
c-16.667 -13.333 -37.334 -26.166 -62.001 -38.499s-53.334 -18.5 -86.001 -18.5c-29.333 0 -54.333 4.33301 -75 13s-37.5 20.5 -50.5 35.5s-22.333 32.667 -28 53s-8.5 41.833 -8.5 64.5c0 29.333 4 61 12 95l66 275h121l-65 -272c-8.66699 -34.667 -13 -63 -13 -85
c0 -10.667 1 -20.667 3 -30s5.5 -17.5 10.5 -24.5s12 -12.5 21 -16.5s20.167 -6 33.5 -6c22 0 41.667 4.5 59 13.5s33.333 21.167 48 36.5c2 28.667 6.66699 58 14 88l70 296h121zM526.002 608.997c-17.333 0 -31.668 5.33203 -43.001 15.999s-17 24.667 -17 42
c0 11.333 2.16699 21.833 6.5 31.5s9.83301 17.834 16.5 24.501s14.334 11.834 23.001 15.501s17.334 5.5 26.001 5.5c17.333 0 31.833 -5.5 43.5 -16.5s17.5 -25.833 17.5 -44.5c0 -10.667 -2.16699 -20.5 -6.5 -29.5s-10 -16.833 -17 -23.5s-14.833 -11.834 -23.5 -15.501
s-17.334 -5.5 -26.001 -5.5zM320 608.996c-17.333 0 -31.668 5.33203 -43.001 15.999s-17 24.667 -17 42c0 11.333 2.16699 21.833 6.5 31.5s9.83301 17.834 16.5 24.501s14.334 11.834 23.001 15.501s17.334 5.5 26.001 5.5c17.333 0 31.833 -5.5 43.5 -16.5
s17.5 -25.833 17.5 -44.5c0 -10.667 -2.16699 -20.5 -6.5 -29.5s-10 -16.833 -17 -23.5s-14.833 -11.834 -23.5 -15.501s-17.334 -5.5 -26.001 -5.5z" />
    <glyph glyph-name="yacute" unicode="&#xfd;" horiz-adv-x="494" 
d="M583 523c-13.333 -38 -28.001 -77.499 -44.001 -118.499s-33.833 -82.167 -53.5 -123.5s-40.834 -82.5 -63.501 -123.5s-47 -80.833 -73 -119.5c-19.333 -29.333 -39.333 -57.5 -60 -84.5s-43.167 -50.833 -67.5 -71.5s-51.166 -37.334 -80.499 -50.001
s-62.666 -19 -99.999 -19c-20.667 0 -39.167 2.33301 -55.5 7s-30.166 10 -41.499 16l39 97c9.33301 -5.33301 19.833 -9.66602 31.5 -12.999s24.5 -5 38.5 -5c31.333 0 58.833 8.16699 82.5 24.5s45.167 38.5 64.5 66.5c-21.333 74 -39.333 154.333 -54 241
s-24.334 178.667 -29.001 276h122c0.666992 -28 2.16699 -59 4.5 -93s5.33301 -68.833 9 -104.5s8.16699 -70.834 13.5 -105.501s11.333 -66.667 18 -96c20 32 38.667 65.667 56 101s33.333 70.5 48 105.5s27.5 69 38.5 102s20.5 63.167 28.5 90.5h128zM448.999 792.001
l65 -82l-189 -127l-49 60z" />
    <glyph glyph-name="thorn" unicode="&#xfe;" horiz-adv-x="564" 
d="M589 335c0 -47.333 -7.50098 -91.834 -22.501 -133.501s-37 -78.167 -66 -109.5s-64.333 -56.166 -106 -74.499s-89.5 -27.5 -143.5 -27.5c-9.33301 0 -18.833 0.5 -28.5 1.5s-19.167 2.16699 -28.5 3.5l-44 -180h-121l226 941l126 20l-60 -248
c11.333 2 22.333 3.66699 33 5s21.667 2 33 2c34.667 0 64.834 -5.16699 90.501 -15.5s46.667 -24.5 63 -42.5s28.5 -39.167 36.5 -63.5s12 -50.5 12 -78.5zM216.999 93.999c6.66699 -1.33301 13.668 -2.16602 21.001 -2.49902s14.666 -0.5 21.999 -0.5
c32 0 60.833 6.16699 86.5 18.5s47.5 29 65.5 50s31.833 45.667 41.5 74s14.5 58.5 14.5 90.5c0 14.667 -1.66699 28.5 -5 41.5s-8.83301 24.5 -16.5 34.5s-18 18 -31 24s-29.5 9 -49.5 9c-13.333 0 -26 -0.833008 -38 -2.5s-22.667 -3.83398 -32 -6.50098z" />
    <glyph glyph-name="ydieresis" unicode="&#xff;" horiz-adv-x="494" 
d="M583 523c-13.333 -38 -28.001 -77.499 -44.001 -118.499s-33.833 -82.167 -53.5 -123.5s-40.834 -82.5 -63.501 -123.5s-47 -80.833 -73 -119.5c-19.333 -29.333 -39.333 -57.5 -60 -84.5s-43.167 -50.833 -67.5 -71.5s-51.166 -37.334 -80.499 -50.001
s-62.666 -19 -99.999 -19c-20.667 0 -39.167 2.33301 -55.5 7s-30.166 10 -41.499 16l39 97c9.33301 -5.33301 19.833 -9.66602 31.5 -12.999s24.5 -5 38.5 -5c31.333 0 58.833 8.16699 82.5 24.5s45.167 38.5 64.5 66.5c-21.333 74 -39.333 154.333 -54 241
s-24.334 178.667 -29.001 276h122c0.666992 -28 2.16699 -59 4.5 -93s5.33301 -68.833 9 -104.5s8.16699 -70.834 13.5 -105.501s11.333 -66.667 18 -96c20 32 38.667 65.667 56 101s33.333 70.5 48 105.5s27.5 69 38.5 102s20.5 63.167 28.5 90.5h128zM478.999 609.001
c-17.333 0 -31.668 5.33203 -43.001 15.999s-17 24.667 -17 42c0 11.333 2.16699 21.833 6.5 31.5s9.83301 17.834 16.5 24.501s14.334 11.834 23.001 15.501s17.334 5.5 26.001 5.5c17.333 0 31.833 -5.5 43.5 -16.5s17.5 -25.833 17.5 -44.5
c0 -10.667 -2.16699 -20.5 -6.5 -29.5s-10 -16.833 -17 -23.5s-14.833 -11.834 -23.5 -15.501s-17.334 -5.5 -26.001 -5.5zM272.997 609c-17.333 0 -31.668 5.33203 -43.001 15.999s-17 24.667 -17 42c0 11.333 2.16699 21.833 6.5 31.5s9.83301 17.834 16.5 24.501
s14.334 11.834 23.001 15.501s17.334 5.5 26.001 5.5c17.333 0 31.833 -5.5 43.5 -16.5s17.5 -25.833 17.5 -44.5c0 -10.667 -2.16699 -20.5 -6.5 -29.5s-10 -16.833 -17 -23.5s-14.833 -11.834 -23.5 -15.501s-17.334 -5.5 -26.001 -5.5z" />
    <glyph glyph-name="Amacron" unicode="&#x100;" horiz-adv-x="656" 
d="M528 0c-2 28 -4.16602 55.833 -6.49902 83.5s-4.83301 54.5 -7.5 80.5h-281l-45.5 -79.5l-45.5 -84.5h-135l116.5 200l108 179l104 162.5l103.5 151.5h117c21.333 -99.333 39.666 -207.833 54.999 -325.5s30 -240.167 44 -367.5h-127zM470.001 561l-84.5 -132.5
c-31 -49 -63.833 -103.833 -98.5 -164.5h217c-4 47.333 -8.83301 95.833 -14.5 145.5s-12.167 100.167 -19.5 151.5zM368.001 785l21 87h301l-21 -87h-301z" />
    <glyph glyph-name="amacron" unicode="&#x101;" horiz-adv-x="558" 
d="M530 203c-2 -7.33301 -4.00098 -19.333 -6.00098 -36s-3 -32.334 -3 -47.001c0 -19.333 1.66699 -38.166 5 -56.499s8.66602 -36.833 15.999 -55.5l-108 -16c-8 16 -14.333 33 -19 51c-16.667 -14.667 -37.167 -27.834 -61.5 -39.501s-51.833 -17.5 -82.5 -17.5
c-31.333 0 -58.166 5.16699 -80.499 15.5s-40.5 24.666 -54.5 42.999s-24.333 39.833 -31 64.5s-10 51.334 -10 80.001c0 48.667 8.66699 94 26 136s41.5 78.333 72.5 109s67.833 54.834 110.5 72.501s89.334 26.5 140.001 26.5c26 0 52.167 -2.16699 78.5 -6.5
s52.833 -12.5 79.5 -24.5zM463.999 429c-12.667 2.66699 -27.001 4.00098 -43.001 4.00098c-30 0 -57.667 -6.5 -83 -19.5s-47.166 -30.333 -65.499 -52s-32.5 -46.5 -42.5 -74.5s-15 -57.333 -15 -88c0 -15.333 1.33301 -29.666 4 -42.999s7.16699 -25 13.5 -35
s14.833 -18 25.5 -24s24.334 -9 41.001 -9c21.333 0 40.166 4.5 56.499 13.5s31.5 21.167 45.5 36.5c0.666992 17.333 2.16699 33.666 4.5 48.999s5.5 30.666 9.5 45.999zM290.998 631.001l21 87h301l-21 -87h-301z" />
    <glyph glyph-name="Abreve" unicode="&#x102;" horiz-adv-x="656" 
d="M528 0c-2 28 -4.16602 55.833 -6.49902 83.5s-4.83301 54.5 -7.5 80.5h-281l-45.5 -79.5l-45.5 -84.5h-135l116.5 200l108 179l104 162.5l103.5 151.5h117c21.333 -99.333 39.666 -207.833 54.999 -325.5s30 -240.167 44 -367.5h-127zM470.001 561l-84.5 -132.5
c-31 -49 -63.833 -103.833 -98.5 -164.5h217c-4 47.333 -8.83301 95.833 -14.5 145.5s-12.167 100.167 -19.5 151.5zM393.001 910h80c-0.666992 -2.66699 -1.16699 -5.16699 -1.5 -7.5s-0.5 -5.16602 -0.5 -8.49902c0 -17.333 4.5 -31 13.5 -41s22.5 -15 40.5 -15
c22.667 0 40 7.16699 52 21.5s21.333 31.166 28 50.499h82c-4 -24.667 -11.167 -46.5 -21.5 -65.5s-23 -34.833 -38 -47.5s-32.167 -22.334 -51.5 -29.001s-39.333 -10 -60 -10c-38 0 -68.5 10.833 -91.5 32.5s-34.5 50.834 -34.5 87.501c0 10 1 20.667 3 32z" />
    <glyph glyph-name="abreve" unicode="&#x103;" horiz-adv-x="558" 
d="M530 203c-2 -7.33301 -4.00098 -19.333 -6.00098 -36s-3 -32.334 -3 -47.001c0 -19.333 1.66699 -38.166 5 -56.499s8.66602 -36.833 15.999 -55.5l-108 -16c-8 16 -14.333 33 -19 51c-16.667 -14.667 -37.167 -27.834 -61.5 -39.501s-51.833 -17.5 -82.5 -17.5
c-31.333 0 -58.166 5.16699 -80.499 15.5s-40.5 24.666 -54.5 42.999s-24.333 39.833 -31 64.5s-10 51.334 -10 80.001c0 48.667 8.66699 94 26 136s41.5 78.333 72.5 109s67.833 54.834 110.5 72.501s89.334 26.5 140.001 26.5c26 0 52.167 -2.16699 78.5 -6.5
s52.833 -12.5 79.5 -24.5zM463.999 429c-12.667 2.66699 -27.001 4.00098 -43.001 4.00098c-30 0 -57.667 -6.5 -83 -19.5s-47.166 -30.333 -65.499 -52s-32.5 -46.5 -42.5 -74.5s-15 -57.333 -15 -88c0 -15.333 1.33301 -29.666 4 -42.999s7.16699 -25 13.5 -35
s14.833 -18 25.5 -24s24.334 -9 41.001 -9c21.333 0 40.166 4.5 56.499 13.5s31.5 21.167 45.5 36.5c0.666992 17.333 2.16699 33.666 4.5 48.999s5.5 30.666 9.5 45.999zM326.998 756.001h80c-0.666992 -2.66699 -1.16699 -5.16699 -1.5 -7.5s-0.5 -5.16602 -0.5 -8.49902
c0 -17.333 4.5 -31 13.5 -41s22.5 -15 40.5 -15c22.667 0 40 7.16699 52 21.5s21.333 31.166 28 50.499h82c-4 -24.667 -11.167 -46.5 -21.5 -65.5s-23 -34.833 -38 -47.5s-32.167 -22.334 -51.5 -29.001s-39.333 -10 -60 -10c-38 0 -68.5 10.833 -91.5 32.5
s-34.5 50.834 -34.5 87.501c0 10 1 20.667 3 32z" />
    <glyph glyph-name="Aogonek" unicode="&#x104;" horiz-adv-x="656" 
d="M624 -189c-10.667 -4.66699 -22.498 -8.33398 -35.498 -11.001s-26.833 -4 -41.5 -4c-32.667 0 -58.167 6 -76.5 18s-27.5 30.667 -27.5 56c0 11.333 2.33301 22.666 7 33.999s11 22.333 19 33s17.167 21 27.5 31s20.833 19.333 31.5 28l-6.5 85
c-2.33301 30 -4.83301 57.667 -7.5 83h-281l-45.5 -79.5l-45.5 -84.5h-135l116.5 200l108 179l104 162.5l103.5 151.5h117c21.333 -99.333 39.666 -207.166 54.999 -323.499s30 -238.166 44 -365.499l-24 -14.5c-10.667 -6.33301 -23 -14.833 -37 -25.5
c-16 -12 -27.333 -23 -34 -33s-10 -18.667 -10 -26s3.66699 -13 11 -17s15.666 -6 24.999 -6c8 0 16.5 1 25.5 3s16.167 4 21.5 6zM470.002 561l-84.5 -132.5c-31 -49 -63.833 -103.833 -98.5 -164.5h217c-4 47.333 -8.83301 95.833 -14.5 145.5
s-12.167 100.167 -19.5 151.5z" />
    <glyph glyph-name="aogonek" unicode="&#x105;" horiz-adv-x="558" 
d="M530 203c-2 -7.33301 -4.00391 -19.3291 -6.00391 -35.9961s-3 -32.334 -3 -47.001c0 -19.333 1.66699 -38.5 5 -57.5s9 -37.833 17 -56.5c-5.33301 -3.33301 -9.66602 -6.5 -12.999 -9.5s-9.33301 -7.83301 -18 -14.5c-21.333 -15.333 -38.166 -29.833 -50.499 -43.5
s-18.5 -26.167 -18.5 -37.5c0 -12.667 10.333 -19 31 -19c8 0 16.5 1 25.5 3s16.167 4 21.5 6l-9 -80c-10.667 -4.66699 -22.5 -8.33398 -35.5 -11.001s-26.833 -4 -41.5 -4c-32.667 0 -58.167 6 -76.5 18s-27.5 30.667 -27.5 56c0 14.667 3.16699 28.167 9.5 40.5
s14.333 23.666 24 33.999s20.5 19.833 32.5 28.5s23.667 16.667 35 24c-7.33301 13.333 -13 28.666 -17 45.999c-16.667 -14.667 -37.167 -27.834 -61.5 -39.501s-51.833 -17.5 -82.5 -17.5c-31.333 0 -58.166 5.16699 -80.499 15.5s-40.5 24.666 -54.5 42.999
s-24.333 39.833 -31 64.5s-10 51.334 -10 80.001c0 48.667 8.66699 94 26 136s41.5 78.333 72.5 109s67.833 54.834 110.5 72.501s89.334 26.5 140.001 26.5c26 0 52.167 -2.16699 78.5 -6.5s52.833 -12.5 79.5 -24.5zM463.996 429.004
c-12.667 2.66699 -27.001 4.00098 -43.001 4.00098c-30 0 -57.667 -6.5 -83 -19.5s-47.166 -30.333 -65.499 -52s-32.5 -46.5 -42.5 -74.5s-15 -57.333 -15 -88c0 -15.333 1.33301 -29.666 4 -42.999s7.16699 -25 13.5 -35s14.833 -18 25.5 -24s24.334 -9 41.001 -9
c21.333 0 40.166 4.5 56.499 13.5s31.5 21.167 45.5 36.5c0.666992 17.333 2.16699 33.666 4.5 48.999s5.5 30.666 9.5 45.999z" />
    <glyph glyph-name="Cacute" unicode="&#x106;" horiz-adv-x="606" 
d="M600 30c-22 -11.333 -50.0029 -21.6689 -84.0029 -31.002s-75.333 -14 -124 -14c-42.667 0 -80.667 6.5 -114 19.5s-61.666 31.833 -84.999 56.5s-41.166 54.334 -53.499 89.001s-18.5 73.667 -18.5 117c0 56 9.33301 110.5 28 163.5s45.667 100.167 81 141.5
s78.333 74.5 129 99.5s108 37.5 172 37.5c42 0 78.5 -4.66699 109.5 -14s58.167 -20.666 81.5 -33.999l-48 -101c-21.333 12.667 -44.166 22.5 -68.499 29.5s-51.833 10.5 -82.5 10.5c-42 0 -79.667 -9.33301 -113 -28s-61.833 -43.167 -85.5 -73.5
s-41.667 -64.833 -54 -103.5s-18.5 -78 -18.5 -118c0 -62 13.5 -107.833 40.5 -137.5s66.5 -44.5 118.5 -44.5c40 0 74 4.5 102 13.5s52 18.167 72 27.5zM598.997 953.997l65 -82l-189 -127l-49 60z" />
    <glyph glyph-name="cacute" unicode="&#x107;" horiz-adv-x="459" 
d="M97 198c0 45.333 7.16699 88.499 21.5 129.499s34.833 77 61.5 108s59.334 55.5 98.001 73.5s82.667 27 132 27c26 0 49.833 -2.16699 71.5 -6.5s42.167 -10.833 61.5 -19.5l-43 -97c-12 5.33301 -25.333 10 -40 14s-32.667 6 -54 6
c-28.667 0 -54.5 -5.83301 -77.5 -17.5s-42.5 -27.5 -58.5 -47.5s-28.333 -43.667 -37 -71s-13 -56.333 -13 -87c0 -17.333 1.83301 -33.166 5.5 -47.499s9.66699 -27 18 -38s19.833 -19.5 34.5 -25.5s33 -9 55 -9c22.667 0 44.5 3 65.5 9s37.167 12 48.5 18l10 -99
c-15.333 -7.33301 -35.666 -14.5 -60.999 -21.5s-54 -10.5 -86 -10.5c-36.667 0 -68.334 5.5 -95.001 16.5s-48.834 26 -66.501 45s-30.667 41.333 -39 67s-12.5 53.5 -12.5 83.5zM484 791.999l65 -82l-189 -127l-49 60z" />
    <glyph glyph-name="Ccircumflex" unicode="&#x108;" horiz-adv-x="606" 
d="M600 30c-22 -11.333 -50.0029 -21.6689 -84.0029 -31.002s-75.333 -14 -124 -14c-42.667 0 -80.667 6.5 -114 19.5s-61.666 31.833 -84.999 56.5s-41.166 54.334 -53.499 89.001s-18.5 73.667 -18.5 117c0 56 9.33301 110.5 28 163.5s45.667 100.167 81 141.5
s78.333 74.5 129 99.5s108 37.5 172 37.5c42 0 78.5 -4.66699 109.5 -14s58.167 -20.666 81.5 -33.999l-48 -101c-21.333 12.667 -44.166 22.5 -68.499 29.5s-51.833 10.5 -82.5 10.5c-42 0 -79.667 -9.33301 -113 -28s-61.833 -43.167 -85.5 -73.5
s-41.667 -64.833 -54 -103.5s-18.5 -78 -18.5 -118c0 -62 13.5 -107.833 40.5 -137.5s66.5 -44.5 118.5 -44.5c40 0 74 4.5 102 13.5s52 18.167 72 27.5zM575.997 944.997l114 -159l-52 -47l-81 88l-118 -86l-40 53z" />
    <glyph glyph-name="ccircumflex" unicode="&#x109;" horiz-adv-x="459" 
d="M97 198c0 45.333 7.16699 88.499 21.5 129.499s34.833 77 61.5 108s59.334 55.5 98.001 73.5s82.667 27 132 27c26 0 49.833 -2.16699 71.5 -6.5s42.167 -10.833 61.5 -19.5l-43 -97c-12 5.33301 -25.333 10 -40 14s-32.667 6 -54 6
c-28.667 0 -54.5 -5.83301 -77.5 -17.5s-42.5 -27.5 -58.5 -47.5s-28.333 -43.667 -37 -71s-13 -56.333 -13 -87c0 -17.333 1.83301 -33.166 5.5 -47.499s9.66699 -27 18 -38s19.833 -19.5 34.5 -25.5s33 -9 55 -9c22.667 0 44.5 3 65.5 9s37.167 12 48.5 18l10 -99
c-15.333 -7.33301 -35.666 -14.5 -60.999 -21.5s-54 -10.5 -86 -10.5c-36.667 0 -68.334 5.5 -95.001 16.5s-48.834 26 -66.501 45s-30.667 41.333 -39 67s-12.5 53.5 -12.5 83.5zM449 783.999l114 -159l-52 -47l-81 88l-118 -86l-40 53z" />
    <glyph glyph-name="Cdotaccent" unicode="&#x10a;" horiz-adv-x="606" 
d="M600 30c-22 -11.333 -50.0029 -21.6689 -84.0029 -31.002s-75.333 -14 -124 -14c-42.667 0 -80.667 6.5 -114 19.5s-61.666 31.833 -84.999 56.5s-41.166 54.334 -53.499 89.001s-18.5 73.667 -18.5 117c0 56 9.33301 110.5 28 163.5s45.667 100.167 81 141.5
s78.333 74.5 129 99.5s108 37.5 172 37.5c42 0 78.5 -4.66699 109.5 -14s58.167 -20.666 81.5 -33.999l-48 -101c-21.333 12.667 -44.166 22.5 -68.499 29.5s-51.833 10.5 -82.5 10.5c-42 0 -79.667 -9.33301 -113 -28s-61.833 -43.167 -85.5 -73.5
s-41.667 -64.833 -54 -103.5s-18.5 -78 -18.5 -118c0 -62 13.5 -107.833 40.5 -137.5s66.5 -44.5 118.5 -44.5c40 0 74 4.5 102 13.5s52 18.167 72 27.5zM553.997 764.997c-18 0 -33 5.16895 -45 15.502s-18 25.166 -18 44.499c0 24.667 7.83301 44 23.5 58
s33.167 21 52.5 21c17.333 0 32.166 -5.5 44.499 -16.5s18.5 -26.167 18.5 -45.5c0 -12 -2.16699 -22.667 -6.5 -32s-10.166 -17.333 -17.499 -24s-15.5 -11.834 -24.5 -15.501s-18.167 -5.5 -27.5 -5.5z" />
    <glyph glyph-name="cdotaccent" unicode="&#x10b;" horiz-adv-x="459" 
d="M97 198c0 45.333 7.16699 88.499 21.5 129.499s34.833 77 61.5 108s59.334 55.5 98.001 73.5s82.667 27 132 27c26 0 49.833 -2.16699 71.5 -6.5s42.167 -10.833 61.5 -19.5l-43 -97c-12 5.33301 -25.333 10 -40 14s-32.667 6 -54 6
c-28.667 0 -54.5 -5.83301 -77.5 -17.5s-42.5 -27.5 -58.5 -47.5s-28.333 -43.667 -37 -71s-13 -56.333 -13 -87c0 -17.333 1.83301 -33.166 5.5 -47.499s9.66699 -27 18 -38s19.833 -19.5 34.5 -25.5s33 -9 55 -9c22.667 0 44.5 3 65.5 9s37.167 12 48.5 18l10 -99
c-15.333 -7.33301 -35.666 -14.5 -60.999 -21.5s-54 -10.5 -86 -10.5c-36.667 0 -68.334 5.5 -95.001 16.5s-48.834 26 -66.501 45s-30.667 41.333 -39 67s-12.5 53.5 -12.5 83.5zM427 606.999c-18 0 -33 5.16895 -45 15.502s-18 25.166 -18 44.499
c0 24.667 7.83301 44 23.5 58s33.167 21 52.5 21c17.333 0 32.166 -5.5 44.499 -16.5s18.5 -26.167 18.5 -45.5c0 -12 -2.16699 -22.667 -6.5 -32s-10.166 -17.333 -17.499 -24s-15.5 -11.834 -24.5 -15.501s-18.167 -5.5 -27.5 -5.5z" />
    <glyph glyph-name="Ccaron" unicode="&#x10c;" horiz-adv-x="606" 
d="M600 30c-22 -11.333 -50.0029 -21.6689 -84.0029 -31.002s-75.333 -14 -124 -14c-42.667 0 -80.667 6.5 -114 19.5s-61.666 31.833 -84.999 56.5s-41.166 54.334 -53.499 89.001s-18.5 73.667 -18.5 117c0 56 9.33301 110.5 28 163.5s45.667 100.167 81 141.5
s78.333 74.5 129 99.5s108 37.5 172 37.5c42 0 78.5 -4.66699 109.5 -14s58.167 -20.666 81.5 -33.999l-48 -101c-21.333 12.667 -44.166 22.5 -68.499 29.5s-51.833 10.5 -82.5 10.5c-42 0 -79.667 -9.33301 -113 -28s-61.833 -43.167 -85.5 -73.5
s-41.667 -64.833 -54 -103.5s-18.5 -78 -18.5 -118c0 -62 13.5 -107.833 40.5 -137.5s66.5 -44.5 118.5 -44.5c40 0 74 4.5 102 13.5s52 18.167 72 27.5zM531.997 741.997l-114 159l52 47l80 -88l119 86l39 -53z" />
    <glyph glyph-name="ccaron" unicode="&#x10d;" horiz-adv-x="459" 
d="M97 198c0 45.333 7.16699 88.499 21.5 129.499s34.833 77 61.5 108s59.334 55.5 98.001 73.5s82.667 27 132 27c26 0 49.833 -2.16699 71.5 -6.5s42.167 -10.833 61.5 -19.5l-43 -97c-12 5.33301 -25.333 10 -40 14s-32.667 6 -54 6
c-28.667 0 -54.5 -5.83301 -77.5 -17.5s-42.5 -27.5 -58.5 -47.5s-28.333 -43.667 -37 -71s-13 -56.333 -13 -87c0 -17.333 1.83301 -33.166 5.5 -47.499s9.66699 -27 18 -38s19.833 -19.5 34.5 -25.5s33 -9 55 -9c22.667 0 44.5 3 65.5 9s37.167 12 48.5 18l10 -99
c-15.333 -7.33301 -35.666 -14.5 -60.999 -21.5s-54 -10.5 -86 -10.5c-36.667 0 -68.334 5.5 -95.001 16.5s-48.834 26 -66.501 45s-30.667 41.333 -39 67s-12.5 53.5 -12.5 83.5zM412 583.999l-114 159l52 47l80 -88l119 86l39 -53z" />
    <glyph glyph-name="Dcaron" unicode="&#x10e;" horiz-adv-x="702" 
d="M229 103c7.33301 -1.33301 15.8311 -2.16797 25.498 -2.50098s24.834 -0.5 45.501 -0.5c48 0 91.333 7.66699 130 23s71.5 37.166 98.5 65.499s47.833 62.333 62.5 102s22 83.834 22 132.501c0 52.667 -15 94.334 -45 125.001s-79 46 -147 46
c-17.333 0 -31.166 -0.333008 -41.499 -1s-21.5 -1.66699 -33.5 -3zM742.998 426.998c0 -62 -10.001 -119.665 -30.001 -172.998s-49.667 -99.333 -89 -138s-88.5 -69 -147.5 -91s-127.5 -33 -205.5 -33c-28 0 -59.333 1.5 -94 4.5s-66.667 7.83301 -96 14.5l161 671
c32.667 7.33301 65.667 12.166 99 14.499s64 3.5 92 3.5c50.667 0 95.334 -6.5 134.001 -19.5s71 -31.333 97 -55s45.667 -52.334 59 -86.001s20 -71.167 20 -112.5zM500.997 742l-114 159l52 47l80 -88l119 86l39 -53z" />
    <glyph glyph-name="dcaron" unicode="&#x10f;" horiz-adv-x="628" 
d="M273 -14c-31.333 0 -58.332 5.16602 -80.999 15.499s-41.167 24.5 -55.5 42.5s-24.833 39.333 -31.5 64s-10 51.334 -10 80.001c0 44.667 7.83301 87.834 23.5 129.501s38 78.334 67 110.001s64.5 57 106.5 76s89.667 28.5 143 28.5c6.66699 0 14.667 -0.333008 24 -1
s19.666 -2.33398 30.999 -5.00098l55 230l126 20l-137 -567c-3.33301 -15.333 -5.83301 -30.833 -7.5 -46.5s-2.5 -30.5 -2.5 -44.5c0 -18 1.66699 -36 5 -54s8.66602 -36.667 15.999 -56l-108 -16c-7.33301 14 -13.666 31 -18.999 51
c-16.667 -14.667 -37 -27.834 -61 -39.501s-52 -17.5 -84 -17.5zM466.001 427.999c-12.667 2.66699 -27.998 3.99902 -45.998 3.99902c-30.667 0 -58.667 -6.5 -84 -19.5s-47 -30.333 -65 -52s-31.833 -46.5 -41.5 -74.5s-14.5 -57 -14.5 -87
c0 -15.333 1.5 -29.666 4.5 -42.999s7.83301 -25 14.5 -35s15.5 -18 26.5 -24s24.5 -9 40.5 -9c21.333 0 40.166 4.33301 56.499 13s31.833 20.667 46.5 36c0.666992 14 2.16699 28.667 4.5 44s5.16602 30.333 8.49902 45zM859.003 775.998l-86 -234h-82l55 234h113z" />
    <glyph glyph-name="Dcroat" unicode="&#x110;" horiz-adv-x="723" 
d="M116 408l80.999 0.00195312l66 274c32.667 7.33301 65.667 12.166 99 14.499s64 3.5 92 3.5c50.667 0 95.334 -6.5 134.001 -19.5s71 -31.333 97 -55s45.667 -52.334 59 -86.001s20 -71.167 20 -112.5c0 -62 -10 -119.667 -30 -173s-49.667 -99.333 -89 -138
s-88.5 -69 -147.5 -91s-127.5 -33 -205.5 -33c-28 0 -59.333 1.5 -94 4.5s-66.667 7.83301 -96 14.5l72 302h-80zM322.999 408.002l127.998 -0.00195312l-23 -95h-128l-50 -210c7.33301 -1.33301 15.833 -2.16602 25.5 -2.49902s24.834 -0.5 45.501 -0.5
c48 0 91.333 7.66699 130 23s71.5 37.166 98.5 65.499s47.833 62.333 62.5 102s22 83.834 22 132.501c0 52.667 -15 94.334 -45 125.001s-79 46 -147 46c-17.333 0 -31.166 -0.333008 -41.499 -1s-21.5 -1.66699 -33.5 -3z" />
    <glyph glyph-name="dcroat" unicode="&#x111;" horiz-adv-x="572" 
d="M273 -14c-31.333 0 -58.332 5.16602 -80.999 15.499s-41.167 24.5 -55.5 42.5s-24.833 39.333 -31.5 64s-10 51.334 -10 80.001c0 44.667 7.83301 87.834 23.5 129.501s38 78.334 67 110.001s64.5 57 106.5 76s89.667 28.5 143 28.5c6.66699 0 14.667 -0.333008 24 -1
s19.666 -2.33398 30.999 -5.00098l19 79h-145l19 81h145l17 70l126 20l-22 -90h73l-19 -81h-74l-95 -396c-3.33301 -15.333 -5.83301 -30.833 -7.5 -46.5s-2.5 -30.5 -2.5 -44.5c0 -18 1.66699 -36 5 -54s8.66602 -36.667 15.999 -56l-108 -16
c-7.33301 14 -13.666 31 -18.999 51c-16.667 -14.667 -37 -27.834 -61 -39.501s-52 -17.5 -84 -17.5zM466.001 427.999c-12.667 2.66699 -27.998 3.99902 -45.998 3.99902c-30.667 0 -58.667 -6.5 -84 -19.5s-47 -30.333 -65 -52s-31.833 -46.5 -41.5 -74.5
s-14.5 -57 -14.5 -87c0 -15.333 1.5 -29.666 4.5 -42.999s7.83301 -25 14.5 -35s15.5 -18 26.5 -24s24.5 -9 40.5 -9c21.333 0 40.166 4.33301 56.499 13s31.833 20.667 46.5 36c0.666992 14 2.16699 28.667 4.5 44s5.16602 30.333 8.49902 45z" />
    <glyph glyph-name="Emacron" unicode="&#x112;" horiz-adv-x="572" 
d="M78 0l166 693h430l-25 -105h-305l-41 -174h270l-25 -103h-269l-50 -206h328l-25 -105h-454zM332 785l21 87h301l-21 -87h-301z" />
    <glyph glyph-name="emacron" unicode="&#x113;" horiz-adv-x="523" 
d="M97 189c0 44.667 7.16797 87.8301 21.501 129.497s35 78.667 62 111s59.5 58.166 97.5 77.499s80.667 29 128 29c50.667 0 90 -13 118 -39s42 -59.333 42 -100c0 -42 -10.333 -76 -31 -102s-47.5 -46.333 -80.5 -61s-70.333 -24.667 -112 -30
s-83.834 -8.66602 -126.501 -9.99902c-0.666992 -1.33301 -1 -2.66602 -1 -3.99902v-10c0 -60.667 38.333 -91 115 -91c45.333 0 90.666 9.33301 135.999 28l10 -98c-16 -7.33301 -38.667 -14.666 -68 -21.999s-62.666 -11 -99.999 -11s-69.333 5.33301 -96 16
s-48.5 25.334 -65.5 44.001s-29.5 40.167 -37.5 64.5s-12 50.5 -12 78.5zM388.001 436.996c-20 0 -39 -4.00098 -57 -12.001s-34 -19 -48 -33s-26.167 -30.5 -36.5 -49.5s-17.833 -39.5 -22.5 -61.5c80 2.66699 138.167 12.334 174.5 29.001s54.5 41.667 54.5 75
c0 13.333 -4.83301 25.333 -14.5 36s-26.5 16 -50.5 16zM271.001 630.995l21 87h301l-21 -87h-301z" />
    <glyph glyph-name="Ebreve" unicode="&#x114;" horiz-adv-x="572" 
d="M78 0l166 693h430l-25 -105h-305l-41 -174h270l-25 -103h-269l-50 -206h328l-25 -105h-454zM356 910h80c-0.666992 -2.66699 -1.16699 -5.16699 -1.5 -7.5s-0.5 -5.16602 -0.5 -8.49902c0 -17.333 4.5 -31 13.5 -41s22.5 -15 40.5 -15c22.667 0 40 7.16699 52 21.5
s21.333 31.166 28 50.499h82c-4 -24.667 -11.167 -46.5 -21.5 -65.5s-23 -34.833 -38 -47.5s-32.167 -22.334 -51.5 -29.001s-39.333 -10 -60 -10c-38 0 -68.5 10.833 -91.5 32.5s-34.5 50.834 -34.5 87.501c0 10 1 20.667 3 32z" />
    <glyph glyph-name="ebreve" unicode="&#x115;" horiz-adv-x="523" 
d="M97 189c0 44.667 7.16797 87.8301 21.501 129.497s35 78.667 62 111s59.5 58.166 97.5 77.499s80.667 29 128 29c50.667 0 90 -13 118 -39s42 -59.333 42 -100c0 -42 -10.333 -76 -31 -102s-47.5 -46.333 -80.5 -61s-70.333 -24.667 -112 -30
s-83.834 -8.66602 -126.501 -9.99902c-0.666992 -1.33301 -1 -2.66602 -1 -3.99902v-10c0 -60.667 38.333 -91 115 -91c45.333 0 90.666 9.33301 135.999 28l10 -98c-16 -7.33301 -38.667 -14.666 -68 -21.999s-62.666 -11 -99.999 -11s-69.333 5.33301 -96 16
s-48.5 25.334 -65.5 44.001s-29.5 40.167 -37.5 64.5s-12 50.5 -12 78.5zM388.001 436.996c-20 0 -39 -4.00098 -57 -12.001s-34 -19 -48 -33s-26.167 -30.5 -36.5 -49.5s-17.833 -39.5 -22.5 -61.5c80 2.66699 138.167 12.334 174.5 29.001s54.5 41.667 54.5 75
c0 13.333 -4.83301 25.333 -14.5 36s-26.5 16 -50.5 16zM295.001 755.995h80c-0.666992 -2.66699 -1.16699 -5.16699 -1.5 -7.5s-0.5 -5.16602 -0.5 -8.49902c0 -17.333 4.5 -31 13.5 -41s22.5 -15 40.5 -15c22.667 0 40 7.16699 52 21.5s21.333 31.166 28 50.499h82
c-4 -24.667 -11.167 -46.5 -21.5 -65.5s-23 -34.833 -38 -47.5s-32.167 -22.334 -51.5 -29.001s-39.333 -10 -60 -10c-38 0 -68.5 10.833 -91.5 32.5s-34.5 50.834 -34.5 87.501c0 10 1 20.667 3 32z" />
    <glyph glyph-name="Edotaccent" unicode="&#x116;" horiz-adv-x="572" 
d="M78 0l166 693h430l-25 -105h-305l-41 -174h270l-25 -103h-269l-50 -206h328l-25 -105h-454zM483 765c-18 0 -33 5.16895 -45 15.502s-18 25.166 -18 44.499c0 24.667 7.83301 44 23.5 58s33.167 21 52.5 21c17.333 0 32.166 -5.5 44.499 -16.5s18.5 -26.167 18.5 -45.5
c0 -12 -2.16699 -22.667 -6.5 -32s-10.166 -17.333 -17.499 -24s-15.5 -11.834 -24.5 -15.501s-18.167 -5.5 -27.5 -5.5z" />
    <glyph glyph-name="edotaccent" unicode="&#x117;" horiz-adv-x="523" 
d="M97 189c0 44.667 7.16797 87.8301 21.501 129.497s35 78.667 62 111s59.5 58.166 97.5 77.499s80.667 29 128 29c50.667 0 90 -13 118 -39s42 -59.333 42 -100c0 -42 -10.333 -76 -31 -102s-47.5 -46.333 -80.5 -61s-70.333 -24.667 -112 -30
s-83.834 -8.66602 -126.501 -9.99902c-0.666992 -1.33301 -1 -2.66602 -1 -3.99902v-10c0 -60.667 38.333 -91 115 -91c45.333 0 90.666 9.33301 135.999 28l10 -98c-16 -7.33301 -38.667 -14.666 -68 -21.999s-62.666 -11 -99.999 -11s-69.333 5.33301 -96 16
s-48.5 25.334 -65.5 44.001s-29.5 40.167 -37.5 64.5s-12 50.5 -12 78.5zM388.001 436.996c-20 0 -39 -4.00098 -57 -12.001s-34 -19 -48 -33s-26.167 -30.5 -36.5 -49.5s-17.833 -39.5 -22.5 -61.5c80 2.66699 138.167 12.334 174.5 29.001s54.5 41.667 54.5 75
c0 13.333 -4.83301 25.333 -14.5 36s-26.5 16 -50.5 16zM424.001 606.995c-18 0 -33 5.16895 -45 15.502s-18 25.166 -18 44.499c0 24.667 7.83301 44 23.5 58s33.167 21 52.5 21c17.333 0 32.166 -5.5 44.499 -16.5s18.5 -26.167 18.5 -45.5
c0 -12 -2.16699 -22.667 -6.5 -32s-10.166 -17.333 -17.499 -24s-15.5 -11.834 -24.5 -15.501s-18.167 -5.5 -27.5 -5.5z" />
    <glyph glyph-name="Eogonek" unicode="&#x118;" horiz-adv-x="572" 
d="M500 -189c-10.667 -4.66699 -22.5 -8.33203 -35.5 -10.999s-26.833 -4 -41.5 -4c-32.667 0 -58.167 6 -76.5 18s-27.5 30.667 -27.5 56c0 18.667 7.5 38.667 22.5 60s42.167 44.666 81.5 69.999h-345l166 693h430l-25 -105h-305l-41 -174h270l-25 -103h-269l-50 -206h328
l-24 -102l-29 -21c-11.333 -8 -22.5 -16.667 -33.5 -26s-20.333 -18.833 -28 -28.5s-11.5 -18.5 -11.5 -26.5c0 -12.667 10.333 -19 31 -19c8 0 16.5 1 25.5 3s16.167 4 21.5 6z" />
    <glyph glyph-name="eogonek" unicode="&#x119;" horiz-adv-x="523" 
d="M97 189c0 44.667 7.1709 87.833 21.5039 129.5s35 78.667 62 111s59.5 58.166 97.5 77.499s80.667 29 128 29c50.667 0 90 -13 118 -39s42 -59.333 42 -100c0 -42 -10.333 -76 -31 -102s-47.5 -46.333 -80.5 -61s-70.333 -24.667 -112 -30
s-83.834 -8.66602 -126.501 -9.99902c-0.666992 -4 -1 -8.66699 -1 -14c0 -60.667 38.333 -91 115 -91c45.333 0 90.666 9.33301 135.999 28l10 -101c-6.66699 -4 -15.334 -9.5 -26.001 -16.5s-20.334 -13.833 -29.001 -20.5c-21.333 -15.333 -38 -29.333 -50 -42
s-18 -24.667 -18 -36c0 -12.667 10.333 -19 31 -19c8 0 16.5 1 25.5 3s16.167 4 21.5 6l-9 -80c-10.667 -4.66699 -22.5 -8.33398 -35.5 -11.001s-26.833 -4 -41.5 -4c-32.667 0 -58.167 6 -76.5 18s-27.5 30.667 -27.5 56c0 19.333 8.16699 39.333 24.5 60
s38.5 40.334 66.5 59.001c-4 -0.666992 -8.66699 -1 -14 -1h-10c-37.333 0 -69.333 5.33301 -96 16s-48.5 25 -65.5 43s-29.5 39.167 -37.5 63.5s-12 50.5 -12 78.5zM388.004 436.999c-20 0 -39 -4.00098 -57 -12.001s-34 -19 -48 -33s-26.167 -30.5 -36.5 -49.5
s-17.833 -39.5 -22.5 -61.5c80 2.66699 138.167 12.334 174.5 29.001s54.5 41.667 54.5 75c0 13.333 -4.83301 25.333 -14.5 36s-26.5 16 -50.5 16z" />
    <glyph glyph-name="Ecaron" unicode="&#x11a;" horiz-adv-x="572" 
d="M78 0l166 693h430l-25 -105h-305l-41 -174h270l-25 -103h-269l-50 -206h328l-25 -105h-454zM467 742l-114 159l52 47l80 -88l119 86l39 -53z" />
    <glyph glyph-name="ecaron" unicode="&#x11b;" horiz-adv-x="523" 
d="M97 189c0 44.667 7.16797 87.8301 21.501 129.497s35 78.667 62 111s59.5 58.166 97.5 77.499s80.667 29 128 29c50.667 0 90 -13 118 -39s42 -59.333 42 -100c0 -42 -10.333 -76 -31 -102s-47.5 -46.333 -80.5 -61s-70.333 -24.667 -112 -30
s-83.834 -8.66602 -126.501 -9.99902c-0.666992 -1.33301 -1 -2.66602 -1 -3.99902v-10c0 -60.667 38.333 -91 115 -91c45.333 0 90.666 9.33301 135.999 28l10 -98c-16 -7.33301 -38.667 -14.666 -68 -21.999s-62.666 -11 -99.999 -11s-69.333 5.33301 -96 16
s-48.5 25.334 -65.5 44.001s-29.5 40.167 -37.5 64.5s-12 50.5 -12 78.5zM388.001 436.996c-20 0 -39 -4.00098 -57 -12.001s-34 -19 -48 -33s-26.167 -30.5 -36.5 -49.5s-17.833 -39.5 -22.5 -61.5c80 2.66699 138.167 12.334 174.5 29.001s54.5 41.667 54.5 75
c0 13.333 -4.83301 25.333 -14.5 36s-26.5 16 -50.5 16zM415.001 583.995l-114 159l52 47l80 -88l119 86l39 -53z" />
    <glyph glyph-name="Gcircumflex" unicode="&#x11c;" horiz-adv-x="655" 
d="M412 94c19.333 0 36.666 1 51.999 3s27.333 4.33301 36 7l59 248h125l-80 -332c-17.333 -8 -44.5 -15.667 -81.5 -23s-80.5 -11 -130.5 -11c-44 0 -83 6.5 -117 19.5s-62.333 31.667 -85 56s-39.834 53.833 -51.501 88.5s-17.5 73.667 -17.5 117
c0 56 9.33301 110.5 28 163.5s45.834 100.167 81.501 141.5s79.334 74.5 131.001 99.5s110.167 37.5 175.5 37.5c46.667 0 86.5 -5.66699 119.5 -17s59.5 -23.666 79.5 -36.999l-49 -100c-17.333 11.333 -39.333 21.666 -66 30.999s-57 14 -91 14
c-44 0 -83.167 -9.33301 -117.5 -28s-63.5 -43.167 -87.5 -73.5s-42.167 -64.833 -54.5 -103.5s-18.5 -78 -18.5 -118c0 -122 53.333 -183 160 -183zM570 945l114 -159l-52 -47l-81 88l-118 -86l-40 53z" />
    <glyph glyph-name="gcircumflex" unicode="&#x11d;" horiz-adv-x="569" 
d="M220 -86c49.333 0 86.4951 11.3311 111.495 33.998s41.833 53.667 50.5 93l3 14c-13.333 -6.66699 -29.333 -12.834 -48 -18.501s-38.334 -8.5 -59.001 -8.5c-58.667 0 -102.167 15.833 -130.5 47.5s-42.5 73.834 -42.5 126.501c0 48 8.33301 92.333 25 133
s40.167 75.834 70.5 105.501s66.833 52.834 109.5 69.501s90 25 142 25c25.333 0 52.5 -2.83301 81.5 -8.5s55.167 -14.834 78.5 -27.501l-106 -444c-9.33301 -39.333 -21.166 -74.166 -35.499 -104.499s-33.166 -55.666 -56.499 -75.999s-52.166 -35.833 -86.499 -46.5
s-75.833 -16 -124.5 -16c-35.333 0 -67.166 3.83301 -95.499 11.5s-53.166 17.167 -74.499 28.5l43 98c18 -10.667 38.833 -19.334 62.5 -26.001s50.834 -10 81.501 -10zM307.995 125.998c18 0 36.5 3.33203 55.5 9.99902s34.833 15 47.5 25l64 267
c-15.333 3.33301 -30.333 5 -45 5c-30.667 0 -58.5 -5.66699 -83.5 -17s-46.5 -26.666 -64.5 -45.999s-32 -41.833 -42 -67.5s-15 -53.167 -15 -82.5s6.33301 -52.333 19 -69s34 -25 64 -25zM480.995 783.997l114 -159l-52 -47l-81 88l-118 -86l-40 53z" />
    <glyph glyph-name="Gbreve" unicode="&#x11e;" horiz-adv-x="655" 
d="M412 94c19.333 0 36.666 1 51.999 3s27.333 4.33301 36 7l59 248h125l-80 -332c-17.333 -8 -44.5 -15.667 -81.5 -23s-80.5 -11 -130.5 -11c-44 0 -83 6.5 -117 19.5s-62.333 31.667 -85 56s-39.834 53.833 -51.501 88.5s-17.5 73.667 -17.5 117
c0 56 9.33301 110.5 28 163.5s45.834 100.167 81.501 141.5s79.334 74.5 131.001 99.5s110.167 37.5 175.5 37.5c46.667 0 86.5 -5.66699 119.5 -17s59.5 -23.666 79.5 -36.999l-49 -100c-17.333 11.333 -39.333 21.666 -66 30.999s-57 14 -91 14
c-44 0 -83.167 -9.33301 -117.5 -28s-63.5 -43.167 -87.5 -73.5s-42.167 -64.833 -54.5 -103.5s-18.5 -78 -18.5 -118c0 -122 53.333 -183 160 -183zM418 910h80c-0.666992 -2.66699 -1.16699 -5.16699 -1.5 -7.5s-0.5 -5.16602 -0.5 -8.49902c0 -17.333 4.5 -31 13.5 -41
s22.5 -15 40.5 -15c22.667 0 40 7.16699 52 21.5s21.333 31.166 28 50.499h82c-4 -24.667 -11.167 -46.5 -21.5 -65.5s-23 -34.833 -38 -47.5s-32.167 -22.334 -51.5 -29.001s-39.333 -10 -60 -10c-38 0 -68.5 10.833 -91.5 32.5s-34.5 50.834 -34.5 87.501
c0 10 1 20.667 3 32z" />
    <glyph glyph-name="gbreve" unicode="&#x11f;" horiz-adv-x="569" 
d="M220 -86c49.333 0 86.4951 11.3311 111.495 33.998s41.833 53.667 50.5 93l3 14c-13.333 -6.66699 -29.333 -12.834 -48 -18.501s-38.334 -8.5 -59.001 -8.5c-58.667 0 -102.167 15.833 -130.5 47.5s-42.5 73.834 -42.5 126.501c0 48 8.33301 92.333 25 133
s40.167 75.834 70.5 105.501s66.833 52.834 109.5 69.501s90 25 142 25c25.333 0 52.5 -2.83301 81.5 -8.5s55.167 -14.834 78.5 -27.501l-106 -444c-9.33301 -39.333 -21.166 -74.166 -35.499 -104.499s-33.166 -55.666 -56.499 -75.999s-52.166 -35.833 -86.499 -46.5
s-75.833 -16 -124.5 -16c-35.333 0 -67.166 3.83301 -95.499 11.5s-53.166 17.167 -74.499 28.5l43 98c18 -10.667 38.833 -19.334 62.5 -26.001s50.834 -10 81.501 -10zM307.995 125.998c18 0 36.5 3.33203 55.5 9.99902s34.833 15 47.5 25l64 267
c-15.333 3.33301 -30.333 5 -45 5c-30.667 0 -58.5 -5.66699 -83.5 -17s-46.5 -26.666 -64.5 -45.999s-32 -41.833 -42 -67.5s-15 -53.167 -15 -82.5s6.33301 -52.333 19 -69s34 -25 64 -25zM336.995 755.997h80c-0.666992 -2.66699 -1.16699 -5.16699 -1.5 -7.5
s-0.5 -5.16602 -0.5 -8.49902c0 -17.333 4.5 -31 13.5 -41s22.5 -15 40.5 -15c22.667 0 40 7.16699 52 21.5s21.333 31.166 28 50.499h82c-4 -24.667 -11.167 -46.5 -21.5 -65.5s-23 -34.833 -38 -47.5s-32.167 -22.334 -51.5 -29.001s-39.333 -10 -60 -10
c-38 0 -68.5 10.833 -91.5 32.5s-34.5 50.834 -34.5 87.501c0 10 1 20.667 3 32z" />
    <glyph glyph-name="Gdotaccent" unicode="&#x120;" horiz-adv-x="655" 
d="M412 94c19.333 0 36.666 1 51.999 3s27.333 4.33301 36 7l59 248h125l-80 -332c-17.333 -8 -44.5 -15.667 -81.5 -23s-80.5 -11 -130.5 -11c-44 0 -83 6.5 -117 19.5s-62.333 31.667 -85 56s-39.834 53.833 -51.501 88.5s-17.5 73.667 -17.5 117
c0 56 9.33301 110.5 28 163.5s45.834 100.167 81.501 141.5s79.334 74.5 131.001 99.5s110.167 37.5 175.5 37.5c46.667 0 86.5 -5.66699 119.5 -17s59.5 -23.666 79.5 -36.999l-49 -100c-17.333 11.333 -39.333 21.666 -66 30.999s-57 14 -91 14
c-44 0 -83.167 -9.33301 -117.5 -28s-63.5 -43.167 -87.5 -73.5s-42.167 -64.833 -54.5 -103.5s-18.5 -78 -18.5 -118c0 -122 53.333 -183 160 -183zM546 765c-18 0 -33 5.16895 -45 15.502s-18 25.166 -18 44.499c0 24.667 7.83301 44 23.5 58s33.167 21 52.5 21
c17.333 0 32.166 -5.5 44.499 -16.5s18.5 -26.167 18.5 -45.5c0 -12 -2.16699 -22.667 -6.5 -32s-10.166 -17.333 -17.499 -24s-15.5 -11.834 -24.5 -15.501s-18.167 -5.5 -27.5 -5.5z" />
    <glyph glyph-name="gdotaccent" unicode="&#x121;" horiz-adv-x="569" 
d="M220 -86c49.333 0 86.4951 11.3311 111.495 33.998s41.833 53.667 50.5 93l3 14c-13.333 -6.66699 -29.333 -12.834 -48 -18.501s-38.334 -8.5 -59.001 -8.5c-58.667 0 -102.167 15.833 -130.5 47.5s-42.5 73.834 -42.5 126.501c0 48 8.33301 92.333 25 133
s40.167 75.834 70.5 105.501s66.833 52.834 109.5 69.501s90 25 142 25c25.333 0 52.5 -2.83301 81.5 -8.5s55.167 -14.834 78.5 -27.501l-106 -444c-9.33301 -39.333 -21.166 -74.166 -35.499 -104.499s-33.166 -55.666 -56.499 -75.999s-52.166 -35.833 -86.499 -46.5
s-75.833 -16 -124.5 -16c-35.333 0 -67.166 3.83301 -95.499 11.5s-53.166 17.167 -74.499 28.5l43 98c18 -10.667 38.833 -19.334 62.5 -26.001s50.834 -10 81.501 -10zM307.995 125.998c18 0 36.5 3.33203 55.5 9.99902s34.833 15 47.5 25l64 267
c-15.333 3.33301 -30.333 5 -45 5c-30.667 0 -58.5 -5.66699 -83.5 -17s-46.5 -26.666 -64.5 -45.999s-32 -41.833 -42 -67.5s-15 -53.167 -15 -82.5s6.33301 -52.333 19 -69s34 -25 64 -25zM450.995 606.997c-18 0 -33 5.16895 -45 15.502s-18 25.166 -18 44.499
c0 24.667 7.83301 44 23.5 58s33.167 21 52.5 21c17.333 0 32.166 -5.5 44.499 -16.5s18.5 -26.167 18.5 -45.5c0 -12 -2.16699 -22.667 -6.5 -32s-10.166 -17.333 -17.499 -24s-15.5 -11.834 -24.5 -15.501s-18.167 -5.5 -27.5 -5.5z" />
    <glyph glyph-name="Gcommaaccent" unicode="&#x122;" horiz-adv-x="655" 
d="M412 94c19.333 0 36.666 1 51.999 3s27.333 4.33301 36 7l59 248h125l-80 -332c-17.333 -8 -44.5 -15.667 -81.5 -23s-80.5 -11 -130.5 -11c-44 0 -83 6.5 -117 19.5s-62.333 31.667 -85 56s-39.834 53.833 -51.501 88.5s-17.5 73.667 -17.5 117
c0 56 9.33301 110.5 28 163.5s45.834 100.167 81.501 141.5s79.334 74.5 131.001 99.5s110.167 37.5 175.5 37.5c46.667 0 86.5 -5.66699 119.5 -17s59.5 -23.666 79.5 -36.999l-49 -100c-17.333 11.333 -39.333 21.666 -66 30.999s-57 14 -91 14
c-44 0 -83.167 -9.33301 -117.5 -28s-63.5 -43.167 -87.5 -73.5s-42.167 -64.833 -54.5 -103.5s-18.5 -78 -18.5 -118c0 -122 53.333 -183 160 -183zM337 -50h102.999c-6.66699 -51.333 -22.667 -89.333 -48 -114s-59.666 -37 -102.999 -37c-8 0 -16.333 0.5 -25 1.5
s-16.667 2.5 -24 4.5l18 67c2.66699 -0.666992 5.16699 -1 7.5 -1h6.5c22 0 36.833 6.66699 44.5 20s14.5 33 20.5 59z" />
    <glyph glyph-name="gcommaaccent" unicode="&#x123;" horiz-adv-x="569" 
d="M220 -86c49.333 0 86.4951 11.3311 111.495 33.998s41.833 53.667 50.5 93l3 14c-13.333 -6.66699 -29.333 -12.834 -48 -18.501s-38.334 -8.5 -59.001 -8.5c-58.667 0 -102.167 15.833 -130.5 47.5s-42.5 73.834 -42.5 126.501c0 48 8.33301 92.333 25 133
s40.167 75.834 70.5 105.501s66.833 52.834 109.5 69.501s90 25 142 25c25.333 0 52.5 -2.83301 81.5 -8.5s55.167 -14.834 78.5 -27.501l-106 -444c-9.33301 -39.333 -21.166 -74.166 -35.499 -104.499s-33.166 -55.666 -56.499 -75.999s-52.166 -35.833 -86.499 -46.5
s-75.833 -16 -124.5 -16c-35.333 0 -67.166 3.83301 -95.499 11.5s-53.166 17.167 -74.499 28.5l43 98c18 -10.667 38.833 -19.334 62.5 -26.001s50.834 -10 81.501 -10zM307.995 125.998c18 0 36.5 3.33203 55.5 9.99902s34.833 15 47.5 25l64 267
c-15.333 3.33301 -30.333 5 -45 5c-30.667 0 -58.5 -5.66699 -83.5 -17s-46.5 -26.666 -64.5 -45.999s-32 -41.833 -42 -67.5s-15 -53.167 -15 -82.5s6.33301 -52.333 19 -69s34 -25 64 -25zM494.995 603.997l-104.998 -0.00195312
c5.33301 50.667 22.166 91.334 50.499 122.001s64.5 50.667 108.5 60l31 -54c-12 -5.33301 -22.667 -11.166 -32 -17.499s-17.333 -14.5 -24 -24.5s-12.334 -21.833 -17.001 -35.5s-8.66699 -30.5 -12 -50.5z" />
    <glyph glyph-name="Hcircumflex" unicode="&#x124;" horiz-adv-x="696" 
d="M654 693h126l-166 -693h-126l74 308h-284l-74 -308h-126l166 693h126l-67 -278h284zM554 945l114 -159l-52 -47l-81 88l-118 -86l-40 53z" />
    <glyph glyph-name="hcircumflex" unicode="&#x125;" 
d="M73 0l181 756l126 20l-62 -257c13.333 3.33301 27.833 6.5 43.5 9.5s31.167 4.5 46.5 4.5c29.333 0 54.5 -4.16699 75.5 -12.5s38.333 -19.833 52 -34.5s23.667 -32.334 30 -53.001s9.5 -43 9.5 -67c0 -28.667 -4 -59 -12 -91l-66 -275h-121l63 262l10 47
c3.33301 16 5 31 5 45c0 22 -5.83301 40.5 -17.5 55.5s-33.834 22.5 -66.501 22.5c-13.333 0 -26.666 -1.16699 -39.999 -3.5s-25.333 -5.16602 -36 -8.49902l-100 -420h-121zM522 845l-43 -43l-77 65l-104 -65l-33 51l148 109z" />
    <glyph glyph-name="Hbar" unicode="&#x126;" horiz-adv-x="696" 
d="M142 603h78l22 90h126l-22 -90h284l22 90h126l-22 -90h76l-21 -91h-77l-122 -512h-126l74 308h-284l-74 -308h-126l122 512h-78zM608 512h-284l-23 -97h284z" />
    <glyph glyph-name="hbar" unicode="&#x127;" 
d="M74 0l145 605h-68l19 81h68l17 70l126 20l-22 -90h150l-19 -81h-151l-22 -94c13.333 3.33301 28 6.5 44 9.5s31.667 4.5 47 4.5c29.333 0 54.5 -4.16699 75.5 -12.5s38.333 -19.833 52 -34.5s23.667 -32.334 30 -53.001s9.5 -43 9.5 -67
c0 -14 -0.833008 -27.333 -2.5 -40s-4.5 -27 -8.5 -43l-66 -275h-121l63 262l9.5 43c3 13.333 4.5 27 4.5 41c0 22 -5.83301 40.5 -17.5 55.5s-33.834 22.5 -66.501 22.5c-13.333 0 -26.666 -1.16699 -39.999 -3.5s-25.333 -5.16602 -36 -8.49902l-99 -412h-121z" />
    <glyph glyph-name="Itilde" unicode="&#x128;" horiz-adv-x="286" 
d="M244 693h126l-166 -693h-126zM391 773c-12 0 -22.999 2 -32.999 6s-19.5 8.16699 -28.5 12.5l-26 12.5c-8.33301 4 -16.833 6 -25.5 6c-11.333 0 -21.333 -3.83301 -30 -11.5s-17.667 -18.5 -27 -32.5l-57 35c14 31.333 31 55.333 51 72s45 25 75 25
c13.333 0 25.166 -2 35.499 -6s19.833 -8.33301 28.5 -13l25 -13c8 -4 16.333 -6 25 -6c11.333 0 21.333 4 30 12s17.667 19 27 33l57 -35c-14.667 -32 -32 -56.167 -52 -72.5s-45 -24.5 -75 -24.5z" />
    <glyph glyph-name="itilde" unicode="&#x129;" horiz-adv-x="271" 
d="M193 0h-120l125 523h121zM344 614c-12 0 -22.999 2 -32.999 6s-19.5 8.16699 -28.5 12.5l-26 12.5c-8.33301 4 -16.833 6 -25.5 6c-11.333 0 -21.333 -3.83301 -30 -11.5s-17.667 -18.5 -27 -32.5l-57 35c14 31.333 31 55.333 51 72s45 25 75 25
c13.333 0 25.166 -2 35.499 -6s19.833 -8.33301 28.5 -13l25 -13c8 -4 16.333 -6 25 -6c11.333 0 21.333 4 30 12s17.667 19 27 33l57 -35c-14.667 -32 -32 -56.167 -52 -72.5s-45 -24.5 -75 -24.5z" />
    <glyph glyph-name="Imacron" unicode="&#x12a;" horiz-adv-x="286" 
d="M244 693h126l-166 -693h-126zM180 785l21 87h301l-21 -87h-301z" />
    <glyph glyph-name="imacron" unicode="&#x12b;" horiz-adv-x="271" 
d="M193 0h-120l125 523h121zM134 631l21 87h301l-21 -87h-301z" />
    <glyph glyph-name="Ibreve" unicode="&#x12c;" horiz-adv-x="286" 
d="M244 693h126l-166 -693h-126zM210 910h80c-0.666992 -2.66699 -1.16699 -5.16699 -1.5 -7.5s-0.5 -5.16602 -0.5 -8.49902c0 -17.333 4.5 -31 13.5 -41s22.5 -15 40.5 -15c22.667 0 40 7.16699 52 21.5s21.333 31.166 28 50.499h82c-4 -24.667 -11.167 -46.5 -21.5 -65.5
s-23 -34.833 -38 -47.5s-32.167 -22.334 -51.5 -29.001s-39.333 -10 -60 -10c-38 0 -68.5 10.833 -91.5 32.5s-34.5 50.834 -34.5 87.501c0 10 1 20.667 3 32z" />
    <glyph glyph-name="ibreve" unicode="&#x12d;" horiz-adv-x="271" 
d="M193 0h-120l125 523h121zM164 756h80c-0.666992 -2.66699 -1.16699 -5.16699 -1.5 -7.5s-0.5 -5.16602 -0.5 -8.49902c0 -17.333 4.5 -31 13.5 -41s22.5 -15 40.5 -15c22.667 0 40 7.16699 52 21.5s21.333 31.166 28 50.499h82c-4 -24.667 -11.167 -46.5 -21.5 -65.5
s-23 -34.833 -38 -47.5s-32.167 -22.334 -51.5 -29.001s-39.333 -10 -60 -10c-38 0 -68.5 10.833 -91.5 32.5s-34.5 50.834 -34.5 87.501c0 10 1 20.667 3 32z" />
    <glyph glyph-name="Iogonek" unicode="&#x12e;" horiz-adv-x="286" 
d="M244 693h126.002l-166 -693l-27 -17c-11.333 -7.33301 -22.333 -15.5 -33 -24.5s-19.834 -18.5 -27.501 -28.5s-11.5 -19.667 -11.5 -29c0 -5.33301 2.33301 -9.83301 7 -13.5s12.667 -5.5 24 -5.5c6 0 12.833 0.5 20.5 1.5s16.167 2.83301 25.5 5.5l-10 -80
c-10.667 -4 -23.334 -7.16699 -38.001 -9.5s-28.667 -3.5 -42 -3.5c-34 0 -59.167 6.5 -75.5 19.5s-24.5 29.833 -24.5 50.5c0 22.667 9.83301 45.667 29.5 69s46.5 45 80.5 65h-24z" />
    <glyph glyph-name="iogonek" unicode="&#x12f;" horiz-adv-x="271" 
d="M193 0c-7.33301 -5.33301 -16.5 -11.666 -27.5 -18.999s-21.667 -15.333 -32 -24s-19.166 -17.834 -26.499 -27.501s-11 -19.167 -11 -28.5c0 -5.33301 2.33301 -9.83301 7 -13.5s12.667 -5.5 24 -5.5c6 0 12.833 0.5 20.5 1.5s16.167 2.83301 25.5 5.5l-10 -80
c-10.667 -4 -23.334 -7.16699 -38.001 -9.5s-28.667 -3.5 -42 -3.5c-34 0 -59.167 6.5 -75.5 19.5s-24.5 29.833 -24.5 50.5c0 22.667 9.83301 45 29.5 67s45.5 44.333 77.5 67h-17l125 523h121zM283 602c-18 0 -33.667 5.33398 -47 16.001s-20 26.667 -20 48
c0 24.667 8.5 45 25.5 61s36.5 24 58.5 24c18 0 33.833 -5.5 47.5 -16.5s20.5 -27.167 20.5 -48.5c0 -24.667 -8.66699 -44.834 -26 -60.501s-37 -23.5 -59 -23.5z" />
    <glyph glyph-name="Idotaccent" unicode="&#x130;" horiz-adv-x="286" 
d="M244 693h126l-166 -693h-126zM331 765c-18 0 -33 5.16895 -45 15.502s-18 25.166 -18 44.499c0 24.667 7.83301 44 23.5 58s33.167 21 52.5 21c17.333 0 32.166 -5.5 44.499 -16.5s18.5 -26.167 18.5 -45.5c0 -12 -2.16699 -22.667 -6.5 -32s-10.166 -17.333 -17.499 -24
s-15.5 -11.834 -24.5 -15.501s-18.167 -5.5 -27.5 -5.5z" />
    <glyph glyph-name="dotlessi" unicode="&#x131;" horiz-adv-x="271" 
d="M193 0h-120l125 523h121z" />
    <glyph glyph-name="IJ" unicode="&#x132;" horiz-adv-x="794" 
d="M244 693h126l-166 -693h-126zM768 216c-8 -33.333 -17.834 -64.1689 -29.501 -92.502s-27.5 -52.666 -47.5 -72.999s-45.167 -36.333 -75.5 -48s-68.5 -17.5 -114.5 -17.5c-40.667 0 -76.667 6.5 -108 19.5s-55.666 27.167 -72.999 42.5l58 95
c13.333 -11.333 30 -22.166 50 -32.499s45 -15.5 75 -15.5c20.667 0 38.667 2.5 54 7.5s28.5 13.167 39.5 24.5s20.5 26 28.5 44s15 40 21 66l109 457h127z" />
    <glyph glyph-name="ij" unicode="&#x133;" horiz-adv-x="555" 
d="M193 0h-120l125 523h121zM283 602c-18 0 -33.667 5.33398 -47 16.001s-20 26.667 -20 48c0 24.667 8.5 45 25.5 61s36.5 24 58.5 24c18 0 33.833 -5.5 47.5 -16.5s20.5 -27.167 20.5 -48.5c0 -24.667 -8.66699 -44.834 -26 -60.501s-37 -23.5 -59 -23.5zM568 602.001
c-18 0 -33.667 5.33398 -47 16.001s-20 26.667 -20 48c0 24.667 8.5 45 25.5 61s36.5 24 58.5 24c18 0 33.833 -5.5 47.5 -16.5s20.5 -27.167 20.5 -48.5c0 -24.667 -8.66699 -44.834 -26 -60.501s-37 -23.5 -59 -23.5zM482 19.002c-8.66699 -36 -18.835 -67 -30.502 -93
s-26 -47.333 -43 -64s-37 -29 -60 -37s-50.5 -12 -82.5 -12c-15.333 0 -31.166 1.83301 -47.499 5.5s-30.166 8.16699 -41.499 13.5l30 97c8 -3.33301 17.167 -6.33301 27.5 -9s21.5 -4 33.5 -4c27.333 0 48 9.5 62 28.5s24.667 44.5 32 76.5l120 502h121z" />
    <glyph glyph-name="Jcircumflex" unicode="&#x134;" horiz-adv-x="495" 
d="M469 216c-8 -33.333 -17.834 -64.1689 -29.501 -92.502s-27.5 -52.666 -47.5 -72.999s-45.167 -36.333 -75.5 -48s-68.5 -17.5 -114.5 -17.5c-40.667 0 -76.667 6.5 -108 19.5s-55.666 27.167 -72.999 42.5l58 95c13.333 -11.333 30 -22.166 50 -32.499
s45 -15.5 75 -15.5c20.667 0 38.667 2.5 54 7.5s28.5 13.167 39.5 24.5s20.5 26 28.5 44s15 40 21 66l109 457h127zM563.999 944.997l114 -159l-52 -47l-81 88l-118 -86l-40 53z" />
    <glyph glyph-name="jcircumflex" unicode="&#x135;" horiz-adv-x="276" 
d="M-13 -187c-15.333 0 -31.167 1.83301 -47.5 5.5s-30.166 8.16699 -41.499 13.5l30 97c8 -3.33301 17.167 -6.33301 27.5 -9s21.5 -4 33.5 -4c27.333 0 48 9.5 62 28.5s24.667 44.5 32 76.5l120 502h121l-121 -504c-8.66699 -36 -18.834 -67 -30.501 -93
s-26 -47.333 -43 -64s-37 -29 -60 -37s-50.5 -12 -82.5 -12zM309.999 784l114 -159l-52 -47l-81 88l-118 -86l-40 53z" />
    <glyph glyph-name="Kcommaaccent" unicode="&#x136;" horiz-adv-x="634" 
d="M494 0c-13.333 26.667 -28.1699 54.4961 -44.5029 83.4961s-33.666 57.333 -51.999 85s-37.666 53.834 -57.999 78.501s-40.5 46.334 -60.5 65.001l-75 -312h-126l166 693h126l-67 -277l85 70l86 74l79.5 71l66.5 62h153l-87.5 -80l-95 -85.5l-98 -86l-97.5 -80.5
c20.667 -21.333 42 -45.666 64 -72.999s43.333 -56.666 64 -87.999s40.334 -64 59.001 -98s35.667 -68 51 -102h-139zM287.996 -50.0039h102.999c-6.66699 -51.333 -22.667 -89.333 -48 -114s-59.666 -37 -102.999 -37c-8 0 -16.333 0.5 -25 1.5s-16.667 2.5 -24 4.5l18 67
c2.66699 -0.666992 5.16699 -1 7.5 -1h6.5c22 0 36.833 6.66699 44.5 20s14.5 33 20.5 59z" />
    <glyph glyph-name="kcommaaccent" unicode="&#x137;" horiz-adv-x="559" 
d="M271 324l62.998 50.498c21.333 17.667 41.5 35.334 60.5 53.001l53.5 51c16.667 16.333 31 31.166 43 44.499h139c-16 -18.667 -34.333 -38.334 -55 -59.001l-65 -62l-70 -61l-70 -57c16.667 -17.333 33.334 -37.666 50.001 -60.999s32.667 -47.666 48 -72.999
s29.333 -51 42 -77s23 -50.333 31 -73h-134c-9.33301 22 -19.666 44.333 -30.999 67s-23.666 44.834 -36.999 66.501s-27.333 42 -42 61s-29.334 35.833 -44.001 50.5l-60 -245h-120l181 756l126 20zM237.998 -50.002h102.999c-6.66699 -51.333 -22.667 -89.333 -48 -114
s-59.666 -37 -102.999 -37c-8 0 -16.333 0.5 -25 1.5s-16.667 2.5 -24 4.5l18 67c2.66699 -0.666992 5.16699 -1 7.5 -1h6.5c22 0 36.833 6.66699 44.5 20s14.5 33 20.5 59z" />
    <glyph glyph-name="kgreenlandic" unicode="&#x138;" horiz-adv-x="562" 
d="M319 523l-48.001 -201.999c21.333 16 43 33.333 65 52l63 55c20 18 38.333 35.333 55 52l43 43h146c-16.667 -18.667 -35.5 -38.334 -56.5 -59.001l-66.5 -63l-72.5 -63.5c-25 -21 -49.5 -40.5 -73.5 -58.5c16.667 -17.333 33.5 -37.166 50.5 -59.499
s33.167 -46 48.5 -71s29.5 -50.333 42.5 -76s23.833 -49.834 32.5 -72.501h-134c-19.333 44 -43.166 88 -71.499 132s-58.5 81 -90.5 111l-59 -243h-120l125 523h121z" />
    <glyph glyph-name="Lacute" unicode="&#x139;" horiz-adv-x="536" 
d="M536 106l-25 -106h-433l166 693h126l-141 -587h307zM427 954l65 -82l-189 -127l-49 60z" />
    <glyph glyph-name="lacute" unicode="&#x13a;" horiz-adv-x="298" 
d="M273 -10c-31.333 0.666992 -57.833 4.66699 -79.5 12s-39 17.333 -52 30s-22.333 27.667 -28 45s-8.5 36.333 -8.5 57c0 21.333 2.5 43.833 7.5 67.5s10.5 47.167 16.5 70.5l116 484l126 20l-62 -260.5l-63 -260.5c-3.33301 -14 -7 -27.833 -11 -41.5
s-6 -27.167 -6 -40.5c0 -11.333 0.166992 -21.833 0.5 -31.5s3 -18 8 -25s12.5 -12.833 22.5 -17.5s23 -7.66699 39 -9zM446 964l26 -87l-192 -70l-23 65z" />
    <glyph glyph-name="Lcommaaccent" unicode="&#x13b;" horiz-adv-x="536" 
d="M536 106l-25 -106h-433l166 693h126l-141 -587h307zM251 -50h102.999c-6.66699 -51.333 -22.667 -89.333 -48 -114s-59.666 -37 -102.999 -37c-8 0 -16.333 0.5 -25 1.5s-16.667 2.5 -24 4.5l18 67c2.66699 -0.666992 5.16699 -1 7.5 -1h6.5c22 0 36.833 6.66699 44.5 20
s14.5 33 20.5 59z" />
    <glyph glyph-name="lcommaaccent" unicode="&#x13c;" horiz-adv-x="298" 
d="M273 -10c-31.333 0.666992 -57.833 4.66699 -79.5 12s-39 17.333 -52 30s-22.333 27.667 -28 45s-8.5 36.333 -8.5 57c0 21.333 2.5 43.833 7.5 67.5s10.5 47.167 16.5 70.5l116 484l126 20l-62 -260.5l-63 -260.5c-3.33301 -14 -7 -27.833 -11 -41.5
s-6 -27.167 -6 -40.5c0 -11.333 0.166992 -21.833 0.5 -31.5s3 -18 8 -25s12.5 -12.833 22.5 -17.5s23 -7.66699 39 -9zM125 -50h102.999c-6.66699 -51.333 -22.667 -89.333 -48 -114s-59.666 -37 -102.999 -37c-8 0 -16.333 0.5 -25 1.5s-16.667 2.5 -24 4.5l18 67
c2.66699 -0.666992 5.16699 -1 7.5 -1h6.5c22 0 36.833 6.66699 44.5 20s14.5 33 20.5 59z" />
    <glyph glyph-name="Lcaron" unicode="&#x13d;" horiz-adv-x="536" 
d="M536 106l-25 -106h-433l166 693h126l-141 -587h307zM568 694l-86 -234h-82l55 234h113z" />
    <glyph glyph-name="lcaron" unicode="&#x13e;" horiz-adv-x="354" 
d="M273 -10c-31.333 0.666992 -57.833 4.66699 -79.5 12s-39 17.333 -52 30s-22.333 27.667 -28 45s-8.5 36.333 -8.5 57c0 21.333 2.5 43.833 7.5 67.5s10.5 47.167 16.5 70.5l116 484l126 20l-62 -260.5l-63 -260.5c-3.33301 -14 -7 -27.833 -11 -41.5
s-6 -27.167 -6 -40.5c0 -11.333 0.166992 -21.833 0.5 -31.5s3 -18 8 -25s12.5 -12.833 22.5 -17.5s23 -7.66699 39 -9zM574 776l-86 -234h-82l55 234h113z" />
    <glyph glyph-name="Ldot" unicode="&#x13f;" horiz-adv-x="536" 
d="M536 106l-25 -106h-433l166 693h126l-141 -587h307zM491 302c-18 0 -33 5.16895 -45 15.502s-18 25.166 -18 44.499c0 24.667 7.83301 44 23.5 58s33.167 21 52.5 21c17.333 0 32.166 -5.5 44.499 -16.5s18.5 -26.167 18.5 -45.5c0 -12 -2.16699 -22.667 -6.5 -32
s-10.166 -17.333 -17.499 -24s-15.5 -11.834 -24.5 -15.501s-18.167 -5.5 -27.5 -5.5z" />
    <glyph glyph-name="ldot" unicode="&#x140;" horiz-adv-x="405" 
d="M273 -10c-31.333 0.666992 -57.833 4.66699 -79.5 12s-39 17.333 -52 30s-22.333 27.667 -28 45s-8.5 36.333 -8.5 57c0 21.333 2.5 43.833 7.5 67.5s10.5 47.167 16.5 70.5l116 484l126 20l-62 -260.5l-63 -260.5c-3.33301 -14 -7 -27.833 -11 -41.5
s-6 -27.167 -6 -40.5c0 -11.333 0.166992 -21.833 0.5 -31.5s3 -18 8 -25s12.5 -12.833 22.5 -17.5s23 -7.66699 39 -9zM409 302c-18 0 -33 5.16895 -45 15.502s-18 25.166 -18 44.499c0 24.667 7.83301 44 23.5 58s33.167 21 52.5 21c17.333 0 32.166 -5.5 44.499 -16.5
s18.5 -26.167 18.5 -45.5c0 -12 -2.16699 -22.667 -6.5 -32s-10.166 -17.333 -17.499 -24s-15.5 -11.834 -24.5 -15.501s-18.167 -5.5 -27.5 -5.5z" />
    <glyph glyph-name="Lslash" unicode="&#x141;" horiz-adv-x="570" 
d="M70 320l121 56l76 317h126l-62 -257l129 60l21 -85l-175 -81l-54 -224h307l-25 -106h-433l64 268l-75 -33z" />
    <glyph glyph-name="lslash" unicode="&#x142;" horiz-adv-x="355" 
d="M65 374l126 56l78 326l126 20l-68 -287l80 37l19 -81l-123 -56l-33 -134l-12 -48c-4 -16.667 -6 -34.667 -6 -54c0 -17.333 4.83301 -31.5 14.5 -42.5s28.5 -17.833 56.5 -20.5l-26 -100c-31.333 0.666992 -57.833 4.66699 -79.5 12s-39 17.333 -52 30
s-22.333 27.667 -28 45s-8.5 36.333 -8.5 57c0 21.333 2.5 43.833 7.5 67.5s10.5 47.167 16.5 70.5l14 58l-83 -37z" />
    <glyph glyph-name="Nacute" unicode="&#x143;" horiz-adv-x="719" 
d="M535 0c-12.667 38.667 -27.167 80.333 -43.5 125s-33.666 89.334 -51.999 134.001s-37.333 88.167 -57 130.5s-39.5 81.166 -59.5 116.499l-121 -506h-124l166 693h101c18.667 -30 38.167 -64.333 58.5 -103s40.166 -79.167 59.499 -121.5l56 -127.5
c18 -42.667 33.667 -83 47 -121l111 473h125l-166 -693h-101zM623 953.999l65 -82l-189 -127l-49 60z" />
    <glyph glyph-name="nacute" unicode="&#x144;" 
d="M193 501c26.667 8 57.167 15.502 91.5 22.502s71.833 10.5 112.5 10.5c61.333 0 106.333 -15 135 -45s43 -70.333 43 -121c0 -14 -1.16699 -28.833 -3.5 -44.5s-5.16602 -31.834 -8.49902 -48.501l-66 -275h-121l62 262l10 45c3.33301 15.333 5.33301 30 6 44
c0.666992 23.333 -4.83301 42.666 -16.5 57.999s-34.5 23 -68.5 23c-28.667 0 -53.334 -3 -74.001 -9l-101 -423h-121zM513 792.002l65 -82l-189 -127l-49 60z" />
    <glyph glyph-name="Ncommaaccent" unicode="&#x145;" horiz-adv-x="719" 
d="M535 0c-12.667 38.667 -27.167 80.333 -43.5 125s-33.666 89.334 -51.999 134.001s-37.333 88.167 -57 130.5s-39.5 81.166 -59.5 116.499l-121 -506h-124l166 693h101c18.667 -30 38.167 -64.333 58.5 -103s40.166 -79.167 59.499 -121.5l56 -127.5
c18 -42.667 33.667 -83 47 -121l111 473h125l-166 -693h-101zM305 -50.001h102.999c-6.66699 -51.333 -22.667 -89.333 -48 -114s-59.666 -37 -102.999 -37c-8 0 -16.333 0.5 -25 1.5s-16.667 2.5 -24 4.5l18 67c2.66699 -0.666992 5.16699 -1 7.5 -1h6.5
c22 0 36.833 6.66699 44.5 20s14.5 33 20.5 59z" />
    <glyph glyph-name="ncommaaccent" unicode="&#x146;" 
d="M193 501c26.667 8 57.167 15.502 91.5 22.502s71.833 10.5 112.5 10.5c61.333 0 106.333 -15 135 -45s43 -70.333 43 -121c0 -14 -1.16699 -28.833 -3.5 -44.5s-5.16602 -31.834 -8.49902 -48.501l-66 -275h-121l62 262l10 45c3.33301 15.333 5.33301 30 6 44
c0.666992 23.333 -4.83301 42.666 -16.5 57.999s-34.5 23 -68.5 23c-28.667 0 -53.334 -3 -74.001 -9l-101 -423h-121zM221 -49.998h102.999c-6.66699 -51.333 -22.667 -89.333 -48 -114s-59.666 -37 -102.999 -37c-8 0 -16.333 0.5 -25 1.5s-16.667 2.5 -24 4.5l18 67
c2.66699 -0.666992 5.16699 -1 7.5 -1h6.5c22 0 36.833 6.66699 44.5 20s14.5 33 20.5 59z" />
    <glyph glyph-name="Ncaron" unicode="&#x147;" horiz-adv-x="719" 
d="M535 0c-12.667 38.667 -27.167 80.333 -43.5 125s-33.666 89.334 -51.999 134.001s-37.333 88.167 -57 130.5s-39.5 81.166 -59.5 116.499l-121 -506h-124l166 693h101c18.667 -30 38.167 -64.333 58.5 -103s40.166 -79.167 59.499 -121.5l56 -127.5
c18 -42.667 33.667 -83 47 -121l111 473h125l-166 -693h-101zM523 741.999l-114 159l52 47l80 -88l119 86l39 -53z" />
    <glyph glyph-name="ncaron" unicode="&#x148;" 
d="M193 501c26.667 8 57.167 15.502 91.5 22.502s71.833 10.5 112.5 10.5c61.333 0 106.333 -15 135 -45s43 -70.333 43 -121c0 -14 -1.16699 -28.833 -3.5 -44.5s-5.16602 -31.834 -8.49902 -48.501l-66 -275h-121l62 262l10 45c3.33301 15.333 5.33301 30 6 44
c0.666992 23.333 -4.83301 42.666 -16.5 57.999s-34.5 23 -68.5 23c-28.667 0 -53.334 -3 -74.001 -9l-101 -423h-121zM416 584.002l-114 159l52 47l80 -88l119 86l39 -53z" />
    <glyph glyph-name="napostrophe" unicode="&#x149;" horiz-adv-x="573" 
d="M203 501c26.667 8 57.167 15.502 91.5 22.502s71.833 10.5 112.5 10.5c61.333 0 106.333 -15 135 -45s43 -70.333 43 -121c0 -14 -1.16699 -28.833 -3.5 -44.5s-5.16602 -31.834 -8.49902 -48.501l-66 -275h-121l62 262l10 45c3.33301 15.333 5.33301 30 6 44
c0.666992 23.333 -4.83301 42.666 -16.5 57.999s-34.5 23 -68.5 23c-28.667 0 -53.334 -3 -74.001 -9l-101 -423h-121zM178 776.002h113.001c-11.333 -47.333 -26 -87.5 -44 -120.5s-40.333 -63.833 -67 -92.5l-74 26c21.333 33.333 37.666 64.333 48.999 93s19 60 23 94z
" />
    <glyph glyph-name="Eng" unicode="&#x14a;" horiz-adv-x="719" 
d="M522 39l-42.001 117.002c-15.333 41.333 -31.666 82.5 -48.999 123.5s-35.166 81 -53.499 120s-36.5 74.5 -54.5 106.5l-121 -506h-124l166 693h101c19.333 -31.333 39.5 -67 60.5 -107s41.167 -81.333 60.5 -124l55 -127c17.333 -42 32.333 -80.333 45 -115l111 473h125
l-164 -685c-7.33301 -31.333 -16.166 -59 -26.499 -83s-23.166 -44.333 -38.499 -61s-33.833 -29.334 -55.5 -38.001s-47.834 -13 -78.501 -13c-12.667 0 -26.5 1.33301 -41.5 4s-28.833 6.33398 -41.5 11.001l36 94c6 -2.66699 12.5 -4.83398 19.5 -6.50098
s14.5 -2.5 22.5 -2.5c14 0 25.667 3 35 9s17.166 14.5 23.499 25.5s11.666 24.167 15.999 39.5s8.83301 32.666 13.5 51.999z" />
    <glyph glyph-name="eng" unicode="&#x14b;" 
d="M496 -4c-7.33301 -31.333 -16.3359 -58.333 -27.0029 -81s-23.667 -41.5 -39 -56.5s-33.666 -26.167 -54.999 -33.5s-46.666 -11 -75.999 -11c-12 0 -25 1.16699 -39 3.5s-26.667 5.5 -38 9.5l33 88c12 -5.33301 25.333 -8 40 -8c22.667 0 39.834 7.16699 51.501 21.5
s20.834 35.5 27.501 63.5l64 270l10.5 47c3.66699 16 5.5 31 5.5 45c0 22.667 -6 41.334 -18 56.001s-34.333 22 -67 22c-13.333 0 -26.333 -0.833008 -39 -2.5s-24.334 -3.83398 -35.001 -6.50098l-101 -423h-121l120 501c26.667 8 57.167 15.5 91.5 22.5
s71.833 10.5 112.5 10.5c61.333 0 106.333 -15.167 135 -45.5s43 -70.833 43 -121.5c0 -29.333 -4 -60 -12 -92z" />
    <glyph glyph-name="Omacron" unicode="&#x14c;" horiz-adv-x="742" 
d="M505 600c-38 0 -72.499 -9.5 -103.499 -28.5s-57.5 -43.833 -79.5 -74.5s-39.167 -65.5 -51.5 -104.5s-18.5 -78.5 -18.5 -118.5c0 -54.667 11.667 -98.334 35 -131.001s60.666 -49 111.999 -49c38 0 72.667 9.5 104 28.5s58 43.833 80 74.5s39.167 65.5 51.5 104.5
s18.5 78.5 18.5 118.5c0 54.667 -11.833 98.334 -35.5 131.001s-61.167 49 -112.5 49zM386.001 -15c-38.667 0 -74.1689 6.16699 -106.502 18.5s-60.333 30.166 -84 53.499s-42 52.333 -55 87s-19.5 74.334 -19.5 119.001c0 53.333 8.66699 106.666 26 159.999
s42.833 101.166 76.5 143.499s75.167 76.666 124.5 102.999s106 39.5 170 39.5c38.667 0 74.334 -6.16699 107.001 -18.5s60.667 -30.166 84 -53.499s41.5 -52.333 54.5 -87s19.5 -74.334 19.5 -119.001c0 -53.333 -8.66699 -106.666 -26 -159.999
s-42.666 -101.166 -75.999 -143.499s-74.833 -76.666 -124.5 -102.999s-106.5 -39.5 -170.5 -39.5zM390.999 785l21 87h301l-21 -87h-301z" />
    <glyph glyph-name="omacron" unicode="&#x14d;" 
d="M288 -14c-62 0 -109.333 18.332 -142 54.999s-49 85 -49 145c0 38.667 6 78.667 18 120s30.333 79 55 113s55.667 62 93 84s81.333 33 132 33c62 0 109.333 -18.167 142 -54.5s49 -84.5 49 -144.5c0 -39.333 -5.83301 -79.666 -17.5 -120.999s-29.667 -79 -54 -113
s-55.333 -62 -93 -84s-82.167 -33 -133.5 -33zM380 433.999c-26 0 -49.167 -7.50098 -69.5 -22.501s-37.333 -34.167 -51 -57.5s-24.167 -48.833 -31.5 -76.5s-11 -54.5 -11 -80.5c0 -33.333 6.33301 -59.666 19 -78.999s35 -29 67 -29c26 0 49.167 7.5 69.5 22.5
s37.333 34 51 57s24.167 48.5 31.5 76.5s11 54.667 11 80c0 33.333 -6.33301 59.833 -19 79.5s-35 29.5 -67 29.5zM267 630.998l21 87h301l-21 -87h-301z" />
    <glyph glyph-name="Obreve" unicode="&#x14e;" horiz-adv-x="742" 
d="M505 600c-38 0 -72.499 -9.5 -103.499 -28.5s-57.5 -43.833 -79.5 -74.5s-39.167 -65.5 -51.5 -104.5s-18.5 -78.5 -18.5 -118.5c0 -54.667 11.667 -98.334 35 -131.001s60.666 -49 111.999 -49c38 0 72.667 9.5 104 28.5s58 43.833 80 74.5s39.167 65.5 51.5 104.5
s18.5 78.5 18.5 118.5c0 54.667 -11.833 98.334 -35.5 131.001s-61.167 49 -112.5 49zM386.001 -15c-38.667 0 -74.1689 6.16699 -106.502 18.5s-60.333 30.166 -84 53.499s-42 52.333 -55 87s-19.5 74.334 -19.5 119.001c0 53.333 8.66699 106.666 26 159.999
s42.833 101.166 76.5 143.499s75.167 76.666 124.5 102.999s106 39.5 170 39.5c38.667 0 74.334 -6.16699 107.001 -18.5s60.667 -30.166 84 -53.499s41.5 -52.333 54.5 -87s19.5 -74.334 19.5 -119.001c0 -53.333 -8.66699 -106.666 -26 -159.999
s-42.666 -101.166 -75.999 -143.499s-74.833 -76.666 -124.5 -102.999s-106.5 -39.5 -170.5 -39.5zM418.999 910h80c-0.666992 -2.66699 -1.16699 -5.16699 -1.5 -7.5s-0.5 -5.16602 -0.5 -8.49902c0 -17.333 4.5 -31 13.5 -41s22.5 -15 40.5 -15
c22.667 0 40 7.16699 52 21.5s21.333 31.166 28 50.499h82c-4 -24.667 -11.167 -46.5 -21.5 -65.5s-23 -34.833 -38 -47.5s-32.167 -22.334 -51.5 -29.001s-39.333 -10 -60 -10c-38 0 -68.5 10.833 -91.5 32.5s-34.5 50.834 -34.5 87.501c0 10 1 20.667 3 32z" />
    <glyph glyph-name="obreve" unicode="&#x14f;" 
d="M288 -14c-62 0 -109.333 18.332 -142 54.999s-49 85 -49 145c0 38.667 6 78.667 18 120s30.333 79 55 113s55.667 62 93 84s81.333 33 132 33c62 0 109.333 -18.167 142 -54.5s49 -84.5 49 -144.5c0 -39.333 -5.83301 -79.666 -17.5 -120.999s-29.667 -79 -54 -113
s-55.333 -62 -93 -84s-82.167 -33 -133.5 -33zM380 433.999c-26 0 -49.167 -7.50098 -69.5 -22.501s-37.333 -34.167 -51 -57.5s-24.167 -48.833 -31.5 -76.5s-11 -54.5 -11 -80.5c0 -33.333 6.33301 -59.666 19 -78.999s35 -29 67 -29c26 0 49.167 7.5 69.5 22.5
s37.333 34 51 57s24.167 48.5 31.5 76.5s11 54.667 11 80c0 33.333 -6.33301 59.833 -19 79.5s-35 29.5 -67 29.5zM293 755.998h80c-0.666992 -2.66699 -1.16699 -5.16699 -1.5 -7.5s-0.5 -5.16602 -0.5 -8.49902c0 -17.333 4.5 -31 13.5 -41s22.5 -15 40.5 -15
c22.667 0 40 7.16699 52 21.5s21.333 31.166 28 50.499h82c-4 -24.667 -11.167 -46.5 -21.5 -65.5s-23 -34.833 -38 -47.5s-32.167 -22.334 -51.5 -29.001s-39.333 -10 -60 -10c-38 0 -68.5 10.833 -91.5 32.5s-34.5 50.834 -34.5 87.501c0 10 1 20.667 3 32z" />
    <glyph glyph-name="Ohungarumlaut" unicode="&#x150;" horiz-adv-x="742" 
d="M505 600c-38 0 -72.499 -9.5 -103.499 -28.5s-57.5 -43.833 -79.5 -74.5s-39.167 -65.5 -51.5 -104.5s-18.5 -78.5 -18.5 -118.5c0 -54.667 11.667 -98.334 35 -131.001s60.666 -49 111.999 -49c38 0 72.667 9.5 104 28.5s58 43.833 80 74.5s39.167 65.5 51.5 104.5
s18.5 78.5 18.5 118.5c0 54.667 -11.833 98.334 -35.5 131.001s-61.167 49 -112.5 49zM386.001 -15c-38.667 0 -74.1689 6.16699 -106.502 18.5s-60.333 30.166 -84 53.499s-42 52.333 -55 87s-19.5 74.334 -19.5 119.001c0 53.333 8.66699 106.666 26 159.999
s42.833 101.166 76.5 143.499s75.167 76.666 124.5 102.999s106 39.5 170 39.5c38.667 0 74.334 -6.16699 107.001 -18.5s60.667 -30.166 84 -53.499s41.5 -52.333 54.5 -87s19.5 -74.334 19.5 -119.001c0 -53.333 -8.66699 -106.666 -26 -159.999
s-42.666 -101.166 -75.999 -143.499s-74.833 -76.666 -124.5 -102.999s-106.5 -39.5 -170.5 -39.5zM753.999 944l61 -75l-157 -133l-47 53zM563.999 945l62 -75l-158 -132l-46 52z" />
    <glyph glyph-name="ohungarumlaut" unicode="&#x151;" 
d="M288 -14c-62 0 -109.333 18.332 -142 54.999s-49 85 -49 145c0 38.667 6 78.667 18 120s30.333 79 55 113s55.667 62 93 84s81.333 33 132 33c62 0 109.333 -18.167 142 -54.5s49 -84.5 49 -144.5c0 -39.333 -5.83301 -79.666 -17.5 -120.999s-29.667 -79 -54 -113
s-55.333 -62 -93 -84s-82.167 -33 -133.5 -33zM380 433.999c-26 0 -49.167 -7.50098 -69.5 -22.501s-37.333 -34.167 -51 -57.5s-24.167 -48.833 -31.5 -76.5s-11 -54.5 -11 -80.5c0 -33.333 6.33301 -59.666 19 -78.999s35 -29 67 -29c26 0 49.167 7.5 69.5 22.5
s37.333 34 51 57s24.167 48.5 31.5 76.5s11 54.667 11 80c0 33.333 -6.33301 59.833 -19 79.5s-35 29.5 -67 29.5zM624 784.998l61 -75l-157 -133l-47 53zM434 785.998l62 -75l-158 -132l-46 52z" />
    <glyph glyph-name="OE" unicode="&#x152;" horiz-adv-x="968" 
d="M538 0c-15.333 -2.66699 -32.1689 -4.66504 -50.502 -5.99805s-37.166 -2 -56.499 -2c-45.333 0 -87 5.16699 -125 15.5s-70.667 26.666 -98 48.999s-48.666 51 -63.999 86s-23 76.833 -23 125.5c0 62.667 10.333 120.5 31 173.5s50.667 98.667 90 137
s88 68.166 146 89.499s124.333 32 199 32c17.333 0 33.833 -0.5 49.5 -1.5s34.167 -2.83301 55.5 -5.5h378l-26 -106h-291l-41 -173h256l-25 -103h-256l-49 -205h314l-25 -106h-389zM559.997 594.002c-50 0 -94.1689 -8.83398 -132.502 -26.501
s-70.666 -41.167 -96.999 -70.5s-46.166 -63.5 -59.499 -102.5s-20 -79.5 -20 -121.5c0 -26 3.66699 -49.667 11 -71s18.666 -39.666 33.999 -54.999s34.833 -27.333 58.5 -36s51.834 -13 84.501 -13c13.333 0 26.5 0.5 39.5 1.5s24.833 2.16699 35.5 3.5l116 486
c-5.33301 1.33301 -14.5 2.5 -27.5 3.5s-27.167 1.5 -42.5 1.5z" />
    <glyph glyph-name="oe" unicode="&#x153;" horiz-adv-x="874" 
d="M288 -14c-62 0 -109.331 18.3311 -141.998 54.998s-49 85 -49 145c0 38.667 6 78.667 18 120s30.333 79 55 113s55.667 62 93 84s81.333 33 132 33c38 0 70.167 -8.5 96.5 -25.5s47.166 -39.5 62.499 -67.5c26 28 56 50.5 90 67.5s71.667 25.5 113 25.5
c50.667 0 90 -13 118 -39s42 -59.333 42 -100c0 -42 -10.333 -76 -31 -102s-47.5 -46.333 -80.5 -61s-70.333 -24.667 -112 -30s-83.834 -8.66602 -126.501 -9.99902c-0.666992 -4 -1 -8.66699 -1 -14c0 -60.667 38.333 -91 115 -91c45.333 0 90.666 9.33301 135.999 28
l10 -98c-16 -7.33301 -38.667 -14.666 -68 -21.999s-62.666 -11 -99.999 -11c-44 0 -80.333 8.5 -109 25.5s-50.667 39.167 -66 66.5c-24 -26 -52.167 -47.833 -84.5 -65.5s-69.5 -26.5 -111.5 -26.5zM380.002 433.998c-26 0 -49.167 -7.50098 -69.5 -22.501
s-37.333 -34.167 -51 -57.5s-24.167 -48.833 -31.5 -76.5s-11 -54.5 -11 -80.5c0 -33.333 6.33301 -59.666 19 -78.999s35 -29 67 -29c26 0 49.167 7.5 69.5 22.5s37.333 34 51 57s24.167 48.5 31.5 76.5s11 54.667 11 80c0 33.333 -6.33301 59.833 -19 79.5
s-35 29.5 -67 29.5zM739.002 436.997c-20 0 -39 -4.00098 -57 -12.001s-34 -19 -48 -33s-26.167 -30.5 -36.5 -49.5s-17.833 -39.5 -22.5 -61.5c80 2.66699 138.167 12.334 174.5 29.001s54.5 41.667 54.5 75c0 13.333 -4.83301 25.333 -14.5 36s-26.5 16 -50.5 16z" />
    <glyph glyph-name="Racute" unicode="&#x154;" horiz-adv-x="624" 
d="M429 700c82.667 0 145.5 -17.167 188.5 -51.5s64.5 -79.833 64.5 -136.5c0 -25.333 -3.5 -49.5 -10.5 -72.5s-18 -44.333 -33 -64s-34.333 -37.167 -58 -52.5s-52.167 -28 -85.5 -38c8.66699 -15.333 18 -33.833 28 -55.5l31 -70c10.667 -25 21 -51.167 31 -78.5
s19 -54.333 27 -81h-133l-25 73c-8.66699 24.667 -17.667 48.5 -27 71.5s-18.833 44.667 -28.5 65s-19.167 38.5 -28.5 54.5c-6 -0.666992 -13.333 -1 -22 -1h-23h-58l-63 -263h-126l163 683c32 6.66699 64.5 11.167 97.5 13.5s63.167 3.5 90.5 3.5zM554 498
c0 36.667 -13.3291 61.833 -39.9961 75.5s-62.334 20.5 -107.001 20.5c-9.33301 0 -19.333 -0.333008 -30 -1s-21.334 -1.66699 -32.001 -3l-54 -226h56c30 0 57.667 2.5 83 7.5s47.166 12.833 65.499 23.5s32.666 24.5 42.999 41.5s15.5 37.5 15.5 61.5zM550.004 953.999
l65 -82l-189 -127l-49 60z" />
    <glyph glyph-name="racute" unicode="&#x155;" horiz-adv-x="399" 
d="M460 416c-13.333 4.66699 -27.666 8.33398 -42.999 11.001s-33.333 4 -54 4c-11.333 0 -23.333 -0.833008 -36 -2.5s-23.334 -3.83398 -32.001 -6.50098l-101 -422h-121l120 499c28 9.33301 58.333 17.5 91 24.5s68 10.5 106 10.5c8 0 17 -0.5 27 -1.5
s19.833 -2.16699 29.5 -3.5s18.667 -3 27 -5s15.5 -4.33301 21.5 -7zM456 792l65 -82l-189 -127l-49 60z" />
    <glyph glyph-name="Rcommaaccent" unicode="&#x156;" horiz-adv-x="624" 
d="M429 700c82.667 0 145.5 -17.167 188.5 -51.5s64.5 -79.833 64.5 -136.5c0 -25.333 -3.5 -49.5 -10.5 -72.5s-18 -44.333 -33 -64s-34.333 -37.167 -58 -52.5s-52.167 -28 -85.5 -38c8.66699 -15.333 18 -33.833 28 -55.5l31 -70c10.667 -25 21 -51.167 31 -78.5
s19 -54.333 27 -81h-133l-25 73c-8.66699 24.667 -17.667 48.5 -27 71.5s-18.833 44.667 -28.5 65s-19.167 38.5 -28.5 54.5c-6 -0.666992 -13.333 -1 -22 -1h-23h-58l-63 -263h-126l163 683c32 6.66699 64.5 11.167 97.5 13.5s63.167 3.5 90.5 3.5zM554 498
c0 36.667 -13.3291 61.833 -39.9961 75.5s-62.334 20.5 -107.001 20.5c-9.33301 0 -19.333 -0.333008 -30 -1s-21.334 -1.66699 -32.001 -3l-54 -226h56c30 0 57.667 2.5 83 7.5s47.166 12.833 65.499 23.5s32.666 24.5 42.999 41.5s15.5 37.5 15.5 61.5zM277.004 -50.001
h102.999c-6.66699 -51.333 -22.667 -89.333 -48 -114s-59.666 -37 -102.999 -37c-8 0 -16.333 0.5 -25 1.5s-16.667 2.5 -24 4.5l18 67c2.66699 -0.666992 5.16699 -1 7.5 -1h6.5c22 0 36.833 6.66699 44.5 20s14.5 33 20.5 59z" />
    <glyph glyph-name="rcommaaccent" unicode="&#x157;" horiz-adv-x="399" 
d="M460 416c-13.333 4.66699 -27.666 8.33398 -42.999 11.001s-33.333 4 -54 4c-11.333 0 -23.333 -0.833008 -36 -2.5s-23.334 -3.83398 -32.001 -6.50098l-101 -422h-121l120 499c28 9.33301 58.333 17.5 91 24.5s68 10.5 106 10.5c8 0 17 -0.5 27 -1.5
s19.833 -2.16699 29.5 -3.5s18.667 -3 27 -5s15.5 -4.33301 21.5 -7zM69 -50h102.999c-6.66699 -51.333 -22.667 -89.333 -48 -114s-59.666 -37 -102.999 -37c-8 0 -16.333 0.5 -25 1.5s-16.667 2.5 -24 4.5l18 67c2.66699 -0.666992 5.16699 -1 7.5 -1h6.5
c22 0 36.833 6.66699 44.5 20s14.5 33 20.5 59z" />
    <glyph glyph-name="Rcaron" unicode="&#x158;" horiz-adv-x="624" 
d="M429 700c82.667 0 145.5 -17.167 188.5 -51.5s64.5 -79.833 64.5 -136.5c0 -25.333 -3.5 -49.5 -10.5 -72.5s-18 -44.333 -33 -64s-34.333 -37.167 -58 -52.5s-52.167 -28 -85.5 -38c8.66699 -15.333 18 -33.833 28 -55.5l31 -70c10.667 -25 21 -51.167 31 -78.5
s19 -54.333 27 -81h-133l-25 73c-8.66699 24.667 -17.667 48.5 -27 71.5s-18.833 44.667 -28.5 65s-19.167 38.5 -28.5 54.5c-6 -0.666992 -13.333 -1 -22 -1h-23h-58l-63 -263h-126l163 683c32 6.66699 64.5 11.167 97.5 13.5s63.167 3.5 90.5 3.5zM554 498
c0 36.667 -13.3291 61.833 -39.9961 75.5s-62.334 20.5 -107.001 20.5c-9.33301 0 -19.333 -0.333008 -30 -1s-21.334 -1.66699 -32.001 -3l-54 -226h56c30 0 57.667 2.5 83 7.5s47.166 12.833 65.499 23.5s32.666 24.5 42.999 41.5s15.5 37.5 15.5 61.5zM460.004 741.999
l-114 159l52 47l80 -88l119 86l39 -53z" />
    <glyph glyph-name="rcaron" unicode="&#x159;" horiz-adv-x="399" 
d="M460 416c-13.333 4.66699 -27.666 8.33398 -42.999 11.001s-33.333 4 -54 4c-11.333 0 -23.333 -0.833008 -36 -2.5s-23.334 -3.83398 -32.001 -6.50098l-101 -422h-121l120 499c28 9.33301 58.333 17.5 91 24.5s68 10.5 106 10.5c8 0 17 -0.5 27 -1.5
s19.833 -2.16699 29.5 -3.5s18.667 -3 27 -5s15.5 -4.33301 21.5 -7zM372 584l-114 159l52 47l80 -88l119 86l39 -53z" />
    <glyph glyph-name="Sacute" unicode="&#x15a;" horiz-adv-x="527" 
d="M255 92c18 0 35.8281 1.66113 53.4951 4.99414s33.667 9 48 17s25.833 18.833 34.5 32.5s13 30.834 13 51.501c0 15.333 -3.33301 28.5 -10 39.5s-15.667 20.833 -27 29.5s-24.166 16.834 -38.499 24.501l-45.5 24.5c-17.333 8.66699 -33.833 18.5 -49.5 29.5
s-29.5 23.5 -41.5 37.5s-21.5 30.333 -28.5 49s-10.5 40.667 -10.5 66c0 30.667 5.83301 58.834 17.5 84.501s29 47.834 52 66.501s51.333 33.334 85 44.001s72.834 16 117.501 16c20.667 0 40.5 -1.66699 59.5 -5s36.833 -7.5 53.5 -12.5s31.334 -10.5 44.001 -16.5
s22.667 -11.667 30 -17l-55 -96c-14 11.333 -33.5 21 -58.5 29s-52.5 12 -82.5 12c-18 0 -35.167 -1.83301 -51.5 -5.5s-30.666 -9.33398 -42.999 -17.001s-22 -17.667 -29 -30s-10.5 -26.833 -10.5 -43.5c0 -15.333 2.5 -28 7.5 -38s12 -18.833 21 -26.5
s19.5 -14.667 31.5 -21l39 -21.5c20.667 -11.333 40.167 -22.666 58.5 -33.999s34.5 -24.333 48.5 -39s25.167 -31.5 33.5 -50.5s12.5 -41.833 12.5 -68.5c0 -37.333 -7 -70 -21 -98s-33.667 -51.167 -59 -69.5s-55.333 -32.166 -90 -41.499s-72.667 -14 -114 -14
c-27.333 0 -52.5 2 -75.5 6s-43.5 9 -61.5 15s-33.5 12.333 -46.5 19s-23.167 12.667 -30.5 18l56 99c6.66699 -4.66699 15.5 -10 26.5 -16s23.5 -11.5 37.5 -16.5s29.333 -9.16699 46 -12.5s34.334 -5 53.001 -5zM511.995 953.994l65 -82l-189 -127l-49 60z" />
    <glyph glyph-name="sacute" unicode="&#x15b;" horiz-adv-x="438" 
d="M224 85c32 0 57.3369 5.1709 76.0039 15.5039s28 26.166 28 47.499c0 17.333 -6 31.166 -18 41.499s-33 22.5 -63 36.5c-16 7.33301 -30.833 15 -44.5 23s-25.5 17.333 -35.5 28s-18 23.167 -24 37.5s-9 31.5 -9 51.5c0 52 19 93.333 57 124s93 46 165 46
c33.333 0 63.166 -3.5 89.499 -10.5s46.166 -14.167 59.499 -21.5l-43 -94c-11.333 6.66699 -27.666 13.167 -48.999 19.5s-43.666 9.5 -66.999 9.5c-11.333 0 -22.5 -1 -33.5 -3s-20.833 -5.33301 -29.5 -10s-15.834 -11.167 -21.501 -19.5s-8.5 -18.5 -8.5 -30.5
c0 -15.333 6.16699 -27.833 18.5 -37.5s30.166 -19.834 53.499 -30.501c22 -10 40.667 -19.667 56 -29s28 -19.833 38 -31.5s17.333 -24.667 22 -39s7 -31.5 7 -51.5c0 -24.667 -5 -47.5 -15 -68.5s-24.5 -39 -43.5 -54s-42.5 -26.833 -70.5 -35.5s-60 -13 -96 -13
c-24.667 0 -46.834 1.66699 -66.501 5s-36.834 7.16602 -51.501 11.499s-27 8.83301 -37 13.5s-17.667 8.66699 -23 12l43 95c4.66699 -2.66699 11.5 -6.16699 20.5 -10.5s19.333 -8.5 31 -12.5s24.667 -7.5 39 -10.5s29.5 -4.5 45.5 -4.5zM456.004 792.004l65 -82
l-189 -127l-49 60z" />
    <glyph glyph-name="Scircumflex" unicode="&#x15c;" horiz-adv-x="527" 
d="M255 92c18 0 35.8281 1.66113 53.4951 4.99414s33.667 9 48 17s25.833 18.833 34.5 32.5s13 30.834 13 51.501c0 15.333 -3.33301 28.5 -10 39.5s-15.667 20.833 -27 29.5s-24.166 16.834 -38.499 24.501l-45.5 24.5c-17.333 8.66699 -33.833 18.5 -49.5 29.5
s-29.5 23.5 -41.5 37.5s-21.5 30.333 -28.5 49s-10.5 40.667 -10.5 66c0 30.667 5.83301 58.834 17.5 84.501s29 47.834 52 66.501s51.333 33.334 85 44.001s72.834 16 117.501 16c20.667 0 40.5 -1.66699 59.5 -5s36.833 -7.5 53.5 -12.5s31.334 -10.5 44.001 -16.5
s22.667 -11.667 30 -17l-55 -96c-14 11.333 -33.5 21 -58.5 29s-52.5 12 -82.5 12c-18 0 -35.167 -1.83301 -51.5 -5.5s-30.666 -9.33398 -42.999 -17.001s-22 -17.667 -29 -30s-10.5 -26.833 -10.5 -43.5c0 -15.333 2.5 -28 7.5 -38s12 -18.833 21 -26.5
s19.5 -14.667 31.5 -21l39 -21.5c20.667 -11.333 40.167 -22.666 58.5 -33.999s34.5 -24.333 48.5 -39s25.167 -31.5 33.5 -50.5s12.5 -41.833 12.5 -68.5c0 -37.333 -7 -70 -21 -98s-33.667 -51.167 -59 -69.5s-55.333 -32.166 -90 -41.499s-72.667 -14 -114 -14
c-27.333 0 -52.5 2 -75.5 6s-43.5 9 -61.5 15s-33.5 12.333 -46.5 19s-23.167 12.667 -30.5 18l56 99c6.66699 -4.66699 15.5 -10 26.5 -16s23.5 -11.5 37.5 -16.5s29.333 -9.16699 46 -12.5s34.334 -5 53.001 -5zM472.995 944.994l114 -159l-52 -47l-81 88l-118 -86l-40 53
z" />
    <glyph glyph-name="scircumflex" unicode="&#x15d;" horiz-adv-x="438" 
d="M224 85c32 0 57.3369 5.1709 76.0039 15.5039s28 26.166 28 47.499c0 17.333 -6 31.166 -18 41.499s-33 22.5 -63 36.5c-16 7.33301 -30.833 15 -44.5 23s-25.5 17.333 -35.5 28s-18 23.167 -24 37.5s-9 31.5 -9 51.5c0 52 19 93.333 57 124s93 46 165 46
c33.333 0 63.166 -3.5 89.499 -10.5s46.166 -14.167 59.499 -21.5l-43 -94c-11.333 6.66699 -27.666 13.167 -48.999 19.5s-43.666 9.5 -66.999 9.5c-11.333 0 -22.5 -1 -33.5 -3s-20.833 -5.33301 -29.5 -10s-15.834 -11.167 -21.501 -19.5s-8.5 -18.5 -8.5 -30.5
c0 -15.333 6.16699 -27.833 18.5 -37.5s30.166 -19.834 53.499 -30.501c22 -10 40.667 -19.667 56 -29s28 -19.833 38 -31.5s17.333 -24.667 22 -39s7 -31.5 7 -51.5c0 -24.667 -5 -47.5 -15 -68.5s-24.5 -39 -43.5 -54s-42.5 -26.833 -70.5 -35.5s-60 -13 -96 -13
c-24.667 0 -46.834 1.66699 -66.501 5s-36.834 7.16602 -51.501 11.499s-27 8.83301 -37 13.5s-17.667 8.66699 -23 12l43 95c4.66699 -2.66699 11.5 -6.16699 20.5 -10.5s19.333 -8.5 31 -12.5s24.667 -7.5 39 -10.5s29.5 -4.5 45.5 -4.5zM407.004 784.004l114 -159
l-52 -47l-81 88l-118 -86l-40 53z" />
    <glyph glyph-name="Scedilla" unicode="&#x15e;" horiz-adv-x="527" 
d="M261 -41c28 -14 41.9961 -35.3389 41.9961 -64.0059c0 -17.333 -3.33301 -32.166 -10 -44.499s-15.834 -22.666 -27.501 -30.999s-25.167 -14.5 -40.5 -18.5s-31.666 -6 -48.999 -6c-36.667 0 -67 6.33301 -91 19l30 68c7.33301 -3.33301 15.833 -6.16602 25.5 -8.49902
s20.167 -3.5 31.5 -3.5c12 0 21.5 2 28.5 6s10.5 10 10.5 18s-2.5 14.167 -7.5 18.5s-13.167 9.16602 -24.5 14.499l-13 6c4 7.33301 9.5 15.833 16.5 25.5l20.5 28.5c-43.333 5.33301 -78.833 13.666 -106.5 24.999s-47.834 21.666 -60.501 30.999l56 99
c6.66699 -4.66699 15.5 -10 26.5 -16s23.5 -11.5 37.5 -16.5s29.333 -9.16699 46 -12.5s34.334 -5 53.001 -5c18 0 35.833 1.66699 53.5 5s33.667 9 48 17s25.833 18.833 34.5 32.5s13 30.834 13 51.501c0 15.333 -3.33301 28.5 -10 39.5s-15.667 20.833 -27 29.5
s-24.166 16.834 -38.499 24.501l-45.5 24.5c-17.333 8.66699 -33.833 18.5 -49.5 29.5s-29.5 23.5 -41.5 37.5s-21.5 30.333 -28.5 49s-10.5 40.667 -10.5 66c0 30.667 5.83301 58.834 17.5 84.501s29 47.834 52 66.501s51.333 33.334 85 44.001s72.834 16 117.501 16
c20.667 0 40.5 -1.66699 59.5 -5s36.833 -7.5 53.5 -12.5s31.334 -10.5 44.001 -16.5s22.667 -11.667 30 -17l-55 -96c-14 11.333 -33.5 21 -58.5 29s-52.5 12 -82.5 12c-18 0 -35.167 -1.83301 -51.5 -5.5s-30.666 -9.33398 -42.999 -17.001s-22 -17.667 -29 -30
s-10.5 -26.833 -10.5 -43.5c0 -15.333 2.5 -28 7.5 -38s12 -18.833 21 -26.5s19.5 -14.667 31.5 -21l39 -21.5c20.667 -11.333 40.167 -22.666 58.5 -33.999s34.5 -24.333 48.5 -39s25.167 -31.5 33.5 -50.5s12.5 -41.833 12.5 -68.5c0 -35.333 -6.16699 -66.333 -18.5 -93
s-29.833 -49.167 -52.5 -67.5s-49.5 -32.666 -80.5 -42.999s-65.167 -16.5 -102.5 -18.5c-3.33301 -5.33301 -6.83301 -10.333 -10.5 -15s-6.5 -8.66699 -8.5 -12z" />
    </font>
</defs>
</svg>
