<?xml version="1.0" standalone="no"?>
<!DOCTYPE svg PUBLIC "-//W3C//DTD SVG 1.1//EN" "http://www.w3.org/Graphics/SVG/1.1/DTD/svg11.dtd" >
<svg>
<metadata>
Created by FontForge 20090914 at Tue Oct  1 18:21:19 2013
 By www-data
Copyright 2011 Canonical Ltd.  Licensed under the Ubuntu Font Licence 1.0
</metadata>
<defs>
<font id="Ubuntu-LightItalic" horiz-adv-x="522" >
  <font-face 
    font-family="Ubuntu Light"
    font-weight="300"
    font-style="italic"
    font-stretch="normal"
    units-per-em="1000"
    panose-1="2 11 3 4 3 6 2 10 2 4"
    ascent="800"
    descent="-200"
    x-height="517"
    cap-height="693"
    bbox="-140 -195 3591 958"
    underline-thickness="20"
    underline-position="-113"
    slope="-13"
    unicode-range="U+0008-U+FB04"
  />
<missing-glyph horiz-adv-x="500" 
d="M50 0v750h400v-750h-400zM400 50v650h-300v-650h300z" />
    <glyph glyph-name="f_f" unicode="ff" horiz-adv-x="674" 
d="M171 102c-8 -32 -15.835 -61.498 -23.502 -88.498s-16.334 -52.167 -26.001 -75.5s-20.834 -45.333 -33.501 -66s-27.667 -41 -45 -61l-57 9c16.667 22.667 30.834 43.5 42.501 62.5s21.5 37.833 29.5 56.5s15 37.5 21 56.5s11.667 39.833 17 62.5l124 515
c9.33301 40 21.833 73 37.5 99s33.334 46.667 53.001 62s40.834 26.166 63.501 32.499s45.667 9.5 69 9.5c15.333 0 28.833 -0.833008 40.5 -2.5s22.834 -4.16699 33.501 -7.5l-20 -56c-10 3.33301 -20 5.66602 -30 6.99902s-21.333 2 -34 2
c-17.333 0 -33.333 -2.33301 -48 -7s-28.167 -12.667 -40.5 -24s-23.5 -26.5 -33.5 -45.5s-18.667 -42.833 -26 -71.5l-14 -54h173l-12 -56h-175zM489.998 102.002c-8 -32 -15.834 -61.5 -23.501 -88.5s-16.334 -52.167 -26.001 -75.5s-20.834 -45.333 -33.501 -66
s-27.667 -41 -45 -61l-57 9c16.667 22.667 30.834 43.5 42.501 62.5s21.5 37.833 29.5 56.5s15 37.5 21 56.5s11.667 39.833 17 62.5l124 515c9.33301 40 21.833 73 37.5 99s33.334 46.667 53.001 62s40.834 26.166 63.501 32.499s45.667 9.5 69 9.5
c22.667 0 42.167 -2 58.5 -6s31.5 -8.66699 45.5 -14l-31 -52c-14 4.66699 -27.167 8.33398 -39.5 11.001s-26.833 4 -43.5 4c-17.333 0 -33.333 -2.33301 -48 -7s-28.167 -12.667 -40.5 -24s-23.5 -26.5 -33.5 -45.5s-18.667 -42.833 -26 -71.5l-14 -54h173l-12 -56h-175z
" />
    <glyph glyph-name="f_i" unicode="fi" horiz-adv-x="566" 
d="M539 517h65l-125 -517h-65zM565 668c0 17.333 4.83496 30.498 14.502 39.498s20.167 13.5 31.5 13.5c13.333 0 23.666 -4.16699 30.999 -12.5s11 -19.166 11 -32.499c0 -16 -5.33301 -28.333 -16 -37s-21.334 -13 -32.001 -13c-13.333 0 -23.333 3.83301 -30 11.5
s-10 17.834 -10 30.501zM171.002 101.998c-8 -32 -15.835 -61.498 -23.502 -88.498s-16.334 -52.167 -26.001 -75.5s-20.834 -45.333 -33.501 -66s-27.667 -41 -45 -61l-57 9c16.667 22.667 30.834 43.5 42.501 62.5s21.5 37.833 29.5 56.5s15 37.5 21 56.5
s11.667 39.833 17 62.5l124 515c9.33301 40 21.833 73 37.5 99s33.334 46.667 53.001 62s40.834 26.166 63.501 32.499s45.667 9.5 69 9.5c15.333 0 28.833 -0.833008 40.5 -2.5s22.834 -4.16699 33.501 -7.5l-20 -56c-10 3.33301 -20 5.66602 -30 6.99902s-21.333 2 -34 2
c-17.333 0 -33.333 -2.33301 -48 -7s-28.167 -12.667 -40.5 -24s-23.5 -26.5 -33.5 -45.5s-18.667 -42.833 -26 -71.5l-14 -54h173l-12 -56h-175z" />
    <glyph glyph-name="f_l" unicode="fl" horiz-adv-x="614" 
d="M599 764l66.999 11.999l-124 -521l-15.5 -64.5c-5 -20.333 -7.5 -39.166 -7.5 -56.499c0 -10.667 1 -20.5 3 -29.5s6 -17 12 -24s14.5 -13.167 25.5 -18.5s25.167 -10 42.5 -14l-15 -57c-48.667 6 -82.667 20.833 -102 44.5s-29 53.5 -29 89.5
c0 16 1.33301 32.833 4 50.5s6.33398 36.167 11.001 55.5zM170.999 101.999c-8 -32 -15.835 -61.498 -23.502 -88.498s-16.334 -52.167 -26.001 -75.5s-20.834 -45.333 -33.501 -66s-27.667 -41 -45 -61l-57 9c16.667 22.667 30.834 43.5 42.501 62.5s21.5 37.833 29.5 56.5
s15 37.5 21 56.5s11.667 39.833 17 62.5l124 515c9.33301 40 21.833 73 37.5 99s33.334 46.667 53.001 62s40.834 26.166 63.501 32.499s45.667 9.5 69 9.5c15.333 0 28.833 -0.833008 40.5 -2.5s22.834 -4.16699 33.501 -7.5l-20 -56c-10 3.33301 -20 5.66602 -30 6.99902
s-21.333 2 -34 2c-17.333 0 -33.333 -2.33301 -48 -7s-28.167 -12.667 -40.5 -24s-23.5 -26.5 -33.5 -45.5s-18.667 -42.833 -26 -71.5l-14 -54h173l-12 -56h-175z" />
    <glyph glyph-name="f_f_i" unicode="ffi" horiz-adv-x="885" 
d="M490 102c-8 -32 -15.835 -61.498 -23.502 -88.498s-16.334 -52.167 -26.001 -75.5s-20.834 -45.333 -33.501 -66s-27.667 -41 -45 -61l-57 9c16.667 22.667 30.834 43.5 42.501 62.5s21.5 37.833 29.5 56.5s15 37.5 21 56.5s11.667 39.833 17 62.5l124 515
c9.33301 40 21.833 73 37.5 99s33.334 46.667 53.001 62s40.834 26.166 63.501 32.499s45.667 9.5 69 9.5c15.333 0 28.833 -0.833008 40.5 -2.5s22.834 -4.16699 33.501 -7.5l-20 -56c-10 3.33301 -20 5.66602 -30 6.99902s-21.333 2 -34 2
c-17.333 0 -33.333 -2.33301 -48 -7s-28.167 -12.667 -40.5 -24s-23.5 -26.5 -33.5 -45.5s-18.667 -42.833 -26 -71.5l-14 -54h173l-12 -56h-175zM857.998 517.002h65l-125 -517h-65zM883.998 668.002c0 17.333 4.83496 30.498 14.502 39.498s20.167 13.5 31.5 13.5
c13.333 0 23.666 -4.16699 30.999 -12.5s11 -19.166 11 -32.499c0 -16 -5.33301 -28.333 -16 -37s-21.334 -13 -32.001 -13c-13.333 0 -23.333 3.83301 -30 11.5s-10 17.834 -10 30.501zM220 573c9.33301 40 21.8311 73.002 37.498 99.002s33.334 46.667 53.001 62
s40.834 26.166 63.501 32.499s45.667 9.5 69 9.5c15.333 0 28.833 -0.833008 40.5 -2.5s22.834 -4.16699 33.501 -7.5l-20 -56c-10 3.33301 -20 5.66602 -30 6.99902s-21.333 2 -34 2c-17.333 0 -33.333 -2.33301 -48 -7s-28.167 -12.667 -40.5 -24s-23.5 -26.5 -33.5 -45.5
s-18.667 -42.833 -26 -71.5l-14 -54h173l-12 -56h-175l-86 -359c-8 -32 -15.833 -61.5 -23.5 -88.5s-16.334 -52.167 -26.001 -75.5s-20.834 -45.333 -33.501 -66s-27.667 -41 -45 -61l-57 9c16.667 22.667 30.834 43.5 42.501 62.5s21.5 37.833 29.5 56.5s15 37.5 21 56.5
s11.667 39.833 17 62.5z" />
    <glyph glyph-name="f_f_l" unicode="ffl" horiz-adv-x="934" 
d="M919 764l66.999 11.999l-124 -521l-15.5 -64.5c-5 -20.333 -7.5 -39.166 -7.5 -56.499c0 -10.667 1 -20.5 3 -29.5s6 -17 12 -24s14.5 -13.167 25.5 -18.5s25.167 -10 42.5 -14l-15 -57c-48.667 6 -82.667 20.833 -102 44.5s-29 53.5 -29 89.5
c0 16 1.33301 32.833 4 50.5s6.33398 36.167 11.001 55.5zM489.999 101.999c-8 -32 -15.835 -61.498 -23.502 -88.498s-16.334 -52.167 -26.001 -75.5s-20.834 -45.333 -33.501 -66s-27.667 -41 -45 -61l-57 9c16.667 22.667 30.834 43.5 42.501 62.5s21.5 37.833 29.5 56.5
s15 37.5 21 56.5s11.667 39.833 17 62.5l124 515c9.33301 40 21.833 73 37.5 99s33.334 46.667 53.001 62s40.834 26.166 63.501 32.499s45.667 9.5 69 9.5c15.333 0 28.833 -0.833008 40.5 -2.5s22.834 -4.16699 33.501 -7.5l-20 -56c-10 3.33301 -20 5.66602 -30 6.99902
s-21.333 2 -34 2c-17.333 0 -33.333 -2.33301 -48 -7s-28.167 -12.667 -40.5 -24s-23.5 -26.5 -33.5 -45.5s-18.667 -42.833 -26 -71.5l-14 -54h173l-12 -56h-175zM219.997 573.001c9.33301 40 21.8311 73.002 37.498 99.002s33.334 46.667 53.001 62
s40.834 26.166 63.501 32.499s45.667 9.5 69 9.5c15.333 0 28.833 -0.833008 40.5 -2.5s22.834 -4.16699 33.501 -7.5l-20 -56c-10 3.33301 -20 5.66602 -30 6.99902s-21.333 2 -34 2c-17.333 0 -33.333 -2.33301 -48 -7s-28.167 -12.667 -40.5 -24s-23.5 -26.5 -33.5 -45.5
s-18.667 -42.833 -26 -71.5l-14 -54h173l-12 -56h-175l-86 -359c-8 -32 -15.833 -61.5 -23.5 -88.5s-16.334 -52.167 -26.001 -75.5s-20.834 -45.333 -33.501 -66s-27.667 -41 -45 -61l-57 9c16.667 22.667 30.834 43.5 42.501 62.5s21.5 37.833 29.5 56.5s15 37.5 21 56.5
s11.667 39.833 17 62.5z" />
    <glyph glyph-name=".notdef" horiz-adv-x="500" 
d="M50 0v750h400v-750h-400zM400 50v650h-300v-650h300z" />
    <glyph glyph-name=".null" horiz-adv-x="0" 
 />
    <glyph glyph-name=".null" horiz-adv-x="0" 
 />
    <glyph glyph-name=".null" horiz-adv-x="0" 
 />
    <glyph glyph-name="nonmarkingreturn" unicode="&#x9;" horiz-adv-x="232" 
 />
    <glyph glyph-name="nonmarkingreturn" unicode="&#xd;" horiz-adv-x="232" 
 />
    <glyph glyph-name="space" unicode=" " horiz-adv-x="232" 
 />
    <glyph glyph-name="exclam" unicode="!" horiz-adv-x="226" 
d="M147 213c5.33301 44 11.6689 88.667 19.002 134s17.666 96.333 30.999 153l46 193h70l-46 -194c-2.66699 -11.333 -7.33398 -29.333 -14.001 -54l-22.5 -80l-25 -85c-8.33301 -28 -15.833 -50.333 -22.5 -67h-36zM123.003 -12c-17.333 0 -30 4.83301 -38 14.5
s-12 20.834 -12 33.501c0 14.667 5 28.5 15 41.5s24 19.5 42 19.5c17.333 0 30 -4.83301 38 -14.5s12 -20.834 12 -33.501c0 -14.667 -5 -28.5 -15 -41.5s-24 -19.5 -42 -19.5z" />
    <glyph glyph-name="quotedbl" unicode="&#x22;" horiz-adv-x="356" 
d="M348 518c2.66699 34 6.33203 68.166 10.999 102.499s11.334 68.5 20.001 102.5l9 37h70l-9 -38c-8.66699 -33.333 -18.667 -67.666 -30 -102.999s-24 -69 -38 -101h-33zM197.998 517.999c2.66699 34 6.33203 68.166 10.999 102.499s11.334 68.5 20.001 102.5l9 37h70
l-9 -38c-8.66699 -33.333 -18.667 -67.666 -30 -102.999s-24 -69 -38 -101h-33z" />
    <glyph glyph-name="numbersign" unicode="#" horiz-adv-x="623" 
d="M609 503h86l-14 -54h-95l-88 -206h135l-14 -54h-144l-81 -189h-62l81 189h-175l-81 -189h-62l81 189h-88l13 54h99l89 206h-139l13 54h149l82 190h62l-82 -190h173l82 190h62zM262 243h174l88 206h-174z" />
    <glyph glyph-name="dollar" unicode="$" horiz-adv-x="564" 
d="M258 25c-15.333 -0.666992 -31.1641 0.495117 -47.4971 3.49512s-32 6.66699 -47 11s-28.333 9 -40 14s-20.167 9.5 -25.5 13.5l32 54c5.33301 -3.33301 12.333 -7.33301 21 -12s19.334 -9.33398 32.001 -14.001s27 -8.5 43 -11.5s33.667 -4.5 53 -4.5
c22 0 44 2.33301 66 7s41.5 12.167 58.5 22.5s30.833 24 41.5 41s16 37.5 16 61.5c0 22 -5.83301 39.833 -17.5 53.5s-26.334 25.5 -44.001 35.5s-36.834 19.333 -57.501 28s-39.834 19.334 -57.501 32.001s-32.334 28.334 -44.001 47.001s-17.5 43.334 -17.5 74.001
c0 50 16.333 90 49 120s78.667 49 138 57l28 118h60l-27 -113c30.667 -1.33301 57.667 -6.33301 81 -15s40.666 -16.667 51.999 -24l-32 -55c-8 5.33301 -22.333 12.166 -43 20.499s-49 12.5 -85 12.5c-22 0 -42.5 -2.16699 -61.5 -6.5s-35.833 -11 -50.5 -20
s-26.167 -20.667 -34.5 -35s-12.5 -31.166 -12.5 -50.499c0 -22.667 6 -41 18 -55s26.833 -26.167 44.5 -36.5s36.834 -20 57.501 -29s39.834 -19.667 57.501 -32s32.5 -28 44.5 -47s18 -43.167 18 -72.5c0 -28 -5 -53.167 -15 -75.5s-24.167 -41.666 -42.5 -57.999
s-40.333 -29.666 -66 -39.999s-53.834 -17.166 -84.501 -20.499l-32 -133h-59z" />
    <glyph glyph-name="percent" unicode="%" horiz-adv-x="785" 
d="M275 400c24 0 44.168 6.33203 60.501 18.999s29.666 27.834 39.999 45.501s17.833 36 22.5 55s7 35.167 7 48.5c0 12.667 -0.666992 24.334 -2 35.001s-4.33301 20 -9 28s-11 14.167 -19 18.5s-19 6.5 -33 6.5c-24 0 -44.167 -6.33301 -60.5 -19
s-29.5 -27.834 -39.5 -45.501s-17.167 -36.167 -21.5 -55.5s-6.5 -35.333 -6.5 -48c0 -12 0.666992 -23.333 2 -34s4 -20 8 -28s10 -14.333 18 -19s19 -7 33 -7zM709.001 692.999h70l-548 -693h-70zM158.001 479.999c0 23.333 3.83398 48.334 11.501 75.001
s19.167 51.167 34.5 73.5s34.666 41 57.999 56s51 22.5 83 22.5c38 0 66.833 -11.167 86.5 -33.5s29.5 -54.5 29.5 -96.5c0 -23.333 -3.83301 -48.333 -11.5 -75s-19.167 -51.334 -34.5 -74.001s-34.833 -41.5 -58.5 -56.5s-51.5 -22.5 -83.5 -22.5
c-38 0 -66.667 11.333 -86 34s-29 55 -29 97zM601.002 36c24 0 44.168 6.33203 60.501 18.999s29.666 27.834 39.999 45.501s17.833 36 22.5 55s7 35.167 7 48.5c0 12.667 -0.666992 24.334 -2 35.001s-4.33301 20 -9 28s-11 14.167 -19 18.5s-19 6.5 -33 6.5
c-24 0 -44.167 -6.33301 -60.5 -19s-29.5 -27.834 -39.5 -45.501s-17.167 -36.167 -21.5 -55.5s-6.5 -35.333 -6.5 -48c0 -12 0.666992 -23.333 2 -34s4 -20 8 -28s10 -14.333 18 -19s19 -7 33 -7zM484.003 115.999c0 23.333 3.83398 48.334 11.501 75.001
s19.167 51.167 34.5 73.5s34.666 41 57.999 56s51 22.5 83 22.5c38 0 66.833 -11.167 86.5 -33.5s29.5 -54.5 29.5 -96.5c0 -23.333 -3.83301 -48.333 -11.5 -75s-19.167 -51.334 -34.5 -74.001s-34.833 -41.5 -58.5 -56.5s-51.5 -22.5 -83.5 -22.5
c-38 0 -66.667 11.333 -86 34s-29 55 -29 97z" />
    <glyph glyph-name="ampersand" unicode="&#x26;" horiz-adv-x="634" 
d="M555 0c-5.33301 15.333 -12.3311 30.3301 -20.998 44.9971s-18.334 29.667 -29.001 45c-34.667 -32 -71.834 -56.5 -111.501 -73.5s-80.5 -25.5 -122.5 -25.5c-28 0 -52.667 4.5 -74 13.5s-39.333 21 -54 36s-25.834 32.5 -33.501 52.5s-11.5 41.333 -11.5 64
c0 21.333 3.16699 41.833 9.5 61.5s17 38.834 32 57.501s35 36.5 60 53.5s55.833 33.5 92.5 49.5c-15.333 23.333 -26.666 46.833 -33.999 70.5s-11 46.834 -11 69.501c0 26 4.66699 50.5 14 73.5s22.5 43 39.5 60s37.667 30.5 62 40.5s51.5 15 81.5 15
c20 0 38.167 -3.33301 54.5 -10s30.5 -15.667 42.5 -27s21.167 -24.833 27.5 -40.5s9.5 -32.5 9.5 -50.5c0 -17.333 -2.5 -34.833 -7.5 -52.5s-14.333 -35.334 -28 -53.001s-32.667 -35.5 -57 -53.5s-55.833 -36.333 -94.5 -55l-9 -5l131 -180
c15.333 19.333 30 40.833 44 64.5s27 49.834 39 78.501l60 -7c-13.333 -36 -29.333 -69.167 -48 -99.5s-38.667 -58.166 -60 -83.499c14.667 -21.333 28.167 -42.5 40.5 -63.5s23.833 -44.5 34.5 -70.5h-68zM276.002 50.9971c32 0 64.6699 6.99707 98.0029 20.9971
s65.666 35.333 96.999 64l-147 199l-55.5 -28c-19 -10 -36.333 -21.667 -52 -35s-28.334 -28.666 -38.001 -45.999s-14.5 -37.666 -14.5 -60.999c0 -13.333 1.83301 -26.666 5.5 -39.999s9.66699 -25.5 18 -36.5s19.666 -20 33.999 -27s32.5 -10.5 54.5 -10.5z
M310.005 526.994c0 -20.667 3.49805 -41.833 10.498 -63.5s17.167 -41.834 30.5 -60.501c35.333 15.333 63.833 30.333 85.5 45s38.334 29.167 50.001 43.5s19.5 28.5 23.5 42.5s6 27.667 6 41c0 25.333 -7.66699 44.5 -23 57.5s-33.666 19.5 -54.999 19.5
c-22 0 -41 -3.33301 -57 -10s-29.333 -15.667 -40 -27s-18.5 -24.666 -23.5 -39.999s-7.5 -31.333 -7.5 -48z" />
    <glyph glyph-name="quotesingle" unicode="'" horiz-adv-x="206" 
d="M198 518c2.66699 34 6.33203 68.166 10.999 102.499s11.334 68.5 20.001 102.5l9 37h70l-9 -38c-8.66699 -33.333 -18.667 -67.666 -30 -102.999s-24 -69 -38 -101h-33z" />
    <glyph glyph-name="parenleft" unicode="(" horiz-adv-x="302" 
d="M193 -179c-21.333 50.667 -37.5 101.172 -48.5 151.505s-16.5 102.166 -16.5 155.499c0 59.333 6.5 118.666 19.5 177.999s32.333 117.166 58 173.499s57.167 110.166 94.5 161.499s80.333 98.666 129 141.999l45 -33c-46 -41.333 -86.667 -86.333 -122 -135
s-65 -99.5 -89 -152.5s-42.167 -107.333 -54.5 -163s-18.5 -111.167 -18.5 -166.5c0 -48 4.33301 -96.167 13 -144.5s22 -94.833 40 -139.5z" />
    <glyph glyph-name="parenright" unicode=")" horiz-adv-x="302" 
d="M-22 -153c46 41.333 86.667 85.8281 122 133.495s65 97.667 89 150s42.167 106.333 54.5 162s18.5 111.834 18.5 168.501c0 48.667 -4.5 98 -13.5 148s-23.167 98 -42.5 144l52 26c22 -51.333 38.5 -102.166 49.5 -152.499s16.5 -102.5 16.5 -156.5
c0 -60 -6.5 -119.667 -19.5 -179s-32.333 -117.166 -58 -173.499s-57.167 -110.166 -94.5 -161.499s-80.333 -98.666 -129 -141.999z" />
    <glyph glyph-name="asterisk" unicode="*" horiz-adv-x="430" 
d="M185 361c9.33301 14 18.666 26.5 27.999 37.5l28 31.5c9.33301 10 19.333 20 30 30l35 32c-16 1.33301 -31.167 2.83301 -45.5 4.5s-28.333 3.66699 -42 6s-27.5 5.5 -41.5 9.5s-28.667 9 -44 15l22 64c30.667 -10 57.5 -20.5 80.5 -31.5l77.5 -38.5
c-2.66699 16 -5 30.833 -7 44.5s-3.83301 27.167 -5.5 40.5s-3 27 -4 41s-1.5 29.333 -1.5 46h70c0 -16.667 -0.5 -32 -1.5 -46s-2.33301 -27.667 -4 -41s-3.5 -26.833 -5.5 -40.5s-4.33301 -28.5 -7 -44.5l77.5 38.5c23 11 49.833 21.5 80.5 31.5l22 -64
c-31.333 -12.667 -60 -21 -86 -25s-55.333 -7.33301 -88 -10l35 -32c10.667 -10 20.834 -20 30.501 -30s19.167 -20.5 28.5 -31.5s18.666 -23.5 27.999 -37.5l-57 -39c-9.33301 14 -17.666 27.333 -24.999 40l-21.5 37l-20.5 36.5l-21 40.5l-22 -40.5l-20.5 -36.5l-22 -37
l-24.5 -40l-56 39v0z" />
    <glyph glyph-name="plus" unicode="+" horiz-adv-x="564" 
d="M319 261h-191l14 56h190l53 217h59l-53 -217h190l-14 -56h-189l-53 -218h-58z" />
    <glyph glyph-name="comma" unicode="," horiz-adv-x="238" 
d="M13 -133c13.333 16.667 25.668 35.333 37.001 56s21.166 41.5 29.499 62.5s15 41 20 60s8.5 35.5 10.5 49.5h70c-4 -22 -10.167 -44.667 -18.5 -68s-18.333 -46 -30 -68s-24.167 -43 -37.5 -63s-27 -37.667 -41 -53z" />
    <glyph glyph-name="hyphen" unicode="-" horiz-adv-x="279" 
d="M94 321h228l-15 -63h-228z" />
    <glyph glyph-name="period" unicode="." horiz-adv-x="243" 
d="M128 -13c-17.333 0 -30 4.83301 -38 14.5s-12 20.834 -12 33.501c0 14.667 5 28.5 15 41.5s24 19.5 42 19.5c17.333 0 30 -4.83301 38 -14.5s12 -20.834 12 -33.501c0 -14.667 -5 -28.5 -15 -41.5s-24 -19.5 -42 -19.5z" />
    <glyph glyph-name="slash" unicode="/" horiz-adv-x="378" 
d="M496 783h64l-559 -968h-63z" />
    <glyph glyph-name="zero" unicode="0" horiz-adv-x="564" 
d="M433 709c56 -0.666992 95.8301 -19.999 119.497 -57.999s35.5 -88.333 35.5 -151c0 -58.667 -7.5 -118.5 -22.5 -179.5s-36.167 -116.333 -63.5 -166s-60.166 -90.334 -98.499 -122.001s-80.833 -47.5 -127.5 -47.5c-28 0 -52 5 -72 15s-36.167 24.167 -48.5 42.5
s-21.333 40.333 -27 66s-8.5 54.167 -8.5 85.5c0 39.333 3.33301 79.333 10 120s16.334 80 29.001 118s28.334 73.833 47.001 107.5s39.5 63 62.5 88s48.333 44.833 76 59.5s57.167 22 88.5 22zM280.997 45.001c32.667 0 63.5 13 92.5 39s54.333 60.167 76 102.5
s38.834 90.166 51.501 143.499s19 107 19 161c0 55.333 -7.83301 95.5 -23.5 120.5s-38.834 37.5 -69.501 37.5c-32.667 0 -63.5 -13 -92.5 -39s-54.333 -60.167 -76 -102.5s-38.834 -90.166 -51.501 -143.499s-19 -107 -19 -161c0 -55.333 7.83301 -95.5 23.5 -120.5
s38.834 -37.5 69.501 -37.5z" />
    <glyph glyph-name="one" unicode="1" horiz-adv-x="564" 
d="M448 592c-21.333 -21.333 -48.001 -40.667 -80.001 -58s-65 -31.333 -99 -42l-12 58c38.667 14 77.334 32 116.001 54s77 51.667 115 89h48l-166 -693h-64z" />
    <glyph glyph-name="two" unicode="2" horiz-adv-x="564" 
d="M501 57l-13.0039 -57.002h-387c8 50 23.833 93.333 47.5 130s50.834 69 81.501 97s62.834 53.667 96.501 77s64.5 46.666 92.5 69.999s51.167 48.333 69.5 75s27.5 58 27.5 94c0 37.333 -10.167 64.333 -30.5 81s-44.833 25 -73.5 25c-28 0 -56.667 -5.83301 -86 -17.5
s-54.666 -26.5 -75.999 -44.5l-22 54c25.333 20.667 55.5 37 90.5 49s69.5 18 103.5 18c22 0 42.833 -3 62.5 -9s37 -15.333 52 -28s27 -29 36 -49s13.5 -43.667 13.5 -71c0 -31.333 -5.83301 -59.833 -17.5 -85.5s-26.667 -49.5 -45 -71.5s-39.166 -42.5 -62.499 -61.5
s-47 -37.167 -71 -54.5l-80 -60.5c-24 -18.333 -44.833 -36.166 -62.5 -53.499s-32.167 -34.666 -43.5 -51.999s-19.333 -35.666 -24 -54.999h321z" />
    <glyph glyph-name="three" unicode="3" horiz-adv-x="564" 
d="M104 78c18.667 -11.333 40.1621 -19.6699 64.4951 -25.0029s49.5 -8 75.5 -8c28.667 0 55.334 3.5 80.001 10.5s46.167 17.5 64.5 31.5s32.833 31.833 43.5 53.5s16 47.167 16 76.5c0 44.667 -15.833 76.834 -47.5 96.501s-74.167 29.5 -127.5 29.5l14 54h25
c32 0 59.667 5 83 15s42.5 22.667 57.5 38s26 32.333 33 51s10.5 37 10.5 55c0 16.667 -2.66699 31 -8 43s-12.666 21.5 -21.999 28.5s-20.166 12.167 -32.499 15.5s-25.5 5 -39.5 5c-23.333 0 -46.833 -3.66699 -70.5 -11s-44.167 -16.666 -61.5 -27.999l-14 52
c23.333 14.667 48.333 26.167 75 34.5s54.334 12.5 83.001 12.5c20.667 0 40.667 -2.66699 60 -8s36.333 -13.833 51 -25.5s26.5 -26.667 35.5 -45s13.5 -40.833 13.5 -67.5c0 -20 -3 -39.667 -9 -59s-15.167 -37.5 -27.5 -54.5s-27.833 -32.333 -46.5 -46
s-40.334 -24.834 -65.001 -33.501c12 -4.66699 23.833 -11 35.5 -19s22.334 -18 32.001 -30s17.5 -26.333 23.5 -43s9 -36 9 -58c0 -39.333 -7.83301 -73.666 -23.5 -102.999s-36.167 -53.666 -61.5 -72.999s-54.5 -33.833 -87.5 -43.5s-66.833 -14.5 -101.5 -14.5
c-29.333 0 -58.166 3 -86.499 9s-54.833 15.333 -79.5 28z" />
    <glyph glyph-name="four" unicode="4" horiz-adv-x="564" 
d="M414 242l87.998 365c-27.333 -22 -55.666 -47 -84.999 -75s-58.166 -57.833 -86.499 -89.5s-55.5 -64.5 -81.5 -98.5s-49 -68 -69 -102h234zM104.998 227c20.667 36 46.168 74.333 76.501 115s63.666 81.5 99.999 122.5s74.833 81.167 115.5 120.5s82 75.333 124 108h65
l-108 -451h85l-13 -54h-84l-44 -188h-64l44 188h-307z" />
    <glyph glyph-name="five" unicode="5" horiz-adv-x="564" 
d="M107 80c19.333 -11.333 40.5 -20.0039 63.5 -26.0039s46.167 -9 69.5 -9c26.667 0 52.667 3.66699 78 11s47.833 18.166 67.5 32.499s35.5 32.5 47.5 54.5s18 47.667 18 77c0 24.667 -4.5 45.334 -13.5 62.001s-20.5 30.667 -34.5 42s-30 20 -48 26
s-35.667 10.667 -53 14s-33.833 5.33301 -49.5 6s-28.5 1.33398 -38.5 2.00098l29 84l25 76.5l23.5 76.5c7.66699 26 15.167 54 22.5 84h302l-13 -57h-244l-15.5 -51l-17.5 -57c-6 -19.333 -12.167 -38.166 -18.5 -56.499l-16.5 -48.5c34 -3.33301 65.167 -9.5 93.5 -18.5
s52.666 -21.5 72.999 -37.5s36 -35.5 47 -58.5s16.5 -49.833 16.5 -80.5c0 -40.667 -7.66699 -76.167 -23 -106.5s-35.666 -55.666 -60.999 -75.999s-54.833 -35.5 -88.5 -45.5s-68.5 -15 -104.5 -15c-28 0 -55.833 2.83301 -83.5 8.5s-54.5 14.834 -80.5 27.501z" />
    <glyph glyph-name="six" unicode="6" horiz-adv-x="564" 
d="M385 414c30 0 55.833 -4.16602 77.5 -12.499s39.5 -19.833 53.5 -34.5s24.333 -32 31 -52s10 -42 10 -66c0 -42 -7.16699 -79.333 -21.5 -112s-33.166 -60.334 -56.499 -83.001s-49.833 -39.834 -79.5 -51.501s-59.834 -17.5 -90.501 -17.5
c-25.333 0 -49.166 4.33301 -71.499 13s-41.833 21.5 -58.5 38.5s-29.834 38.333 -39.501 64s-14.5 55.834 -14.5 90.501c0 68 11.5 132.333 34.5 193s55.5 113.834 97.5 159.501s93 82.167 153 109.5s127 41.666 201 42.999l-7 -59
c-48.667 -1.33301 -93.167 -8.83301 -133.5 -22.5s-76.333 -32.167 -108 -55.5s-59.167 -51 -82.5 -83s-42 -66.333 -56 -103c25.333 12.667 51.5 22.667 78.5 30s54.5 11 82.5 11zM487 237.001c0 36 -9.33398 64.501 -28.001 85.501s-50 31.5 -94 31.5
c-27.333 0 -55 -4 -83 -12s-53.333 -17.667 -76 -29c-5.33301 -19.333 -9 -39.333 -11 -60s-3 -41.334 -3 -62.001c0 -26 3 -48.5 9 -67.5s14.333 -34.5 25 -46.5s23 -20.833 37 -26.5s28.667 -8.5 44 -8.5c24.667 0 47.834 4.66699 69.501 14s40.667 22.5 57 39.5
s29.333 37.5 39 61.5s14.5 50.667 14.5 80z" />
    <glyph glyph-name="seven" unicode="7" horiz-adv-x="564" 
d="M172 0c11.333 36.667 25.668 75.167 43.001 115.5s36.833 80.666 58.5 120.999s44.834 80 69.501 119s50 75.833 76 110.5s52 66.334 78 95.001s51 52.667 75 72h-341l13 60h410l-14 -58c-30 -28.667 -64.167 -66.167 -102.5 -112.5s-76.333 -98 -114 -155
s-72.834 -117 -105.501 -180s-58.334 -125.5 -77.001 -187.5h-69z" />
    <glyph glyph-name="eight" unicode="8" horiz-adv-x="564" 
d="M601 561c0 -19.333 -2.5 -38.832 -7.5 -58.499s-13.667 -38.834 -26 -57.501s-28.666 -36.667 -48.999 -54s-45.833 -33.333 -76.5 -48c31.333 -17.333 54.666 -38 69.999 -62s23 -50 23 -78c0 -34.667 -7.16699 -65.5 -21.5 -92.5s-33.5 -49.833 -57.5 -68.5
s-51.667 -32.834 -83 -42.501s-64.333 -14.5 -99 -14.5c-23.333 0 -45.5 3 -66.5 9s-39.5 15 -55.5 27s-28.833 27.333 -38.5 46s-14.5 40.667 -14.5 66c0 19.333 2.5 39.166 7.5 59.499s14 40.5 27 60.5s30.667 39.5 53 58.5s50.5 36.5 84.5 52.5
c-20.667 12.667 -37.834 29.667 -51.501 51s-20.5 46 -20.5 74c0 34.667 6.66699 65.667 20 93s31 50.333 53 69s47.333 32.834 76 42.501s58 14.5 88 14.5c48.667 0 88.334 -12.167 119.001 -36.5s46 -61.166 46 -110.499zM466 196.001
c0 20.667 -4.33398 38.335 -13.001 53.002s-20 27.334 -34 38.001s-29.667 20 -47 28s-35 15.667 -53 23c-27.333 -14 -50.666 -29 -69.999 -45s-35 -32.167 -47 -48.5s-20.667 -32.666 -26 -48.999s-8 -31.5 -8 -45.5c0 -19.333 3 -35.833 9 -49.5
s14.333 -24.834 25 -33.501s23 -15.167 37 -19.5s28.667 -6.5 44 -6.5c23.333 0 46 3.66699 68 11s41.5 17.666 58.5 30.999s30.667 29.666 41 48.999s15.5 40.666 15.5 63.999zM266.999 492.002c0 -17.333 3.66699 -32.3311 11 -44.998s17 -23.834 29 -33.501
s25.5 -18 40.5 -25s30.5 -13.5 46.5 -19.5c48 25.333 83.167 53.5 105.5 84.5s33.5 63.833 33.5 98.5c0 33.333 -9.16699 58.333 -27.5 75s-44.5 25 -78.5 25c-21.333 0 -41.5 -3.33301 -60.5 -10s-36 -16.834 -51 -30.501s-26.833 -30.5 -35.5 -50.5s-13 -43 -13 -69z" />
    <glyph glyph-name="nine" unicode="9" horiz-adv-x="564" 
d="M339 279c-31.333 0 -58.1689 4.16992 -80.502 12.5029s-40.666 19.666 -54.999 33.999s-24.833 31.166 -31.5 50.499s-10 40 -10 62c0 43.333 7 81.666 21 114.999s32.667 61.5 56 84.5s50 40.5 80 52.5s61 18 93 18c23.333 0 45.666 -3.5 66.999 -10.5
s40.333 -18.333 57 -34s29.834 -36.334 39.501 -62.001s14.5 -57.167 14.5 -94.5c0 -70 -11.167 -136 -33.5 -198s-54.166 -116 -95.499 -162s-91.333 -82.333 -150 -109s-124.334 -40 -197.001 -40h-12c-4.66699 0 -9.33398 0.333008 -14.001 1l12 57
c50.667 -1.33301 97 4.33398 139 17.001s79.333 30.667 112 54s60.667 51.5 84 84.5s42 69.167 56 108.5c-31.333 -14.667 -60.666 -25.167 -87.999 -31.5s-48.666 -9.5 -63.999 -9.5zM411.997 651.003c-24 0 -47 -4.33301 -69 -13s-41.167 -21.5 -57.5 -38.5
s-29.333 -38.167 -39 -63.5s-14.5 -54.333 -14.5 -87c0 -30 9.16699 -55.833 27.5 -77.5s48.5 -32.5 90.5 -32.5c22 0 46.167 3 72.5 9s54.833 16.333 85.5 31c10 40.667 15 84 15 130c0 46.667 -9.5 82 -28.5 106s-46.5 36 -82.5 36z" />
    <glyph glyph-name="colon" unicode=":" horiz-adv-x="243" 
d="M128 -13c-17.333 0 -30 4.83301 -38 14.5s-12 20.834 -12 33.501c0 14.667 5 28.5 15 41.5s24 19.5 42 19.5c17.333 0 30 -4.83301 38 -14.5s12 -20.834 12 -33.501c0 -14.667 -5 -28.5 -15 -41.5s-24 -19.5 -42 -19.5zM233 408c-17.333 0 -30 4.83301 -38 14.5
s-12 20.834 -12 33.501c0 14.667 5 28.5 15 41.5s24 19.5 42 19.5c17.333 0 30 -4.83301 38 -14.5s12 -20.834 12 -33.501c0 -14.667 -5 -28.5 -15 -41.5s-24 -19.5 -42 -19.5z" />
    <glyph glyph-name="semicolon" unicode=";" horiz-adv-x="238" 
d="M13 -133c13.333 16.667 25.668 35.333 37.001 56s21.166 41.5 29.499 62.5s15 41 20 60s8.5 35.5 10.5 49.5h70c-4 -22 -10.167 -44.667 -18.5 -68s-18.333 -46 -30 -68s-24.167 -43 -37.5 -63s-27 -37.667 -41 -53zM233.002 407.999c-17.333 0 -30 4.83301 -38 14.5
s-12 20.834 -12 33.501c0 14.667 5 28.5 15 41.5s24 19.5 42 19.5c17.333 0 30 -4.83301 38 -14.5s12 -20.834 12 -33.501c0 -14.667 -5 -28.5 -15 -41.5s-24 -19.5 -42 -19.5z" />
    <glyph glyph-name="less" unicode="&#x3c;" horiz-adv-x="564" 
d="M133 328l456 177l5 -61l-397 -150l321 -148l-32 -54l-367 178z" />
    <glyph glyph-name="equal" unicode="=" horiz-adv-x="564" 
d="M168 432h438l-13 -56h-439zM118 222h438l-13 -56h-439z" />
    <glyph glyph-name="greater" unicode="&#x3e;" horiz-adv-x="564" 
d="M569 269l-456 -177l-5 61l397 150l-321 148l32 54l367 -178z" />
    <glyph glyph-name="question" unicode="?" horiz-adv-x="365" 
d="M159 213c0.666992 24 4.33105 45.6699 10.998 65.0029s15.667 37.166 27 53.499s24.5 31.666 39.5 45.999s31.5 28.5 49.5 42.5l12 9c36.667 27.333 62.334 51.666 77.001 72.999s22 45 22 71c0 28.667 -9 48.667 -27 60s-39.333 17 -64 17
c-21.333 0 -42.833 -3 -64.5 -9s-40.5 -12.667 -56.5 -20l-8 55c20 9.33301 42.333 17 67 23s49.334 9 74.001 9c20 0 39 -2.33301 57 -7s33.833 -12.167 47.5 -22.5s24.5 -24 32.5 -41s12 -37.833 12 -62.5c0 -28 -6.16699 -52.667 -18.5 -74s-28 -41.166 -47 -59.499
s-39.333 -35.833 -61 -52.5s-42 -33.834 -61 -51.501s-34.667 -36.5 -47 -56.5s-18.5 -42.667 -18.5 -68h-55zM167.997 -11.9971c-17.333 0 -30 4.83301 -38 14.5s-12 20.834 -12 33.501c0 14.667 5 28.5 15 41.5s24 19.5 42 19.5c17.333 0 30 -4.83301 38 -14.5
s12 -20.834 12 -33.501c0 -14.667 -5 -28.5 -15 -41.5s-24 -19.5 -42 -19.5z" />
    <glyph glyph-name="at" unicode="@" horiz-adv-x="928" 
d="M601 -133c-51.333 -13.333 -99.332 -19.9951 -143.999 -19.9951c-49.333 0 -94.833 7.33301 -136.5 22s-77.5 36 -107.5 64s-53.333 62.5 -70 103.5s-25 87.833 -25 140.5c0 86 13.833 162 41.5 228s64.834 121.5 111.501 166.5s100.667 79 162 102s126 34.5 194 34.5
c48 0 91.833 -6.5 131.5 -19.5s73.667 -32.833 102 -59.5s50.333 -60 66 -100s23.5 -87.333 23.5 -142c0 -59.333 -8 -109.666 -24 -150.999s-36.333 -75.333 -61 -102s-51.834 -46 -81.501 -58s-57.834 -18 -84.501 -18c-18.667 0 -35 3.16699 -49 9.5
s-23.667 15.5 -29 27.5c-15.333 -10.667 -34.166 -19.834 -56.499 -27.501s-44.5 -11.5 -66.5 -11.5c-24 0 -46 3.16699 -66 9.5s-37.167 16.166 -51.5 29.499s-25.666 30.166 -33.999 50.499s-12.5 44.166 -12.5 71.499c0 42 6.66699 80.667 20 116s32 65.666 56 90.999
s52.833 45.166 86.5 59.499s71.167 21.5 112.5 21.5c32 0 60.667 -2.66699 86 -8s43.666 -10.333 54.999 -15l-75 -304c-1.33301 -5.33301 -2.83301 -11 -4.5 -17s-2.5 -12 -2.5 -18c0 -6.66699 2 -13.167 6 -19.5s16 -9.5 36 -9.5c32 0 59.333 9.16699 82 27.5
s41 41.333 55 69s24.167 58 30.5 91s9.5 64.167 9.5 93.5c0 42.667 -6.33301 80.167 -19 112.5s-30.834 59 -54.501 80s-52.167 36.833 -85.5 47.5s-70.666 16 -111.999 16c-54.667 0 -107.834 -10.167 -159.501 -30.5s-97.667 -50.166 -138 -89.499
s-72.833 -87.833 -97.5 -145.5s-37 -124.167 -37 -199.5c0 -90.667 24.5 -160.334 73.5 -209.001s118.167 -73 207.5 -73c42.667 0 89.667 6 141 18zM676.001 443.005c-0.666992 0.666992 -3.33398 1.49805 -8.00098 2.49805s-10.5 1.83301 -17.5 2.5
s-14.667 1.33398 -23 2.00098s-16.5 1 -24.5 1c-29.333 0 -56.166 -5.66699 -80.499 -17s-45.333 -27.166 -63 -47.499s-31.5 -44.5 -41.5 -72.5s-15 -58.333 -15 -91c0 -39.333 8.66699 -67.833 26 -85.5s41 -26.5 71 -26.5c29.333 0 51.833 3 67.5 9s29.167 12 40.5 18
c0 14 0.833008 25.333 2.5 34l4.5 23z" />
    <glyph glyph-name="A" unicode="A" horiz-adv-x="622" 
d="M546 0c-3.33301 32 -6.83301 63.667 -10.5 95l-11.5 95h-326l-52 -93l-52 -97h-74c68.667 124 139.334 244.667 212.001 362l214 331h73c16.667 -97.333 33.167 -202.5 49.5 -315.5s32.166 -238.833 47.499 -377.5h-70zM465 615l-119 -183l-114 -184h285
c-7.33301 60 -15.333 120.167 -24 180.5z" />
    <glyph glyph-name="B" unicode="B" horiz-adv-x="597" 
d="M243 680c21.333 5.33301 46.668 10.001 76.001 14.001s59.666 6 90.999 6c28.667 0 56.667 -2.33301 84 -7s51.833 -13 73.5 -25s39 -28.167 52 -48.5s19.5 -45.833 19.5 -76.5c0 -22.667 -4 -43.667 -12 -63s-18.5 -36.5 -31.5 -51.5s-28.167 -28 -45.5 -39
s-35.333 -19.5 -54 -25.5c15.333 -4 29.166 -10.333 41.499 -19s22.666 -18.834 30.999 -30.501s14.833 -24.667 19.5 -39s7 -28.833 7 -43.5c0 -47.333 -9.66699 -86.333 -29 -117s-44.666 -55 -75.999 -73s-67.166 -30.5 -107.499 -37.5s-81.833 -10.5 -124.5 -10.5
c-32 0 -62.833 1.83301 -92.5 5.5s-57.167 8.16699 -82.5 13.5zM161.002 59.001c14 -2.66699 29.3311 -4.50098 45.998 -5.50098s34.334 -1.5 53.001 -1.5c32.667 0 64.834 2.33301 96.501 7s59.834 13.5 84.501 26.5s44.5 30.833 59.5 53.5s22.5 52.334 22.5 89.001
c0 39.333 -13.333 66.5 -40 81.5s-70.334 22.5 -131.001 22.5h-127zM333 390c84 0 144.168 12.832 180.501 38.499s54.5 59.834 54.5 102.501c0 40 -14.167 68.333 -42.5 85s-71.5 25 -129.5 25c-18 0 -35.333 -0.666992 -52 -2s-31.334 -3 -44.001 -5l-60 -244h93z" />
    <glyph glyph-name="C" unicode="C" horiz-adv-x="610" 
d="M587 31c-27.333 -14.667 -58.3359 -26 -93.0029 -34s-69 -12 -103 -12c-37.333 0 -71.5 5.16699 -102.5 15.5s-57.667 26.333 -80 48s-39.666 49.334 -51.999 83.001s-18.5 74.167 -18.5 121.5c0 71.333 11 135.166 33 191.499s51.667 104 89 143s80.333 68.833 129 89.5
s99.667 31 153 31c31.333 0 60.5 -3.33301 87.5 -10s54.5 -17.667 82.5 -33l-31 -62c-48 29.333 -99 44 -153 44c-42 0 -82.167 -9.16699 -120.5 -27.5s-72.166 -44.5 -101.499 -78.5s-52.666 -75.167 -69.999 -123.5s-26 -102.5 -26 -162.5
c0 -68 14.667 -119.833 44 -155.5s74.333 -53.5 135 -53.5c26.667 0 50.334 1.66699 71.001 5s38.5 7.33301 53.5 12s27.667 9.5 38 14.5s19.166 9.5 26.499 13.5z" />
    <glyph glyph-name="D" unicode="D" horiz-adv-x="679" 
d="M162 60c16.667 -2.66699 32.666 -4.5 47.999 -5.5s30.666 -1.5 45.999 -1.5c62.667 0 117.834 9.16699 165.501 27.5s87.5 43.5 119.5 75.5s56.167 69.833 72.5 113.5s24.5 91.167 24.5 142.5c0 76.667 -19.167 134 -57.5 172s-98.166 57 -179.499 57
c-16.667 0 -33.5 -0.666992 -50.5 -2s-34.167 -3.33301 -51.5 -6zM241.999 680c32.667 7.33301 62.332 12.335 88.999 15.002s53 4 79 4c102 0 177.667 -24.667 227 -74s74 -119.333 74 -210c0 -61.333 -10 -117.833 -30 -169.5s-49.5 -96.167 -88.5 -133.5
s-87.5 -66.333 -145.5 -87s-125 -31 -201 -31c-13.333 0 -27.5 0.5 -42.5 1.5s-29.667 2.16699 -44 3.5s-28.166 3.16602 -41.499 5.49902s-25 5.16602 -35 8.49902z" />
    <glyph glyph-name="E" unicode="E" horiz-adv-x="524" 
d="M249 693h387l-13 -59h-321l-59 -241h286l-13 -58h-284l-69 -276h344l-12 -59h-412z" />
    <glyph glyph-name="F" unicode="F" horiz-adv-x="500" 
d="M249 693h383l-13 -59h-317l-60 -244h283l-14 -59h-280l-80 -331h-68z" />
    <glyph glyph-name="G" unicode="G" horiz-adv-x="640" 
d="M593 324l68.001 -0.00390625l-72 -301c-30 -12 -61 -21.333 -93 -28s-63 -10 -93 -10c-46 0 -85.833 6.33301 -119.5 19s-61.167 31 -82.5 55s-37.166 52.833 -47.499 86.5s-15.5 71.5 -15.5 113.5c0 58.667 9.33301 115 28 169s45.334 101.667 80.001 143
s76.834 74.5 126.501 99.5s105.167 37.5 166.5 37.5c30 0 55.667 -1.66699 77 -5s39.5 -7.33301 54.5 -12s27.167 -9.66699 36.5 -15s17.666 -9.66602 24.999 -12.999l-31 -62c-2 2 -7.66699 5.5 -17 10.5s-21.5 10.167 -36.5 15.5s-32.333 10 -52 14s-41.167 6 -64.5 6
c-49.333 0 -93.833 -10.667 -133.5 -32s-73.334 -49.666 -101.001 -84.999s-49 -76.166 -64 -122.499s-22.5 -94.833 -22.5 -145.5c0 -69.333 15 -122.666 45 -159.999s78.333 -56 145 -56c21.333 0 43.166 1.83301 65.499 5.5s45.166 9.5 68.499 17.5z" />
    <glyph glyph-name="H" unicode="H" horiz-adv-x="655" 
d="M249 693h68l-74 -301h359l72 301h68l-165 -693h-68l80 333h-358l-80 -333h-68z" />
    <glyph glyph-name="I" unicode="I" horiz-adv-x="230" 
d="M249 693h68l-165 -693h-69z" />
    <glyph glyph-name="J" unicode="J" horiz-adv-x="450" 
d="M53 95c10 -10 26.666 -20.6689 49.999 -32.002s51 -17 83 -17c18 0 35 1.83301 51 5.5s31 10.834 45 21.501s26.667 25.834 38 45.501s21 45.5 29 77.5l120 497h68l-120 -505c-9.33301 -40 -21.666 -73 -36.999 -99s-33 -46.833 -53 -62.5s-42.167 -26.5 -66.5 -32.5
s-50.166 -9 -77.499 -9c-34.667 0 -65.834 5.33301 -93.501 16s-51.5 24.667 -71.5 42z" />
    <glyph glyph-name="K" unicode="K" horiz-adv-x="599" 
d="M249 693l66.999 -0.000976562l-76 -319l106.5 80l112.5 90l101.5 84.5c31 26.333 55.5 47.833 73.5 64.5h90l-84 -73l-108 -89l-114.5 -91.5l-103.5 -81.5c24 -18 49 -41.5 75 -70.5s51.167 -60.167 75.5 -93.5s46.833 -67 67.5 -101s37 -65 49 -93h-74
c-38.667 74.667 -80.167 141.334 -124.5 200.001s-94.166 108 -149.499 148l-82 -348h-68z" />
    <glyph glyph-name="L" unicode="L" horiz-adv-x="474" 
d="M248 693h68l-152 -635h307l-13 -58h-375z" />
    <glyph glyph-name="M" unicode="M" horiz-adv-x="831" 
d="M68 0c34 124.667 69.501 245.333 106.501 362l106.5 331h68l30.5 -128c10.333 -45.333 20.166 -90.833 29.499 -136.5s17.833 -90 25.5 -133s14.167 -82.167 19.5 -117.5l83 126.5l93 139.5l92 135l81 114h70c-6 -60.667 -13 -119.834 -21 -177.501
s-16.5 -114.834 -25.5 -171.501s-18.667 -113.5 -29 -170.5l-32.5 -173.5h-70c23.333 108.667 43.5 212.334 60.5 311.001s31.833 192 44.5 280c-10 -12.667 -23.833 -31.5 -41.5 -56.5l-58.5 -84.5l-66.5 -99l-66.5 -100.5l-58 -88
c-17.333 -26.333 -30.666 -47.166 -39.999 -62.499h-60c-2.66699 18.667 -6.33398 41.667 -11.001 69l-15.5 88l-18 97l-19 95.5c-6.33301 30.333 -12.333 57.833 -18 82.5s-10.5 44.667 -14.5 60c-29.333 -88 -59 -182.333 -89 -283l-88 -309h-68z" />
    <glyph glyph-name="N" unicode="N" horiz-adv-x="669" 
d="M249 693l67 0.000976562c24.667 -42.667 49.167 -90.334 73.5 -143.001s47.333 -105.834 69 -159.501s40.667 -105.167 57 -154.5s28.833 -91.666 37.5 -126.999l136 584h67l-164 -693h-67c-12 40.667 -27 88.167 -45 142.5s-37.5 109.5 -58.5 165.5
s-42.5 109.833 -64.5 161.5s-43 95.5 -63 131.5l-144 -601h-67z" />
    <glyph glyph-name="O" unicode="O" horiz-adv-x="748" 
d="M138 258c0 68.667 11.333 130.833 34 186.5s52.667 103 90 142s79.5 69 126.5 90s95.167 31.5 144.5 31.5c32.667 0 64 -5.5 94 -16.5s56.333 -27.667 79 -50s40.667 -50.666 54 -84.999s20 -74.5 20 -120.5c0 -69.333 -11.333 -131.833 -34 -187.5
s-52.667 -103 -90 -142s-79.666 -69 -126.999 -90s-95.333 -31.5 -144 -31.5c-33.333 0 -64.833 5.5 -94.5 16.5s-55.834 27.667 -78.501 50s-40.667 50.666 -54 84.999s-20 74.833 -20 121.5zM210 246.999c0 -34 4.66699 -63.667 14 -89s22.333 -46.166 39 -62.499
s35.834 -28.666 57.501 -36.999s45.167 -12.5 70.5 -12.5c40.667 0 80 8.83301 118 26.5s71.667 43.5 101 77.5s53 75.833 71 125.5s27 106.5 27 170.5c0 34 -4.66699 63.667 -14 89s-22.333 46.166 -39 62.499s-36 28.666 -58 36.999s-45.333 12.5 -70 12.5
c-40.667 0 -80 -8.83301 -118 -26.5s-71.833 -43.5 -101.5 -77.5s-53.334 -75.833 -71.001 -125.5s-26.5 -106.5 -26.5 -170.5z" />
    <glyph glyph-name="P" unicode="P" horiz-adv-x="565" 
d="M246 680c25.333 5.33301 52.501 9.83301 81.501 13.5s58.5 5.5 88.5 5.5c79.333 0 137.666 -15 174.999 -45s56 -73.333 56 -130c0 -37.333 -7.5 -71.666 -22.5 -102.999s-36.667 -58.333 -65 -81s-63.5 -40.334 -105.5 -53.001s-90 -19 -144 -19h-94l-65 -268h-68z
M319.001 327c81.333 0 144.333 16.667 189 50s67 79.333 67 138c0 43.333 -14 75 -42 95s-72 30 -132 30c-17.333 0 -34.5 -0.833008 -51.5 -2.5l-46.5 -4.5l-74 -306h90z" />
    <glyph glyph-name="Q" unicode="Q" horiz-adv-x="748" 
d="M138 258c0 68.667 11.3301 130.833 33.9971 186.5s52.667 103 90 142s79.5 69 126.5 90s95.167 31.5 144.5 31.5c32.667 0 64 -5.5 94 -16.5s56.333 -27.667 79 -50s40.667 -50.666 54 -84.999s20 -74.5 20 -120.5c0 -65.333 -10.167 -124.666 -30.5 -177.999
s-47.333 -99.333 -81 -138s-72.167 -69.334 -115.5 -92.001s-88 -36.334 -134 -41.001c-2 -6 -3 -11.667 -3 -17c0 -13.333 5.33301 -25.166 16 -35.499s25 -19.5 43 -27.5s38.5 -14.833 61.5 -20.5s46.833 -10.5 71.5 -14.5l-26 -56c-23.333 2.66699 -48.5 7 -75.5 13
s-52 14.5 -75 25.5s-42.167 25 -57.5 42s-23 38.5 -23 64.5v12.5c0 4.33301 0.666992 8.83301 2 13.5c-29.333 3.33301 -57.166 11.333 -83.499 24s-49.166 30.167 -68.499 52.5s-34.666 49.666 -45.999 81.999s-17 69.833 -17 112.5zM209.997 246.999
c0 -34 4.66699 -63.667 14 -89s22.333 -46.166 39 -62.499s35.834 -28.666 57.501 -36.999s45.167 -12.5 70.5 -12.5c40.667 0 80 8.83301 118 26.5s71.667 43.5 101 77.5s53 75.833 71 125.5s27 106.5 27 170.5c0 34 -4.66699 63.667 -14 89s-22.333 46.166 -39 62.499
s-36 28.666 -58 36.999s-45.333 12.5 -70 12.5c-40.667 0 -80 -8.83301 -118 -26.5s-71.833 -43.5 -101.5 -77.5s-53.334 -75.833 -71.001 -125.5s-26.5 -106.5 -26.5 -170.5z" />
    <glyph glyph-name="R" unicode="R" horiz-adv-x="592" 
d="M408 699c78.667 0 137.666 -15.832 176.999 -47.499s59 -76.5 59 -134.5c0 -52 -16.667 -97.5 -50 -136.5s-84 -67.167 -152 -84.5c8 -14.667 17.667 -33.834 29 -57.501s22.833 -49.167 34.5 -76.5l34 -83.5c11 -28.333 20.167 -54.5 27.5 -78.5h-72
c-18.667 56.667 -39.167 109.5 -61.5 158.5s-43.166 90.5 -62.499 124.5c-22 -2 -45 -3 -69 -3h-84l-67 -280h-68l163 680c23.333 4.66699 48.833 9 76.5 13s56.167 6 85.5 6zM313.999 338.001c83.333 0 147.332 15.833 191.999 47.5s67 76.167 67 133.5
c0 42 -14 72.667 -42 92s-72.333 29 -133 29c-17.333 0 -34.166 -0.833008 -50.499 -2.5l-44.5 -4.5l-72 -295h83z" />
    <glyph glyph-name="S" unicode="S" horiz-adv-x="487" 
d="M83 93c19.333 -14.667 42.8291 -26.502 70.4961 -35.502s56.5 -13.5 86.5 -13.5c24 0 47.167 2.83301 69.5 8.5s42.333 14.667 60 27s31.834 28 42.501 47s16 41.833 16 68.5s-6.33301 48.334 -19 65.001s-28.5 31 -47.5 43s-39.667 23.167 -62 33.5s-43 22.833 -62 37.5
s-34.833 32.5 -47.5 53.5s-19 48.5 -19 82.5c0 24 5 47.833 15 71.5s25.5 44.834 46.5 63.501s47.333 33.834 79 45.501s69.167 17.5 112.5 17.5c28.667 0 55.834 -2.83301 81.501 -8.5s53.5 -15.834 83.5 -30.501l-35 -57c-23.333 14 -46.5 23.833 -69.5 29.5
s-47.167 8.5 -72.5 8.5c-22 0 -43.167 -2.5 -63.5 -7.5s-38.5 -12.667 -54.5 -23s-28.833 -24 -38.5 -41s-14.5 -37.5 -14.5 -61.5c0 -26.667 6.33301 -48.334 19 -65.001s28.667 -31 48 -43s40 -23.167 62 -33.5s42.667 -22.666 62 -36.999s35.333 -32.5 48 -54.5
s19 -50.667 19 -86c0 -26 -5.16699 -51.833 -15.5 -77.5s-26.666 -48.5 -48.999 -68.5s-50.666 -36.167 -84.999 -48.5s-75.5 -18.5 -123.5 -18.5c-32 0 -63.167 4.33301 -93.5 13s-58.5 20.667 -84.5 36z" />
    <glyph glyph-name="T" unicode="T" horiz-adv-x="526" 
d="M382 634h-212l13 59h493l-14 -59h-212l-152 -634h-68z" />
    <glyph glyph-name="U" unicode="U" horiz-adv-x="648" 
d="M250 693h68l-101 -419c-3.33301 -15.333 -6.16602 -30.5 -8.49902 -45.5s-3.5 -29.5 -3.5 -43.5c0 -20 2.33301 -38.5 7 -55.5s12.667 -31.833 24 -44.5s26 -22.667 44 -30s40.667 -11 68 -11c30.667 0 57.667 4.33301 81 13s43.833 22.167 61.5 40.5
s32.834 41.833 45.501 70.5s24 63 34 103l102 422h68l-104 -432c-12 -48.667 -26.333 -90.5 -43 -125.5s-36.834 -63.667 -60.501 -86s-51.167 -38.833 -82.5 -49.5s-67.333 -16 -108 -16c-35.333 0 -65.833 4.83301 -91.5 14.5s-46.834 23.167 -63.501 40.5s-29 38 -37 62
s-12 50.333 -12 79c0 29.333 4 60 12 92z" />
    <glyph glyph-name="V" unicode="V" horiz-adv-x="595" 
d="M330 0l-63 -0.000976562c-9.33301 46.667 -18.166 93 -26.499 139s-16.333 95.667 -24 149s-15.334 112.666 -23.001 177.999s-15.5 141 -23.5 227h66c6 -69.333 12 -133 18 -191s12.167 -112 18.5 -162s12.833 -96.667 19.5 -140s14 -84.666 22 -123.999
c64 87.333 126.5 183 187.5 287s120.167 214 177.5 330h76l-119 -215.5l-108 -183l-100.5 -157c-32.333 -48.333 -64.833 -94.166 -97.5 -137.499z" />
    <glyph glyph-name="W" unicode="W" horiz-adv-x="867" 
d="M185 0c-11.333 113.333 -16.166 227.333 -14.499 342s6.16699 231.667 13.5 351h66c-6.66699 -100.667 -11.167 -202.5 -13.5 -305.5s-1.5 -207.167 2.5 -312.5l78.5 125l72.5 120.5l74 130l84 153.5h60c3.33301 -50 7.33301 -99.667 12 -149s9.5 -96.833 14.5 -142.5
s10.333 -88.667 16 -129s11.167 -76.166 16.5 -107.499c22 38.667 44.667 82.167 68 130.5l70 152.5l70 165l68 169h74c-54 -134.667 -107.667 -258.834 -161 -372.501s-108.333 -220.5 -165 -320.5h-72c-12.667 70 -24.334 146.5 -35.001 229.5s-19.667 172.833 -27 269.5
c-49.333 -90 -98.5 -175.333 -147.5 -256l-152.5 -243h-72z" />
    <glyph glyph-name="X" unicode="X" horiz-adv-x="550" 
d="M325 366l-141 327h74l119 -281l122 144.5c38 47 73 92.5 105 136.5h76l-137.5 -171l-139.5 -160l75 -178.5c26 -61 50.333 -122.167 73 -183.5h-74c-6.66699 20.667 -14.5 43.167 -23.5 67.5l-29.5 77l-34 83l-37 84.5l-261 -312h-82z" />
    <glyph glyph-name="Y" unicode="Y" horiz-adv-x="555" 
d="M310 280c-12.667 34 -24.8311 69 -36.498 105l-34 107l-31.5 104.5l-28 96.5h74c13.333 -57.333 28.666 -116.5 45.999 -177.5s36.666 -117.833 57.999 -170.5l72 82l75 90l70 91c22 30 41.667 58.333 59 85h81l-156 -199l-181 -214l-66 -280h-68z" />
    <glyph glyph-name="Z" unicode="Z" horiz-adv-x="547" 
d="M51 51c19.333 27.333 42.499 57.5 69.499 90.5l87 103.5l96 109l97.5 106.5l92 96l79 77.5h-363l14 59h444l-14 -62c-19.333 -17.333 -42.333 -39.333 -69 -66l-86.5 -87.5l-95.5 -101.5l-97.5 -108.5l-92.5 -108c-29.333 -35.667 -55.666 -69.167 -78.999 -100.5h387
l-13 -59h-467z" />
    <glyph glyph-name="bracketleft" unicode="[" horiz-adv-x="305" 
d="M291 783h196l-11 -50h-136l-210 -868h137l-13 -50h-196z" />
    <glyph glyph-name="backslash" unicode="\" horiz-adv-x="361" 
d="M283 -185l-105 968h60l105 -968h-60z" />
    <glyph glyph-name="bracketright" unicode="]" horiz-adv-x="306" 
d="M-40 -135h136l210 868h-137l13 50h196l-233 -968h-197z" />
    <glyph glyph-name="asciicircum" unicode="^" horiz-adv-x="564" 
d="M412 693h49l105 -340l-49 -22l-93 294l-229 -291l-45 26z" />
    <glyph glyph-name="underscore" unicode="_" horiz-adv-x="549" 
d="M1 -131h500l-13 -54h-500z" />
    <glyph glyph-name="grave" unicode="`" horiz-adv-x="336" 
d="M266 773l146 -155l-35 -35l-164 132z" />
    <glyph glyph-name="a" unicode="a" 
d="M487 461c-12 2.66699 -22.998 4.66602 -32.998 5.99902s-20.333 2 -31 2c-41.333 0 -78 -8 -110 -24s-59 -37 -81 -63s-38.833 -55.667 -50.5 -89s-17.5 -67.333 -17.5 -102c0 -27.333 2.66699 -50.166 8 -68.499s12.666 -33 21.999 -44s20.166 -19 32.499 -24
s25.5 -7.5 39.5 -7.5c27.333 0 53 6.5 77 19.5s46.667 31.5 68 55.5c0 18 2.66699 38.667 8 62l15 63zM429.002 -6.00098c-4 8 -7.50098 17.1738 -10.501 27.5068s-5.16699 20.833 -6.5 31.5c-23.333 -22.667 -47.833 -39.334 -73.5 -50.001s-52.167 -16 -79.5 -16
c-21.333 0 -41.666 3.66699 -60.999 11s-36.333 18.666 -51 33.999s-26.5 35.166 -35.5 59.499s-13.5 53.166 -13.5 86.499c0 53.333 8.66699 101.666 26 144.999s41.5 80.166 72.5 110.499s67.667 53.833 110 70.5s88.5 25 138.5 25c41.333 0 81 -7 119 -21l-77 -311
c-4 -16.667 -7.33301 -32.334 -10 -47.001s-4 -28.667 -4 -42c0 -18 1.66699 -35 5 -51s9.33301 -33.667 18 -53z" />
    <glyph glyph-name="b" unicode="b" horiz-adv-x="523" 
d="M154 59c24 -7.33301 47.665 -10.998 70.998 -10.998c43.333 0 81.5 8.66699 114.5 26s60.5 39.666 82.5 66.999s38.667 57.666 50 90.999s17 66.333 17 99c0 48 -10.5 83 -31.5 105s-47.5 33 -79.5 33c-21.333 0 -44.166 -4.83301 -68.499 -14.5
s-48.166 -23.5 -71.499 -41.5zM256.998 489.002c20 13.333 41.335 23.335 64.002 30.002s45 10 67 10c56.667 0 98.667 -17.333 126 -52s41 -81.667 41 -141c0 -42.667 -7.33301 -84.834 -22 -126.501s-36.334 -78.834 -65.001 -111.501s-64.334 -59.167 -107.001 -79.5
s-92 -30.5 -148 -30.5c-47.333 0 -92.333 9.66699 -135 29l179 747l68 12z" />
    <glyph glyph-name="c" unicode="c" horiz-adv-x="455" 
d="M435 25c-13.333 -8.66699 -33.832 -17.001 -61.499 -25.001s-58.5 -12 -92.5 -12c-60.667 0 -106.334 17.333 -137.001 52s-46 82.334 -46 143.001c0 45.333 7 88.833 21 130.5s34.5 78.5 61.5 110.5s60.167 57.5 99.5 76.5s84 28.5 134 28.5
c34.667 0 69 -5.66699 103 -17l-27 -59c-15.333 6 -30.5 10.167 -45.5 12.5s-29.5 3.5 -43.5 3.5c-35.333 0 -67.5 -7.5 -96.5 -22.5s-53.833 -35.333 -74.5 -61s-36.667 -55.334 -48 -89.001s-17 -69.167 -17 -106.5c0 -44 10.167 -78.667 30.5 -104s52.833 -38 97.5 -38
c14 0 28.167 1.33301 42.5 4s27.5 5.83398 39.5 9.50098s22.667 7.5 32 11.5s16.333 7.66699 21 11z" />
    <glyph glyph-name="d" unicode="d" horiz-adv-x="540" 
d="M493 464c-9.33301 1.33301 -19.666 2.5 -30.999 3.5s-21.666 1.5 -30.999 1.5c-46.667 0 -86.834 -8.5 -120.501 -25.5s-61.334 -39 -83.001 -66s-37.667 -57 -48 -90s-15.5 -65.5 -15.5 -97.5c0 -20 1.83301 -38.5 5.5 -55.5s9.5 -32 17.5 -45s18.333 -23.167 31 -30.5
s28 -11 46 -11c16.667 0 32.5 2.33301 47.5 7s29 10.5 42 17.5s24.833 14.833 35.5 23.5s19.667 17 27 25c0 17.333 2.33301 36.833 7 58.5s10 44.167 16 67.5zM434 -6c-3.33301 6.66699 -6.66699 15.499 -10 26.499s-5.66602 21.833 -6.99902 32.5
c-6 -6.66699 -13.833 -13.834 -23.5 -21.501s-21.167 -14.667 -34.5 -21s-28.333 -11.666 -45 -15.999s-35 -6.5 -55 -6.5c-28.667 0 -53.167 5.16699 -73.5 15.5s-37 24.166 -50 41.499s-22.5 37.833 -28.5 61.5s-9 48.5 -9 74.5c0 42 6.83301 83.667 20.5 125
s34.667 78.5 63 111.5s64.166 59.833 107.499 80.5s94.333 31 153 31c21.333 0 43 -2 65 -6l57 241l68 12l-144 -597c-3.33301 -12 -5.83301 -23.667 -7.5 -35s-2.5 -22.333 -2.5 -33c0 -19.333 1.66699 -37.666 5 -54.999s9.33301 -34.666 18 -51.999z" />
    <glyph glyph-name="e" unicode="e" horiz-adv-x="488" 
d="M540 396c0 -37.333 -9.16602 -67.667 -27.499 -91s-44 -41.833 -77 -55.5s-72.667 -23.5 -119 -29.5s-97.833 -10.333 -154.5 -13v-21c0 -19.333 2 -37.333 6 -54s11.333 -31.167 22 -43.5s25.5 -22.166 44.5 -29.499s43.5 -11 73.5 -11c23.333 0 46.833 3.33301 70.5 10
s46.167 16.667 67.5 30l7 -60c-22.667 -12.667 -47.667 -22.5 -75 -29.5s-55 -10.5 -83 -10.5c-36.667 0 -67.5 4.66699 -92.5 14s-45.333 22.333 -61 39s-26.834 36.667 -33.501 60s-10 49 -10 77c0 42.667 6.5 85 19.5 127s32.167 79.667 57.5 113
s56.5 60.166 93.5 80.499s79.167 30.5 126.5 30.5c46.667 0 82.5 -12.167 107.5 -36.5s37.5 -56.5 37.5 -96.5zM389.001 469.999c-26.667 0 -51.667 -5.49902 -75 -16.499s-44.333 -25.833 -63 -44.5s-34.834 -40.334 -48.501 -65.001s-23.834 -50.667 -30.501 -78
c56.667 1.33301 104.334 5 143.001 11s69.834 14.333 93.501 25s40.5 23.5 50.5 38.5s15 32.167 15 51.5c0 26 -7.83301 45.5 -23.5 58.5s-36.167 19.5 -61.5 19.5z" />
    <glyph glyph-name="f" unicode="f" horiz-adv-x="355" 
d="M171 102c-8 -32 -15.834 -61.5 -23.501 -88.5s-16.334 -52.167 -26.001 -75.5s-20.834 -45.333 -33.501 -66s-27.667 -41 -45 -61l-57 9c16.667 22.667 30.834 43.5 42.501 62.5s21.5 37.833 29.5 56.5s15 37.5 21 56.5s11.667 39.833 17 62.5l124 515
c9.33301 40 21.833 73 37.5 99s33.334 46.667 53.001 62s40.834 26.166 63.501 32.499s45.667 9.5 69 9.5c22.667 0 42.167 -2 58.5 -6s31.5 -8.66699 45.5 -14l-31 -52c-14 4.66699 -27.167 8.33398 -39.5 11.001s-26.833 4 -43.5 4c-17.333 0 -33.333 -2.33301 -48 -7
s-28.167 -12.667 -40.5 -24s-23.5 -26.5 -33.5 -45.5s-18.667 -42.833 -26 -71.5l-14 -54h173l-12 -56h-175z" />
    <glyph glyph-name="g" unicode="g" horiz-adv-x="524" 
d="M492 462c-21.333 5.33301 -42 8 -62 8c-46 0 -85.833 -8 -119.5 -24s-61.5 -36.5 -83.5 -61.5s-38.333 -52.667 -49 -83s-16 -59.5 -16 -87.5c0 -18 1.66699 -35.167 5 -51.5s9 -30.5 17 -42.5s19 -21.5 33 -28.5s32 -10.5 54 -10.5c22.667 0 46.167 4.16699 70.5 12.5
s47.5 19.5 69.5 33.5zM44 -89c14 -11.333 34.1699 -20.6641 60.5029 -27.9971s52.5 -11 78.5 -11c61.333 0 108.5 14 141.5 42s54.5 67.667 64.5 119l5 26c-20 -12.667 -41.333 -22.167 -64 -28.5s-45.334 -9.5 -68.001 -9.5c-28.667 0 -53.5 4.66699 -74.5 14
s-38.167 22.166 -51.5 38.499s-23.333 35.333 -30 57s-10 44.834 -10 69.501c0 38 6.83301 76.5 20.5 115.5s34.834 74.333 63.501 106s64.5 57.5 107.5 77.5s94.167 30 153.5 30c24 0 46.667 -2.5 68 -7.5s40.333 -12.167 57 -21.5l-112 -466
c-6.66699 -28 -15.334 -55.333 -26.001 -82s-26.334 -50.334 -47.001 -71.001s-48.167 -37.334 -82.5 -50.001s-78.5 -19 -132.5 -19c-10.667 0 -22.667 0.833008 -36 2.5s-26.833 4.16699 -40.5 7.5s-26.834 7.16602 -39.501 11.499s-24 9.5 -34 15.5z" />
    <glyph glyph-name="h" unicode="h" horiz-adv-x="545" 
d="M148 0l-65 -0.00292969l182 764l68 12l-66 -273c42 17.333 81.667 26 119 26c22.667 0 43.667 -3.33301 63 -10s36.333 -16.667 51 -30s26.167 -30.166 34.5 -50.499s12.5 -44.5 12.5 -72.5c0 -17.333 -1.33301 -35.166 -4 -53.499s-6.33398 -36.833 -11.001 -55.5
l-62 -257h-65l55 230c5.33301 22 10.333 44.333 15 67s7 44.334 7 65.001c0 20 -3.16699 36.833 -9.5 50.5s-14.666 24.667 -24.999 33s-22.5 14.333 -36.5 18s-28.667 5.5 -44 5.5c-19.333 0 -38.833 -2 -58.5 -6s-38.167 -9 -55.5 -15z" />
    <glyph glyph-name="i" unicode="i" horiz-adv-x="235" 
d="M208 517h65l-125 -517h-65zM234 668c0 17.333 4.83496 30.498 14.502 39.498s20.167 13.5 31.5 13.5c13.333 0 23.666 -4.16699 30.999 -12.5s11 -19.166 11 -32.499c0 -16 -5.33301 -28.333 -16 -37s-21.334 -13 -32.001 -13c-13.333 0 -23.333 3.83301 -30 11.5
s-10 17.834 -10 30.501z" />
    <glyph glyph-name="j" unicode="j" horiz-adv-x="235" 
d="M-86 -115c10.667 -5.33301 20.833 -9.33398 30.5 -12.001s20.834 -4 33.501 -4c18 0 33.333 3.66699 46 11s23.834 17.5 33.501 30.5s17.667 28.5 24 46.5s12.166 37.667 17.499 59l119 501h65l-117 -489c-8.66699 -36 -18.167 -67.5 -28.5 -94.5s-23 -49.5 -38 -67.5
s-33 -31.5 -54 -40.5s-46.167 -13.5 -75.5 -13.5c-16.667 0 -30.834 1.83301 -42.501 5.5s-21.167 7.83398 -28.5 12.501zM245.999 667.999c0 17.333 4.83496 30.498 14.502 39.498s20.167 13.5 31.5 13.5c13.333 0 23.666 -4.16699 30.999 -12.5s11 -19.166 11 -32.499
c0 -16 -5.33301 -28.333 -16 -37s-21.334 -13 -32.001 -13c-13.333 0 -23.333 3.83301 -30 11.5s-10 17.834 -10 30.501z" />
    <glyph glyph-name="k" unicode="k" horiz-adv-x="499" 
d="M267 764l67.9961 12.001l-115 -478c24 16 48.5 34.167 73.5 54.5l72 61c23 20.333 43.833 39.666 62.5 57.999s33.334 33.5 44.001 45.5h79c-12 -15.333 -29.167 -34 -51.5 -56l-71 -67c-25 -22.667 -49.667 -43.834 -74 -63.501s-44.5 -34.167 -60.5 -43.5
c22.667 -17.333 44.834 -37.666 66.501 -60.999s41.5 -48 59.5 -74s34.167 -52.167 48.5 -78.5s25.5 -50.833 33.5 -73.5h-70c-29.333 62.667 -62.666 116.5 -99.999 161.5s-76.666 81.5 -117.999 109.5l-66 -271h-65z" />
    <glyph glyph-name="l" unicode="l" horiz-adv-x="266" 
d="M251 764l66.999 11.999l-124 -521l-15.5 -64.5c-5 -20.333 -7.5 -39.166 -7.5 -56.499c0 -10.667 1 -20.5 3 -29.5s6 -17 12 -24s14.5 -13.167 25.5 -18.5s25.167 -10 42.5 -14l-15 -57c-48.667 6 -82.667 20.833 -102 44.5s-29 53.5 -29 89.5
c0 16 1.33301 32.833 4 50.5s6.33398 36.167 11.001 55.5z" />
    <glyph glyph-name="m" unicode="m" horiz-adv-x="821" 
d="M202 499c10 3.33301 21.333 6.66016 34 9.99316s26 6.33301 40 9s28.333 4.83398 43 6.50098s28.667 2.5 42 2.5c28 0 53.5 -3.83301 76.5 -11.5s42.167 -21.5 57.5 -41.5c34 20 63.833 33.833 89.5 41.5s50.834 11.5 75.501 11.5c22.667 0 43.834 -2.5 63.501 -7.5
s36.834 -13.5 51.501 -25.5s26.334 -28.333 35.001 -49s13 -47 13 -79c0 -17.333 -1.33301 -35.166 -4 -53.499s-6.33398 -36.833 -11.001 -55.5l-62 -257h-65l55 230c5.33301 22 10.333 44.333 15 67s7 44.334 7 65.001s-2.66699 37.834 -8 51.501s-12.833 24.5 -22.5 32.5
s-20.834 13.5 -33.501 16.5s-26.334 4.5 -41.001 4.5c-14 0 -32.167 -2.5 -54.5 -7.5s-49.166 -17.5 -80.499 -37.5c4 -17.333 6 -36 6 -56c0 -17.333 -1.33301 -35.166 -4 -53.499s-6.33398 -36.833 -11.001 -55.5l-62 -257h-65l55 230c5.33301 22 10.333 44.333 15 67
s7 44.334 7 65.001s-2.66699 37.834 -8 51.501s-12.833 24.5 -22.5 32.5s-20.834 13.5 -33.501 16.5s-26.334 4.5 -41.001 4.5c-15.333 0 -31.666 -1.33301 -48.999 -4s-33.333 -6 -48 -10l-109 -453h-65z" />
    <glyph glyph-name="n" unicode="n" horiz-adv-x="546" 
d="M202 499c26 7.33301 53.6689 13.833 83.002 19.5s58.333 8.5 87 8.5c24 0 46.667 -2.5 68 -7.5s40 -13.833 56 -26.5s28.667 -29.334 38 -50.001s14 -46.334 14 -77.001c0 -17.333 -1.33301 -35.166 -4 -53.499s-6.33398 -36.833 -11.001 -55.5l-62 -257h-65l55 230
c5.33301 22 10.166 44.333 14.499 67s6.83301 44.334 7.5 65.001c0 20.667 -3.16699 37.667 -9.5 51s-15 24 -26 32s-23.833 13.667 -38.5 17s-30 5 -46 5c-17.333 0 -35 -1.33301 -53 -4s-35.667 -6 -53 -10l-109 -453h-65z" />
    <glyph glyph-name="o" unicode="o" horiz-adv-x="526" 
d="M164 166c0 -39.333 11 -69 33 -89s48.333 -30 79 -30c24 0 48.667 6.16699 74 18.5s48.5 31 69.5 56s38.333 56.5 52 94.5s20.5 82.667 20.5 134c0 39.333 -11 69 -33 89s-48.333 30 -79 30c-24 0 -48.667 -6.16699 -74 -18.5s-48.5 -31 -69.5 -56
s-38.333 -56.5 -52 -94.5s-20.5 -82.667 -20.5 -134zM558 355c0 -62.667 -8.83301 -117.001 -26.5 -163.001s-40.334 -84.167 -68.001 -114.5s-58.334 -52.833 -92.001 -67.5s-66.834 -22 -99.501 -22c-23.333 0 -45.5 3.66699 -66.5 11s-39.5 18.333 -55.5 33
s-28.667 32.834 -38 54.501s-14 46.834 -14 75.501c0 62.667 8.83301 117 26.5 163s40.334 84 68.001 114s58.334 52.333 92.001 67s66.834 22 99.501 22c23.333 0 45.5 -3.66699 66.5 -11s39.5 -18.333 55.5 -33s28.667 -32.834 38 -54.501s14 -46.5 14 -74.5z" />
    <glyph glyph-name="p" unicode="p" horiz-adv-x="519" 
d="M164 60c20.667 -6 41.668 -8.99805 63.001 -8.99805c41.333 0 78 8.16699 110 24.5s59 37.666 81 63.999s38.667 56 50 89s17 66.5 17 100.5c0 50 -11 86.5 -33 109.5s-55 34.5 -99 34.5c-15.333 0 -30.833 -1.33301 -46.5 -4s-31.834 -6.33398 -48.501 -11.001z
M202.001 496.002c28 10 56 17.999 84 23.999s55.667 9 83 9c121.333 0 182 -63.333 182 -190c0 -44.667 -7.33301 -88 -22 -130s-36.167 -79.167 -64.5 -111.5s-63 -58.166 -104 -77.499s-87.833 -29 -140.5 -29c-26 0 -50 3 -72 9l-44 -185h-66z" />
    <glyph glyph-name="q" unicode="q" horiz-adv-x="539" 
d="M496 463c-7.33301 1.33301 -15.168 3 -23.501 5s-15.833 3 -22.5 3c-43.333 0 -82.5 -7.16699 -117.5 -21.5s-65 -34.166 -90 -59.499s-44.333 -55.5 -58 -90.5s-20.5 -73.167 -20.5 -114.5c0 -14 1.33301 -29.167 4 -45.5s8 -31.5 16 -45.5s19.5 -25.667 34.5 -35
s34.833 -14 59.5 -14c23.333 0 46.333 4.16699 69 12.5s42.334 19.166 59.001 32.499zM387.998 16c-15.333 -8.66699 -33.834 -15.499 -55.501 -20.499s-44.5 -7.5 -68.5 -7.5c-30 0 -55.5 5.16699 -76.5 15.5s-38.167 24.166 -51.5 41.499s-23 37.333 -29 60
s-9 46.334 -9 71.001c0 42 6.83301 84.167 20.5 126.5s35.334 80.166 65.001 113.499s68 60.5 115 81.5s104.167 31.5 171.5 31.5c12.667 0 29.167 -2 49.5 -6s37.5 -10.667 51.5 -20l-166 -688h-65z" />
    <glyph glyph-name="r" unicode="r" horiz-adv-x="366" 
d="M201 494c25.333 10 53.166 18.333 83.499 25s60.166 10 89.499 10c15.333 0 30 -1 44 -3s27.333 -5.33301 40 -10l-17 -59c-26 8 -52.667 12 -80 12c-17.333 0 -34.666 -1.33301 -51.999 -4s-34.666 -6.66699 -51.999 -12l-109 -453h-65z" />
    <glyph glyph-name="s" unicode="s" horiz-adv-x="400" 
d="M76 82c24.667 -13.333 46.334 -22.3311 65.001 -26.998s39.667 -7 63 -7c16.667 0 32.667 1.83301 48 5.5s28.666 9.16699 39.999 16.5s20.333 17 27 29s10 26 10 42c0 17.333 -4.83301 31.666 -14.5 42.999s-21.667 21.166 -36 29.499s-29.833 16.5 -46.5 24.5
s-32.167 17.333 -46.5 28s-26.333 24 -36 40s-14.5 36.667 -14.5 62c0 28.667 5.33301 53.167 16 73.5s25 37 43 50s38.667 22.5 62 28.5s47.333 9 72 9c21.333 0 42.5 -1.83301 63.5 -5.5s41.167 -9.16699 60.5 -16.5l-26 -58c-14 6 -30 10.833 -48 14.5
s-36.667 5.5 -56 5.5c-16 0 -31.5 -1.66699 -46.5 -5s-28.167 -8.83301 -39.5 -16.5s-20.5 -17.334 -27.5 -29.001s-10.5 -25.834 -10.5 -42.501c0 -17.333 4.83301 -31.666 14.5 -42.999s21.5 -21.333 35.5 -30s29.5 -16.834 46.5 -24.501s32.5 -16.834 46.5 -27.501
s25.833 -23.5 35.5 -38.5s14.5 -34.167 14.5 -57.5c0 -29.333 -5.5 -54.666 -16.5 -75.999s-25.5 -38.666 -43.5 -51.999s-38.667 -23.166 -62 -29.499s-47.333 -9.5 -72 -9.5c-26 0 -52 2.83301 -78 8.5s-49.667 14.5 -71 26.5z" />
    <glyph glyph-name="t" unicode="t" horiz-adv-x="377" 
d="M238 669l67.998 12.001l-39 -164h182l-13 -56h-183l-61 -253c-3.33301 -12 -6.16602 -24.833 -8.49902 -38.5s-3.5 -27.167 -3.5 -40.5c0 -30 7.33301 -51 22 -63s33 -18 55 -18c21.333 0 39.833 2.33301 55.5 7s32.167 11 49.5 19l6 -59
c-18 -7.33301 -38.167 -13.666 -60.5 -18.999s-44.5 -8 -66.5 -8c-17.333 0 -33.666 2 -48.999 6s-28.833 10.667 -40.5 20s-21 21.666 -28 36.999s-10.5 34.666 -10.5 57.999c0 28.667 4.66699 61.667 14 99z" />
    <glyph glyph-name="u" unicode="u" 
d="M248 -12c-28.667 0 -52.667 3.66699 -72 11s-34.666 17.5 -45.999 30.5s-19.5 28.333 -24.5 46s-7.5 36.834 -7.5 57.501c0 19.333 1.66699 39.833 5 61.5s7.66602 43.5 12.999 65.5l62 257h65l-55 -228l-17.5 -73.5c-6.33301 -25.667 -9.5 -50.167 -9.5 -73.5
c0 -13.333 1.5 -25.666 4.5 -36.999s8.16699 -21.333 15.5 -30s17 -15.334 29 -20.001s27.333 -7 46 -7c32 0 60.167 6.33301 84.5 19s47.166 31 68.499 55c0 18 2.66699 38.667 8 62l15 63l67 270h65l-79 -320c-4 -16.667 -7.33301 -32.334 -10 -47.001s-4 -28.667 -4 -42
c0 -18 1.66699 -35 5 -51s9.33301 -33.667 18 -53l-67 -10c-4 8 -7.5 17.167 -10.5 27.5s-5.16699 20.833 -6.5 31.5c-23.333 -22.667 -48.166 -39.167 -74.499 -49.5s-55.5 -15.5 -87.5 -15.5z" />
    <glyph glyph-name="v" unicode="v" horiz-adv-x="455" 
d="M197 0c-16.667 74 -31.6709 155.333 -45.0039 244s-20.666 179.667 -21.999 273h64c0.666992 -36 2.33398 -74 5.00098 -114s6.33398 -80 11.001 -120s10.167 -78.667 16.5 -116s13.5 -70.666 21.5 -99.999c20 26.667 41.833 58.5 65.5 95.5s46.834 76 69.501 117
s43.5 82 62.5 123s34.167 79.167 45.5 114.5h64c-13.333 -42 -30.666 -86 -51.999 -132s-45 -91.667 -71 -137s-53.833 -89.333 -83.5 -132s-58.834 -81.334 -87.501 -116.001h-64z" />
    <glyph glyph-name="w" unicode="w" horiz-adv-x="763" 
d="M246 0l-68 0.000976562c-14 73.333 -25.167 153.666 -33.5 240.999s-13.166 179.333 -14.499 276h64c0.666992 -35.333 2 -73.833 4 -115.5s4.66699 -83.167 8 -124.5s7 -80.333 11 -117s8.66699 -67.334 14 -92.001c21.333 30 43.166 63.333 65.499 100
s43.666 74.834 63.999 114.501s39.333 79.5 57 119.5s32.5 78.333 44.5 115h67c0 -32.667 0.833008 -68.334 2.5 -107.001s3.83398 -78 6.50098 -118s5.83398 -79.333 9.50098 -118s7.83398 -74 12.501 -106c16 18 35.5 45.167 58.5 81.5s46.167 76 69.5 119
s45.166 86.5 65.499 130.5s35.5 83.333 45.5 118h64c-15.333 -49.333 -35.333 -99.833 -60 -151.5s-50.834 -100.667 -78.501 -147s-55.167 -88.666 -82.5 -126.999s-51.333 -68.833 -72 -91.5h-68c-6.66699 58.667 -13 122 -19 190s-9.66699 135 -11 201
c-13.333 -31.333 -28.833 -64.833 -46.5 -100.5s-36.5 -71 -56.5 -106s-40.5 -68.5 -61.5 -100.5s-41.5 -60 -61.5 -84z" />
    <glyph glyph-name="x" unicode="x" horiz-adv-x="452" 
d="M254 271l-128 246.001h76l101 -209l89.5 111.5c29 37 52.167 69.5 69.5 97.5h72c-29.333 -44 -61.833 -88 -97.5 -132l-103.5 -124l29 -56l32.5 -65.5c11 -23 21.333 -46.333 31 -70s18.167 -46.834 25.5 -69.501h-68c-4.66699 15.333 -10.667 32.5 -18 51.5
s-15.5 38.5 -24.5 58.5l-27.5 59.5l-26 53.5l-196 -223h-79z" />
    <glyph glyph-name="y" unicode="y" horiz-adv-x="452" 
d="M-36 -116c18 -10 38.332 -14.9951 60.999 -14.9951c34 0 67.333 9.33301 100 28s63 47 91 85c-28 88.667 -50 178.667 -66 270s-25.333 179.666 -28 264.999h68c1.33301 -32 3.5 -67 6.5 -105s7.5 -77.667 13.5 -119s13.333 -83.5 22 -126.5
s19.334 -84.833 32.001 -125.5c30 47.333 57 95.166 81 143.499s45 93.833 63 136.5s32.833 81.167 44.5 115.5s20.167 61.166 25.5 80.499h64c-4 -14 -11.333 -37.833 -22 -71.5s-25 -72.834 -43 -117.501s-39.833 -92.834 -65.5 -144.501s-55.167 -102.167 -88.5 -151.5
c-51.333 -76.667 -101 -132.5 -149 -167.5s-98 -52.5 -150 -52.5c-12 0 -25 1 -39 3s-28.667 7 -44 15z" />
    <glyph glyph-name="z" unicode="z" horiz-adv-x="428" 
d="M51 46c13.333 21.333 29.999 44.667 49.999 70s41.5 51 64.5 77l71.5 78l72.5 74l67 65l55.5 51h-269l12 56h353l-12 -51l-54 -50l-71 -68.5l-78 -79l-76.5 -80.5c-24.333 -26 -46.166 -50.5 -65.499 -73.5s-34 -42.5 -44 -58.5h295l-12 -56h-370z" />
    <glyph glyph-name="braceleft" unicode="{" horiz-adv-x="305" 
d="M241 -195c-41.333 0 -73.5 8.16504 -96.5 24.498s-34.5 42.166 -34.5 77.499c0 7.33301 1 17.166 3 29.499s4.66699 25.166 8 38.499l38 154c3.33301 12 5.83301 23.5 7.5 34.5s2.5 21.167 2.5 30.5c0 19.333 -4.5 35.333 -13.5 48s-24.833 20 -47.5 22l12 49
c19.333 0 35.5 4.83301 48.5 14.5s23.833 21.834 32.5 36.501s15.667 30.334 21 47.001s9.66602 32 12.999 46l26 104c9.33301 38 18.333 70.333 27 97s20.334 48.5 35.001 65.5s34 29.5 58 37.5s56 12 96 12l-13 -50c-16.667 0 -31.834 -1.16699 -45.501 -3.5
s-26 -7.33301 -37 -15s-20.667 -18.667 -29 -33s-15.5 -33.166 -21.5 -56.499l-29 -118c-8 -31.333 -15.667 -58.833 -23 -82.5s-15.333 -44.167 -24 -61.5s-18.5 -31.666 -29.5 -42.999s-24.167 -20.333 -39.5 -27c16.667 -10 27.5 -22.333 32.5 -37
s7.5 -30.334 7.5 -47.001c0 -12 -1.16699 -24.167 -3.5 -36.5s-4.83301 -24.166 -7.5 -35.499l-40 -165c-4.66699 -18 -7 -33.667 -7 -47c0 -21.333 7.33301 -36.666 22 -45.999s36.334 -14 65.001 -14l-14 -50v0z" />
    <glyph glyph-name="bar" unicode="|" horiz-adv-x="269" 
d="M291 783h60l-233 -968h-60z" />
    <glyph glyph-name="braceright" unicode="}" horiz-adv-x="305" 
d="M218 773c41.333 0 73.5 -8.16504 96.5 -24.498s34.5 -42.166 34.5 -77.499c0 -7.33301 -1 -17.166 -3 -29.499s-4.66699 -25.166 -8 -38.499l-38 -154c-3.33301 -12 -5.83301 -23.5 -7.5 -34.5s-2.5 -21.167 -2.5 -30.5c0 -19.333 4.5 -35.333 13.5 -48
s24.833 -20 47.5 -22l-12 -49c-19.333 0 -35.5 -4.83301 -48.5 -14.5s-23.833 -21.834 -32.5 -36.501s-15.667 -30.334 -21 -47.001s-9.66602 -32 -12.999 -46l-26 -104c-9.33301 -38 -18.333 -70.5 -27 -97.5s-20.334 -49 -35.001 -66s-34 -29.333 -58 -37
s-56 -11.5 -96 -11.5l13 50c16.667 0 31.834 1.16699 45.501 3.5s26 7.33301 37 15s20.667 18.667 29 33s15.5 33.166 21.5 56.499l29 118c8 31.333 15.667 58.833 23 82.5s15.333 44.167 24 61.5s18.5 31.666 29.5 42.999s24.167 20.333 39.5 27
c-16.667 10 -27.5 22.333 -32.5 37s-7.5 30.334 -7.5 47.001c0 12 1.16699 24.167 3.5 36.5s4.83301 24.166 7.5 35.499l40 165c4.66699 18 7 33.667 7 47c0 21.333 -7.33301 36.666 -22 45.999s-36.334 14 -65.001 14l14 50v0z" />
    <glyph glyph-name="asciitilde" unicode="~" horiz-adv-x="564" 
d="M106 236c4.66699 11.333 11.001 24.333 19.001 39s18.167 28.5 30.5 41.5s26.833 24 43.5 33s36 13.5 58 13.5c21.333 0 39.5 -4.83301 54.5 -14.5s29 -20.334 42 -32.001s26.167 -22.334 39.5 -32.001s29 -14.5 47 -14.5c14 0 26.333 3.5 37 10.5
s19.834 15.167 27.501 24.5s13.834 18.5 18.501 27.5l10 19.5l48 -16c-4 -10.667 -9.83301 -23.334 -17.5 -38.001s-17.834 -28.5 -30.501 -41.5s-27.667 -24 -45 -33s-37.333 -13.5 -60 -13.5c-21.333 0 -39.5 4.83301 -54.5 14.5s-29 20.334 -42 32.001
s-26 22.334 -39 32.001s-28.167 14.5 -45.5 14.5c-14 0 -26.333 -3.66699 -37 -11s-19.834 -15.666 -27.501 -24.999s-13.834 -18.5 -18.501 -27.5l-10 -19.5z" />
    <glyph glyph-name="uni00A0" unicode="&#xa0;" horiz-adv-x="232" 
 />
    <glyph glyph-name="exclamdown" unicode="&#xa1;" horiz-adv-x="266" 
d="M222 295c-6.66699 -17.333 -14.165 -39.833 -22.498 -67.5l-25 -84.5l-22.5 -80.5l-14 -53.5l-46 -194h70l46 193c13.333 56.667 23.666 107.667 30.999 153s13.666 90 18.999 134h-36zM282.002 520c17.333 0 30 -4.83301 38 -14.5s12 -20.834 12 -33.501
c0 -14.667 -5 -28.5 -15 -41.5s-24 -19.5 -42 -19.5c-17.333 0 -30 4.83301 -38 14.5s-12 20.834 -12 33.501c0 14.667 5 28.5 15 41.5s24 19.5 42 19.5z" />
    <glyph glyph-name="cent" unicode="&#xa2;" horiz-adv-x="564" 
d="M291 34c-26 5.33301 -48.167 14.002 -66.5 26.002s-33 26.167 -44 42.5s-19 34.666 -24 54.999s-7.5 41.5 -7.5 63.5c0 37.333 5.83301 74 17.5 110s28.667 69 51 99s50 55.667 83 77s70.833 35.666 113.5 42.999l35 143h59l-34 -141c16.667 0 35 -2.16699 55 -6.5
s38.333 -10.166 55 -17.499l-26 -57c-18 8.66699 -35.667 14.834 -53 18.501s-34.666 5.5 -51.999 5.5c-33.333 0 -64.333 -7 -93 -21s-53.834 -33.333 -75.501 -58s-38.667 -53.834 -51 -87.501s-18.5 -69.834 -18.5 -108.501c0 -23.333 3.83301 -43.333 11.5 -60
s18 -30.334 31 -41.001s28.167 -18.5 45.5 -23.5s35.333 -7.5 54 -7.5c20.667 0 41.5 2.66699 62.5 8s40.5 13 58.5 23l4 -58c-10 -5.33301 -27.333 -11.666 -52 -18.999s-51.667 -11 -81 -11l-34 -140h-59z" />
    <glyph glyph-name="sterling" unicode="&#xa3;" horiz-adv-x="564" 
d="M146 364h96.0049l22 92c11.333 48 25.333 88 42 120s35.667 57.667 57 77s45 33 71 41s54.333 12 85 12c22.667 0 44.667 -3 66 -9s40.666 -14 57.999 -24l-31 -54c-28.667 17.333 -63.667 26 -105 26c-20.667 0 -39.834 -2.83301 -57.501 -8.5
s-33.834 -15.667 -48.501 -30s-27.834 -33.666 -39.501 -57.999s-21.834 -54.833 -30.501 -91.5l-22 -93h196l-14 -55h-195c-7.33301 -35.333 -17.833 -75.5 -31.5 -120.5s-29.167 -88.833 -46.5 -131.5h299l-14 -57h-374l54.5 149c19 53.333 34.167 106.666 45.5 159.999
h-96z" />
    <glyph glyph-name="currency" unicode="&#xa4;" horiz-adv-x="564" 
d="M183 347c0 22 3 42.833 9 62.5s14.667 37.167 26 52.5l-74 76l40 41l76 -78c15.333 11.333 32.333 20 51 26s38.334 9 59.001 9s40.334 -3 59.001 -9s35.667 -14.667 51 -26l76 78l40 -41l-74 -76c11.333 -15.333 20 -32.833 26 -52.5s9 -40.5 9 -62.5
s-3 -42.833 -9 -62.5s-14.667 -37.167 -26 -52.5l74 -76l-40 -41l-76 78c-15.333 -11.333 -32.333 -20 -51 -26s-38.334 -9 -59.001 -9s-40.334 3 -59.001 9s-35.667 14.667 -51 26l-76 -78l-40 41l74 76c-11.333 15.333 -20 32.833 -26 52.5s-9 40.5 -9 62.5zM499 347
c0 20 -3.33301 38.333 -10 55s-15.834 31 -27.501 43s-25.334 21.333 -41.001 28s-32.5 10 -50.5 10s-34.833 -3.33301 -50.5 -10s-29.334 -16 -41.001 -28s-20.834 -26.333 -27.501 -43s-10 -35 -10 -55s3.33301 -38.333 10 -55s15.834 -31 27.501 -43
s25.334 -21.333 41.001 -28s32.5 -10 50.5 -10s34.833 3.33301 50.5 10s29.334 16 41.001 28s20.834 26.333 27.501 43s10 35 10 55z" />
    <glyph glyph-name="yen" unicode="&#xa5;" horiz-adv-x="564" 
d="M362 372c48 52.667 93.499 106 136.499 160l123.5 161h66l-64 -86l-66.5 -87l-73 -89c-25.667 -30 -53.5 -60.333 -83.5 -91h156l-13 -53h-168l-28 -119h168l-13 -53h-168l-28 -115h-65l28 115h-167l13 53h167l28 119h-167l13 53h153
c-25.333 62 -47.666 121.833 -66.999 179.5s-36.333 115.5 -51 173.5h69c12 -56.667 26.167 -111.167 42.5 -163.5s35.833 -104.833 58.5 -157.5z" />
    <glyph glyph-name="brokenbar" unicode="&#xa6;" horiz-adv-x="263" 
d="M295 783h62l-90 -376h-63zM152 190h62l-90 -375h-62z" />
    <glyph glyph-name="section" unicode="&#xa7;" horiz-adv-x="492" 
d="M131 284c0 38 12.0049 71.4941 36.0049 100.494s56.333 55.167 97 78.5c-10 12.667 -17.667 26.167 -23 40.5s-8 28.166 -8 41.499c0 28.667 6 53.334 18 74.001s27.833 37.5 47.5 50.5s42.167 22.667 67.5 29s51.333 9.5 78 9.5c25.333 0 50.166 -2.66699 74.499 -8
s46.166 -13 65.499 -23l-28 -51c-15.333 10.667 -33 18.5 -53 23.5s-40 7.5 -60 7.5c-18.667 0 -36.667 -2.16699 -54 -6.5s-32.666 -10.666 -45.999 -18.999s-24 -18.666 -32 -30.999s-12 -26.5 -12 -42.5c0 -21.333 5.83301 -38 17.5 -50s26 -22 43 -30
s35.667 -15.333 56 -22s39 -15.167 56 -25.5s31.333 -24 43 -41s17.5 -39.5 17.5 -67.5c0 -37.333 -12 -70.166 -36 -98.499s-55 -53.166 -93 -74.499c12 -9.33301 21.667 -21.166 29 -35.499s11 -31.166 11 -50.499c0 -30 -6.33301 -55.833 -19 -77.5
s-29.334 -39.5 -50.001 -53.5s-44.334 -24.333 -71.001 -31s-54.334 -10 -83.001 -10s-57 3 -85 9s-53.667 15 -77 27l31 56c17.333 -12 38 -21 62 -27s48.333 -9 73 -9c19.333 0 38.166 2 56.499 6s34.5 10.333 48.5 19s25.333 19.5 34 32.5s13 28.5 13 46.5
c0 18.667 -6 33.667 -18 45s-27.167 20.833 -45.5 28.5s-38 15 -59 22s-40.667 16 -59 27s-33.5 25.167 -45.5 42.5s-18 40 -18 68zM197.005 293.994c0 -20 5.66602 -36.501 16.999 -49.501s29.666 -24.5 54.999 -34.5l80 -33c34.667 14.667 62.834 34.334 84.501 59.001
s32.5 49.667 32.5 75c0 16.667 -4.66699 31.834 -14 45.501s-28.666 26.167 -57.999 37.5l-94 37c-13.333 -7.33301 -26.166 -15.666 -38.499 -24.999s-23.333 -19.833 -33 -31.5s-17.334 -24.334 -23.001 -38.001s-8.5 -27.834 -8.5 -42.501z" />
    <glyph glyph-name="dieresis" unicode="&#xa8;" horiz-adv-x="336" 
d="M392 625c-15.333 0 -26.5 4.1709 -33.5 12.5039s-10.5 18.166 -10.5 29.499c0 13.333 4.5 25.666 13.5 36.999s21.5 17 37.5 17c14.667 0 25.5 -4.33301 32.5 -13s10.5 -18.334 10.5 -29.001c0 -12.667 -4.33301 -24.834 -13 -36.501s-21 -17.5 -37 -17.5zM219 625.004
c-14.667 0 -25.5 4.1709 -32.5 12.5039s-10.5 18.166 -10.5 29.499c0 13.333 4.33301 25.666 13 36.999s21 17 37 17c15.333 0 26.5 -4.33301 33.5 -13s10.5 -18.334 10.5 -29.001c0 -12.667 -4.5 -24.834 -13.5 -36.501s-21.5 -17.5 -37.5 -17.5z" />
    <glyph glyph-name="copyright" unicode="&#xa9;" horiz-adv-x="754" 
d="M462 142c-26 0 -50.165 4.66699 -72.498 14s-41.833 22.666 -58.5 39.999s-29.667 38.833 -39 64.5s-14 54.834 -14 87.501c0 32 5.16699 60.5 15.5 85.5s24.166 46.333 41.499 64s37.333 31 60 40s46.334 13.5 71.001 13.5c32.667 0 59.167 -4.5 79.5 -13.5
s34.166 -16.167 41.499 -21.5l-19 -45c-10 5.33301 -22.833 11.166 -38.5 17.499s-36.834 9.5 -63.501 9.5c-36.667 0 -67.167 -13 -91.5 -39s-36.5 -63 -36.5 -111c0 -49.333 11.833 -87.166 35.5 -113.499s55.834 -39.5 96.501 -39.5c28.667 0 51.167 3.16699 67.5 9.5
s28.166 11.833 35.499 16.5l17 -48c-8.66699 -5.33301 -24 -11.833 -46 -19.5s-49.333 -11.5 -82 -11.5zM796.002 347c0 -57.333 -9.33301 -108.333 -28 -153s-43.5 -82.5 -74.5 -113.5s-67 -54.667 -108 -71s-83.833 -24.5 -128.5 -24.5s-87.5 8.16699 -128.5 24.5
s-77 40 -108 71s-55.833 68.833 -74.5 113.5s-28 95.667 -28 153c0 56.667 9.33301 107.5 28 152.5s43.5 82.833 74.5 113.5s67 54.167 108 70.5s83.833 24.5 128.5 24.5s87.5 -8.16699 128.5 -24.5s77 -39.833 108 -70.5s55.833 -68.5 74.5 -113.5s28 -95.833 28 -152.5z
M737.002 347c0 46 -7 88 -21 126s-33.333 70.5 -58 97.5s-54.167 47.833 -88.5 62.5s-71.833 22 -112.5 22s-78.167 -7.33301 -112.5 -22s-63.833 -35.5 -88.5 -62.5s-44 -59.5 -58 -97.5s-21 -80 -21 -126s7 -88 21 -126s33.333 -70.5 58 -97.5s54.167 -48 88.5 -63
s71.833 -22.5 112.5 -22.5s78.167 7.5 112.5 22.5s63.833 36 88.5 63s44 59.5 58 97.5s21 80 21 126z" />
    <glyph glyph-name="ordfeminine" unicode="&#xaa;" horiz-adv-x="434" 
d="M446 652c-3.33301 1.33301 -6.66699 2.33496 -10 3.00195s-8 1 -14 1c-28 0 -53.333 -6 -76 -18s-41.667 -27.5 -57 -46.5s-27.166 -40.5 -35.499 -64.5s-12.5 -47.667 -12.5 -71c0 -28 6.33301 -47.667 19 -59s28.667 -17 48 -17c13.333 0 27.666 2.66699 42.999 8
s30 13 44 23c-0.666992 3.33301 -1 7.33301 -1 12v10c0 5.33301 0.5 12.666 1.5 21.999s3.5 21.666 7.5 36.999zM421.999 328.002c-4 6 -7.00195 11.498 -9.00195 16.498l-7 17.5c-12 -7.33301 -26.667 -14.166 -44 -20.499s-38.666 -9.5 -63.999 -9.5
c-38 0 -66.667 11.167 -86 33.5s-29 53.5 -29 93.5c0 29.333 5.5 58.5 16.5 87.5s27.333 55.167 49 78.5s48.334 42.333 80.001 57s68.167 22 109.5 22c8.66699 0 21.167 -1.66699 37.5 -5s29.833 -7.66602 40.5 -12.999c-6 -22.667 -13 -46.667 -21 -72l-22.5 -73.5
c-7 -23.667 -12.833 -45.667 -17.5 -66s-7 -37.166 -7 -50.499c0 -12.667 2.33301 -26.334 7 -41.001s12 -29.667 22 -45z" />
    <glyph glyph-name="guillemotleft" unicode="&#xab;" horiz-adv-x="478" 
d="M232 72l-114 212l189 211l36 -30l-148 -185l83 -186zM409 72l-114 212l189 211l36 -30l-148 -185l83 -186z" />
    <glyph glyph-name="logicalnot" unicode="&#xac;" horiz-adv-x="564" 
d="M497 54h-58l66 276h-374l13 56h432z" />
    <glyph glyph-name="uni00AD" unicode="&#xad;" horiz-adv-x="279" 
d="M94 321h228l-15 -63h-228z" />
    <glyph glyph-name="registered" unicode="&#xae;" horiz-adv-x="754" 
d="M565 149c-17.333 31.333 -35.334 61.165 -54.001 89.498s-35 50.833 -49 67.5c-4.66699 -0.666992 -9 -1 -13 -1h-11h-63v-156h-55v387c15.333 3.33301 32.5 6 51.5 8s36.833 3 53.5 3c56.667 0 99.834 -10.333 129.501 -31s44.5 -52 44.5 -94
c0 -24 -6.66699 -45.5 -20 -64.5s-33 -33.167 -59 -42.5c5.33301 -6 12.5 -15.167 21.5 -27.5s18.5 -26.166 28.5 -41.499s20 -31.666 30 -48.999s18.667 -33.333 26 -48h-61zM374.999 349.999h49.998c16.667 0 32 1 46 3s26.167 5.83301 36.5 11.5s18.333 13.167 24 22.5
s8.5 21.333 8.5 36c0 14 -3.16699 25.833 -9.5 35.5s-14.666 17.5 -24.999 23.5s-22.166 10.333 -35.499 13s-27.333 4 -42 4c-10 0 -19.5 -0.166992 -28.5 -0.5s-17.167 -0.833008 -24.5 -1.5v-147zM795.997 346.999c0 -57.333 -9.33301 -108.333 -28 -153
s-43.5 -82.5 -74.5 -113.5s-67 -54.667 -108 -71s-83.833 -24.5 -128.5 -24.5s-87.5 8.16699 -128.5 24.5s-77 40 -108 71s-55.833 68.833 -74.5 113.5s-28 95.667 -28 153c0 56.667 9.33301 107.5 28 152.5s43.5 82.833 74.5 113.5s67 54.167 108 70.5
s83.833 24.5 128.5 24.5s87.5 -8.16699 128.5 -24.5s77 -39.833 108 -70.5s55.833 -68.5 74.5 -113.5s28 -95.833 28 -152.5zM736.997 346.999c0 46 -7 88 -21 126s-33.333 70.5 -58 97.5s-54.167 47.833 -88.5 62.5s-71.833 22 -112.5 22s-78.167 -7.33301 -112.5 -22
s-63.833 -35.5 -88.5 -62.5s-44 -59.5 -58 -97.5s-21 -80 -21 -126s7 -88 21 -126s33.333 -70.5 58 -97.5s54.167 -48 88.5 -63s71.833 -22.5 112.5 -22.5s78.167 7.5 112.5 22.5s63.833 36 88.5 63s44 59.5 58 97.5s21 80 21 126z" />
    <glyph glyph-name="macron" unicode="&#xaf;" horiz-adv-x="336" 
d="M176 647l13 57h259l-13 -57h-259z" />
    <glyph glyph-name="degree" unicode="&#xb0;" horiz-adv-x="309" 
d="M298 511c-17.333 0 -33.833 3 -49.5 9s-29.5 14.5 -41.5 25.5s-21.5 24.667 -28.5 41s-10.5 34.833 -10.5 55.5s3.5 39.167 10.5 55.5s16.5 30 28.5 41s25.833 19.5 41.5 25.5s32.167 9 49.5 9s33.833 -3 49.5 -9s29.5 -14.5 41.5 -25.5s21.5 -24.667 28.5 -41
s10.5 -34.833 10.5 -55.5s-3.5 -39.167 -10.5 -55.5s-16.5 -30 -28.5 -41s-25.833 -19.5 -41.5 -25.5s-32.167 -9 -49.5 -9zM298 556c23.333 0 42.833 7.66699 58.5 23s23.5 36.333 23.5 63s-7.83301 47.667 -23.5 63s-35.167 23 -58.5 23s-42.833 -7.66699 -58.5 -23
s-23.5 -36.333 -23.5 -63s7.83301 -47.667 23.5 -63s35.167 -23 58.5 -23z" />
    <glyph glyph-name="plusminus" unicode="&#xb1;" horiz-adv-x="564" 
d="M336 345h-191l14 56h190l53 217h59l-53 -217h190l-14 -56h-189l-53 -218h-58zM87 57h429l-13 -56h-429z" />
    <glyph glyph-name="twosuperior" unicode="&#xb2;" horiz-adv-x="363" 
d="M135 317c2 30 9.49707 55.5 22.4971 76.5s28.667 39.167 47 54.5s37.833 28.833 58.5 40.5s39.834 23.334 57.501 35.001s32.334 24.167 44.001 37.5s17.5 29.666 17.5 48.999c0 16.667 -5.16699 29.167 -15.5 37.5s-23.166 12.5 -38.499 12.5
c-20.667 0 -39.834 -3.33301 -57.501 -10s-32.5 -14.667 -44.5 -24l-19 37c19.333 16 39 27.5 59 34.5s41 10.5 63 10.5c14 0 27.5 -1.5 40.5 -4.5s24.667 -8 35 -15s18.5 -16.667 24.5 -29s9 -27.5 9 -45.5c0 -21.333 -5.5 -40.333 -16.5 -57s-24.667 -31.667 -41 -45
s-34.5 -25.833 -54.5 -37.5s-38.833 -23.167 -56.5 -34.5s-33.167 -23 -46.5 -35s-21.666 -25.333 -24.999 -40h190l-12 -48h-241z" />
    <glyph glyph-name="threesuperior" unicode="&#xb3;" horiz-adv-x="363" 
d="M157 377c12 -6.66699 26.001 -11.666 42.001 -14.999s32.333 -5 49 -5c36 0 64.5 7.5 85.5 22.5s31.5 34.5 31.5 58.5c0 21.333 -8.5 36.833 -25.5 46.5s-45.5 14.5 -85.5 14.5h-6l11 45h22c36 0 63.333 7.33301 82 22s28 31.667 28 51c0 29.333 -19.667 44 -59 44
c-17.333 0 -35 -2.5 -53 -7.5s-32 -10.167 -42 -15.5l-11 40c16.667 9.33301 35.167 16.666 55.5 21.999s41.166 8 62.499 8c34 0 59.333 -8.33301 76 -25s25 -36 25 -58c0 -19.333 -7 -38.833 -21 -58.5s-35 -34.834 -63 -45.501
c21.333 -7.33301 36.666 -18.166 45.999 -32.499s14 -30.166 14 -47.499c0 -15.333 -3.33301 -30.833 -10 -46.5s-17 -29.834 -31 -42.501s-32.167 -23 -54.5 -31s-49.166 -12 -80.499 -12c-19.333 0 -38.5 2 -57.5 6s-36.167 10 -51.5 18z" />
    <glyph glyph-name="acute" unicode="&#xb4;" horiz-adv-x="336" 
d="M420 711l-175 -128l-29 44l166 146z" />
    <glyph glyph-name="mu" unicode="&#xb5;" horiz-adv-x="561" 
d="M277 -12c-30 0 -54.667 4.66992 -74 14.0029s-34.666 21 -45.999 35l-54 -222h-65l169 702h65l-55 -228c-5.33301 -23.333 -11.5 -48.166 -18.5 -74.499s-10.5 -51.166 -10.5 -74.499c0 -30 6.83301 -52.833 20.5 -68.5s39.167 -23.5 76.5 -23.5
c32 0 59.833 5.16699 83.5 15.5s46.167 26.166 67.5 47.499c0.666992 17.333 3.16699 36.5 7.5 57.5s10.166 47.167 17.499 78.5l67 270h65l-79 -320c-3.33301 -12.667 -6.16602 -25.5 -8.49902 -38.5s-3.5 -24.833 -3.5 -35.5c0 -8.66699 0.666992 -16.834 2 -24.501
s4.16602 -14.834 8.49902 -21.501s10.833 -12.334 19.5 -17.001s20 -8.33398 34 -11.001l-16 -58c-6.66699 0 -15.167 1 -25.5 3s-20.5 5.33301 -30.5 10s-19.333 10.667 -28 18s-15 16.333 -19 27c-26 -21.333 -53.333 -36.833 -82 -46.5s-58 -14.5 -88 -14.5z" />
    <glyph glyph-name="paragraph" unicode="&#xb6;" horiz-adv-x="585" 
d="M341 264c-34 0 -63.666 4.66699 -88.999 14s-46.5 22 -63.5 38s-29.667 34.333 -38 55s-12.5 42.667 -12.5 66c0 33.333 7.33301 65.833 22 97.5s37 59.667 67 84s67.667 44 113 59s98.333 22.5 159 22.5c13.333 0 28.166 -0.333008 44.499 -1s32.5 -1.66699 48.5 -3
s31.167 -3 45.5 -5s26.5 -4.66699 36.5 -8l-208 -868h-58l198 821c-14 1.33301 -27.5 2.5 -40.5 3.5s-26.5 1.5 -40.5 1.5h-16.5c-5.66699 0 -11.5 -0.333008 -17.5 -1l-199 -825h-58z" />
    <glyph glyph-name="periodcentered" unicode="&#xb7;" horiz-adv-x="203" 
d="M168 287c-17.333 0 -30 4.83301 -38 14.5s-12 20.834 -12 33.501c0 14.667 5 28.5 15 41.5s24 19.5 42 19.5c17.333 0 30 -4.83301 38 -14.5s12 -20.834 12 -33.501c0 -14.667 -5 -28.5 -15 -41.5s-24 -19.5 -42 -19.5z" />
    <glyph glyph-name="cedilla" unicode="&#xb8;" horiz-adv-x="336" 
d="M53 -132c14.667 -6 31.001 -9 49.001 -9c15.333 0 27.666 2.33301 36.999 7s14 12.667 14 24c0 10 -3.16699 18 -9.5 24s-18.833 12.667 -37.5 20c3.33301 6.66699 7.83301 14.334 13.5 23.001l17.5 25.5c6 8.33301 11.667 15.833 17 22.5l12 15h47l-20.5 -28.5
l-20.5 -29.5c15.333 -8.66699 26.5 -17.5 33.5 -26.5s10.5 -21.5 10.5 -37.5c0 -27.333 -10.5 -48.333 -31.5 -63s-47.5 -22 -79.5 -22c-11.333 0 -22.5 0.666992 -33.5 2s-23.167 4.66602 -36.5 9.99902z" />
    <glyph glyph-name="onesuperior" unicode="&#xb9;" horiz-adv-x="363" 
d="M267 317l73.998 308.002c-19.333 -13.333 -39.666 -23.833 -60.999 -31.5s-36.666 -12.834 -45.999 -15.501l-8 42c32.667 11.333 60.667 23.166 84 35.499s45.333 26.833 66 43.5h36l-91 -382h-54z" />
    <glyph glyph-name="ordmasculine" unicode="&#xba;" horiz-adv-x="444" 
d="M387 656c-22 0 -42 -5.83301 -60 -17.5s-33.333 -26.5 -46 -44.5s-22.5 -38 -29.5 -60s-10.5 -43.667 -10.5 -65c0 -59.333 23.667 -89 71 -89c22 0 42 5.83301 60 17.5s33.333 26.5 46 44.5s22.5 38 29.5 60s10.5 43.667 10.5 65c0 59.333 -23.667 89 -71 89zM298 331
c-20 0 -37.168 3.50195 -51.501 10.502s-26.333 16.5 -36 28.5s-16.667 25.667 -21 41s-6.5 31.666 -6.5 48.999c0 29.333 4.83301 58.5 14.5 87.5s23.667 55.167 42 78.5s41 42.333 68 57s58.167 22 93.5 22c20 0 37.167 -3.5 51.5 -10.5s26.333 -16.5 36 -28.5
s16.667 -25.833 21 -41.5s6.5 -31.834 6.5 -48.501c0 -29.333 -4.83301 -58.5 -14.5 -87.5s-23.667 -55.167 -42 -78.5s-41.166 -42.333 -68.499 -57s-58.333 -22 -93 -22z" />
    <glyph glyph-name="guillemotright" unicode="&#xbb;" horiz-adv-x="478" 
d="M396 495l114 -212l-189 -211l-36 30l148 185l-83 186zM219 495l114 -212l-189 -211l-36 30l148 185l-83 186z" />
    <glyph glyph-name="onequarter" unicode="&#xbc;" horiz-adv-x="878" 
d="M725 693h70l-561 -693h-70zM246 317l73.998 308.002c-19.333 -13.333 -39.666 -23.833 -60.999 -31.5s-36.666 -12.834 -45.999 -15.501l-8 42c32.667 11.333 60.667 23.166 84 35.499s45.333 26.833 66 43.5h36l-91 -382h-54zM499.998 97.002l8.00195 33
c10.667 16.667 25.667 36.667 45 60s40.666 47 63.999 71s47.666 46.833 72.999 68.5s49 39.5 71 53.5h47l-58 -242h48l-11 -44h-47l-23 -96h-53l22 96h-186zM698 141.002l43 180.001c-30.667 -24 -61.167 -51.833 -91.5 -83.5s-57.833 -63.834 -82.5 -96.501h131z" />
    <glyph glyph-name="onehalf" unicode="&#xbd;" horiz-adv-x="878" 
d="M735 693h70l-561 -693h-70zM256 317l73.998 308.002c-19.333 -13.333 -39.666 -23.833 -60.999 -31.5s-36.666 -12.834 -45.999 -15.501l-8 42c32.667 11.333 60.667 23.166 84 35.499s45.333 26.833 66 43.5h36l-91 -382h-54zM556.998 1.00195
c2 30 9.49707 55.5 22.4971 76.5s28.667 39.167 47 54.5s37.833 28.833 58.5 40.5s39.834 23.334 57.501 35.001s32.334 24.167 44.001 37.5s17.5 29.666 17.5 48.999c0 16.667 -5.16699 29.167 -15.5 37.5s-23.166 12.5 -38.499 12.5
c-20.667 0 -39.834 -3.33301 -57.501 -10s-32.5 -14.667 -44.5 -24l-19 37c19.333 16 39 27.5 59 34.5s41 10.5 63 10.5c14 0 27.5 -1.5 40.5 -4.5s24.667 -8 35 -15s18.5 -16.667 24.5 -29s9 -27.5 9 -45.5c0 -21.333 -5.5 -40.333 -16.5 -57s-24.667 -31.667 -41 -45
s-34.5 -25.833 -54.5 -37.5s-38.833 -23.167 -56.5 -34.5s-33.167 -23 -46.5 -35s-21.666 -25.333 -24.999 -40h190l-12 -48h-241z" />
    <glyph glyph-name="threequarters" unicode="&#xbe;" horiz-adv-x="878" 
d="M762 693h70l-561 -693h-70zM147 377c12 -6.66699 26.001 -11.666 42.001 -14.999s32.333 -5 49 -5c36 0 64.5 7.5 85.5 22.5s31.5 34.5 31.5 58.5c0 21.333 -8.5 36.833 -25.5 46.5s-45.5 14.5 -85.5 14.5h-6l11 45h22c36 0 63.333 7.33301 82 22s28 31.667 28 51
c0 29.333 -19.667 44 -59 44c-17.333 0 -35 -2.5 -53 -7.5s-32 -10.167 -42 -15.5l-11 40c16.667 9.33301 35.167 16.666 55.5 21.999s41.166 8 62.499 8c34 0 59.333 -8.33301 76 -25s25 -36 25 -58c0 -19.333 -7 -38.833 -21 -58.5s-35 -34.834 -63 -45.501
c21.333 -7.33301 36.666 -18.166 45.999 -32.499s14 -30.166 14 -47.499c0 -15.333 -3.33301 -30.833 -10 -46.5s-17 -29.834 -31 -42.501s-32.167 -23 -54.5 -31s-49.166 -12 -80.499 -12c-19.333 0 -38.5 2 -57.5 6s-36.167 10 -51.5 18zM561.001 97.001l8.00195 33
c10.667 16.667 25.667 36.667 45 60s40.666 47 63.999 71s47.666 46.833 72.999 68.5s49 39.5 71 53.5h47l-58 -242h48l-11 -44h-47l-23 -96h-53l22 96h-186zM759.003 141.001l43 180.001c-30.667 -24 -61.167 -51.833 -91.5 -83.5s-57.833 -63.834 -82.5 -96.501h131z" />
    <glyph glyph-name="questiondown" unicode="&#xbf;" horiz-adv-x="385" 
d="M345 307c0 -25.333 -6.16992 -47.9971 -18.5029 -67.9971s-28 -38.833 -47 -56.5s-39.333 -34.834 -61 -51.501s-42 -34.167 -61 -52.5s-34.667 -38.333 -47 -60s-18.5 -46.167 -18.5 -73.5c0 -24.667 4 -45.5 12 -62.5s18.833 -30.667 32.5 -41s29.5 -17.833 47.5 -22.5
s37 -7 57 -7c24.667 0 49.334 3 74.001 9s47 13.667 67 23l-8 55c-16 -7.33301 -34.833 -14 -56.5 -20s-43.167 -9 -64.5 -9c-12 0 -23.5 1.33301 -34.5 4s-20.667 7 -29 13s-15 13.833 -20 23.5s-7.5 21.834 -7.5 36.501c0 26 7.33301 49.667 22 71
s40.334 45.666 77.001 72.999l12 9c18 14 34.5 28.167 49.5 42.5s28.167 29.666 39.5 45.999s20.333 34.166 27 53.499s10.334 41 11.001 65h-55zM390.997 532.003c17.333 0 30 -4.83301 38 -14.5s12 -20.834 12 -33.501c0 -14.667 -5 -28.5 -15 -41.5s-24 -19.5 -42 -19.5
c-17.333 0 -30 4.83301 -38 14.5s-12 20.834 -12 33.501c0 14.667 5 28.5 15 41.5s24 19.5 42 19.5z" />
    <glyph glyph-name="Agrave" unicode="&#xc0;" horiz-adv-x="622" 
d="M546 0c-3.33301 32 -6.83301 63.667 -10.5 95l-11.5 95h-326l-52 -93l-52 -97h-74c68.667 124 139.334 244.667 212.001 362l214 331h73c16.667 -97.333 33.167 -202.5 49.5 -315.5s32.166 -238.833 47.499 -377.5h-70zM465 615l-119 -183l-114 -184h285
c-7.33301 60 -15.333 120.167 -24 180.5zM442 923l146 -155l-35 -35l-164 132z" />
    <glyph glyph-name="Aacute" unicode="&#xc1;" horiz-adv-x="622" 
d="M546 0c-3.33301 32 -6.83301 63.667 -10.5 95l-11.5 95h-326l-52 -93l-52 -97h-74c68.667 124 139.334 244.667 212.001 362l214 331h73c16.667 -97.333 33.167 -202.5 49.5 -315.5s32.166 -238.833 47.499 -377.5h-70zM465 615l-119 -183l-114 -184h285
c-7.33301 60 -15.333 120.167 -24 180.5zM635 861l-175 -128l-29 44l166 146z" />
    <glyph glyph-name="Acircumflex" unicode="&#xc2;" horiz-adv-x="622" 
d="M546 0c-3.33301 32 -6.83301 63.667 -10.5 95l-11.5 95h-326l-52 -93l-52 -97h-74c68.667 124 139.334 244.667 212.001 362l214 331h73c16.667 -97.333 33.167 -202.5 49.5 -315.5s32.166 -238.833 47.499 -377.5h-70zM465 615l-119 -183l-114 -184h285
c-7.33301 60 -15.333 120.167 -24 180.5zM390 734l-26 33l169 147l99 -147l-34 -33l-81 96z" />
    <glyph glyph-name="Atilde" unicode="&#xc3;" horiz-adv-x="622" 
d="M546 0c-3.33301 32 -6.83301 63.667 -10.5 95l-11.5 95h-326l-52 -93l-52 -97h-74c68.667 124 139.334 244.667 212.001 362l214 331h73c16.667 -97.333 33.167 -202.5 49.5 -315.5s32.166 -238.833 47.499 -377.5h-70zM465 615l-119 -183l-114 -184h285
c-7.33301 60 -15.333 120.167 -24 180.5zM566 781c-12.667 0 -23.667 2.00195 -33 6.00195s-18.333 8.5 -27 13.5s-17.5 9.5 -26.5 13.5s-19.5 6 -31.5 6c-14.667 0 -26.667 -3.83301 -36 -11.5s-19.333 -19.167 -30 -34.5l-36 22c5.33301 9.33301 11.333 18.666 18 27.999
s14.5 17.666 23.5 24.999s19.5 13.166 31.5 17.499s26.333 6.5 43 6.5c12 0 22.667 -2 32 -6s18.333 -8.5 27 -13.5s17.667 -9.5 27 -13.5s20 -6 32 -6c14.667 0 26.667 3.83301 36 11.5s19.333 19.167 30 34.5l36 -23c-5.33301 -9.33301 -11.333 -18.666 -18 -27.999
s-14.5 -17.5 -23.5 -24.5s-19.5 -12.667 -31.5 -17s-26.333 -6.5 -43 -6.5z" />
    <glyph glyph-name="Adieresis" unicode="&#xc4;" horiz-adv-x="622" 
d="M546 0c-3.33301 32 -6.83301 63.667 -10.5 95l-11.5 95h-326l-52 -93l-52 -97h-74c68.667 124 139.334 244.667 212.001 362l214 331h73c16.667 -97.333 33.167 -202.5 49.5 -315.5s32.166 -238.833 47.499 -377.5h-70zM465 615l-119 -183l-114 -184h285
c-7.33301 60 -15.333 120.167 -24 180.5zM598 779c-15.333 0 -26.5 4.1709 -33.5 12.5039s-10.5 18.166 -10.5 29.499c0 13.333 4.5 25.666 13.5 36.999s21.5 17 37.5 17c14.667 0 25.5 -4.33301 32.5 -13s10.5 -18.334 10.5 -29.001
c0 -12.667 -4.33301 -24.834 -13 -36.501s-21 -17.5 -37 -17.5zM425 779.004c-14.667 0 -25.5 4.1709 -32.5 12.5039s-10.5 18.166 -10.5 29.499c0 13.333 4.33301 25.666 13 36.999s21 17 37 17c15.333 0 26.5 -4.33301 33.5 -13s10.5 -18.334 10.5 -29.001
c0 -12.667 -4.5 -24.834 -13.5 -36.501s-21.5 -17.5 -37.5 -17.5z" />
    <glyph glyph-name="Aring" unicode="&#xc5;" horiz-adv-x="622" 
d="M586 737c0 -22 -5.50293 -40.668 -16.5029 -56.001s-25.167 -26.666 -42.5 -33.999c15.333 -92.667 30.333 -191.5 45 -296.5s29.334 -221.833 44.001 -350.5h-70c-3.33301 32 -6.83301 63.667 -10.5 95l-11.5 95h-326l-52 -93l-52 -97h-74
c64.667 116.667 132 231.667 202 345l205 319c-21.333 18 -32 42.333 -32 73c0 28.667 9.5 51.667 28.5 69s41.5 26 67.5 26c12.667 0 24.834 -2.33301 36.501 -7s21.834 -11.167 30.501 -19.5s15.5 -18.333 20.5 -30s7.5 -24.5 7.5 -38.5zM464.997 614.999l-119 -183
l-114 -184h285c-7.33301 60 -15.333 120.167 -24 180.5zM547.997 736.999c0 18.667 -5.5 33.167 -16.5 43.5s-24.5 15.5 -40.5 15.5s-29.5 -5.16699 -40.5 -15.5s-16.5 -24.833 -16.5 -43.5c0 -19.333 5.5 -34 16.5 -44s24.5 -15 40.5 -15s29.5 5 40.5 15
s16.5 24.667 16.5 44z" />
    <glyph glyph-name="AE" unicode="&#xc6;" horiz-adv-x="891" 
d="M515 190h-285l-71.5 -95.5l-66.5 -94.5h-74l138.5 189.5l138.5 173.5l143 165l154 165h411l-13 -59h-301l-59 -241h266l-13 -58h-264l-69 -276h324l-12 -59h-392zM624 644l-70 -72l-85.5 -93.5l-94.5 -110l-98 -120.5h253z" />
    <glyph glyph-name="Ccedilla" unicode="&#xc7;" horiz-adv-x="610" 
d="M264 -132c14.667 -6 31.001 -8.99902 49.001 -8.99902c15.333 0 27.666 2.33301 36.999 7s14 12.667 14 24c0 10 -3.16699 18 -9.5 24s-18.833 12.667 -37.5 20c3.33301 7.33301 8.16602 15.833 14.499 25.5s12.833 18.834 19.5 27.501c-32 3.33301 -61 11 -87 23
s-48.333 28.833 -67 50.5s-33.167 48.334 -43.5 80.001s-15.5 69.167 -15.5 112.5c0 71.333 11 135.166 33 191.499s51.667 104 89 143s80.333 68.833 129 89.5s99.667 31 153 31c31.333 0 60.5 -3.33301 87.5 -10s54.5 -17.667 82.5 -33l-31 -62c-48 29.333 -99 44 -153 44
c-42 0 -82.167 -9.16699 -120.5 -27.5s-72.166 -44.5 -101.499 -78.5s-52.666 -75.167 -69.999 -123.5s-26 -102.5 -26 -162.5c0 -68 14.667 -119.833 44 -155.5s74.333 -53.5 135 -53.5c26.667 0 50.334 1.66699 71.001 5s38.5 7.33301 53.5 12s27.667 9.5 38 14.5
s19.166 9.5 26.499 13.5l9 -60c-26 -14 -55.833 -25 -89.5 -33s-66.834 -12.333 -99.501 -13c-5.33301 -6.66699 -10.333 -14.334 -15 -23.001c15.333 -8.66699 26.5 -17.5 33.5 -26.5s10.5 -21.5 10.5 -37.5c0 -27.333 -10.5 -48.333 -31.5 -63s-47.5 -22 -79.5 -22
c-11.333 0 -22.5 0.666992 -33.5 2s-23.167 4.66602 -36.5 9.99902z" />
    <glyph glyph-name="Egrave" unicode="&#xc8;" horiz-adv-x="524" 
d="M249 693h387l-13 -59h-321l-59 -241h286l-13 -58h-284l-69 -276h344l-12 -59h-412zM400 923l146 -155l-35 -35l-164 132z" />
    <glyph glyph-name="Eacute" unicode="&#xc9;" horiz-adv-x="524" 
d="M249 693h387l-13 -59h-321l-59 -241h286l-13 -58h-284l-69 -276h344l-12 -59h-412zM576 861l-175 -128l-29 44l166 146z" />
    <glyph glyph-name="Ecircumflex" unicode="&#xca;" horiz-adv-x="524" 
d="M249 693h387l-13 -59h-321l-59 -241h286l-13 -58h-284l-69 -276h344l-12 -59h-412zM346 734l-26 33l169 147l99 -147l-34 -33l-81 96z" />
    <glyph glyph-name="Edieresis" unicode="&#xcb;" horiz-adv-x="524" 
d="M249 693h387l-13 -59h-321l-59 -241h286l-13 -58h-284l-69 -276h344l-12 -59h-412zM556 779c-15.333 0 -26.5 4.1709 -33.5 12.5039s-10.5 18.166 -10.5 29.499c0 13.333 4.5 25.666 13.5 36.999s21.5 17 37.5 17c14.667 0 25.5 -4.33301 32.5 -13
s10.5 -18.334 10.5 -29.001c0 -12.667 -4.33301 -24.834 -13 -36.501s-21 -17.5 -37 -17.5zM383 779.004c-14.667 0 -25.5 4.1709 -32.5 12.5039s-10.5 18.166 -10.5 29.499c0 13.333 4.33301 25.666 13 36.999s21 17 37 17c15.333 0 26.5 -4.33301 33.5 -13
s10.5 -18.334 10.5 -29.001c0 -12.667 -4.5 -24.834 -13.5 -36.501s-21.5 -17.5 -37.5 -17.5z" />
    <glyph glyph-name="Igrave" unicode="&#xcc;" horiz-adv-x="230" 
d="M249 693h68l-165 -693h-69zM218 923l146 -155l-35 -35l-164 132z" />
    <glyph glyph-name="Iacute" unicode="&#xcd;" horiz-adv-x="230" 
d="M249 693h68l-165 -693h-69zM421 861l-175 -128l-29 44l166 146z" />
    <glyph glyph-name="Icircumflex" unicode="&#xce;" horiz-adv-x="230" 
d="M249 693h68l-165 -693h-69zM188 734l-26 33l169 147l99 -147l-34 -33l-81 96z" />
    <glyph glyph-name="Idieresis" unicode="&#xcf;" horiz-adv-x="230" 
d="M249 693h68l-165 -693h-69zM398 779c-15.333 0 -26.5 4.1709 -33.5 12.5039s-10.5 18.166 -10.5 29.499c0 13.333 4.5 25.666 13.5 36.999s21.5 17 37.5 17c14.667 0 25.5 -4.33301 32.5 -13s10.5 -18.334 10.5 -29.001c0 -12.667 -4.33301 -24.834 -13 -36.501
s-21 -17.5 -37 -17.5zM225 779.004c-14.667 0 -25.5 4.1709 -32.5 12.5039s-10.5 18.166 -10.5 29.499c0 13.333 4.33301 25.666 13 36.999s21 17 37 17c15.333 0 26.5 -4.33301 33.5 -13s10.5 -18.334 10.5 -29.001c0 -12.667 -4.5 -24.834 -13.5 -36.501
s-21.5 -17.5 -37.5 -17.5z" />
    <glyph glyph-name="Eth" unicode="&#xd0;" horiz-adv-x="692" 
d="M173 335l-80.002 0.00390625l13 55h80l69 290c32.667 7.33301 62.334 12.333 89.001 15s53 4 79 4c96 0 170.167 -22.5 222.5 -67.5s78.5 -113.5 78.5 -205.5c0 -52.667 -8 -104.834 -24 -156.501s-42.333 -97.834 -79 -138.501s-84.5 -73.667 -143.5 -99
s-131.833 -38 -218.5 -38c-13.333 0 -27.5 0.5 -42.5 1.5s-29.667 2.16699 -44 3.5s-28.166 3.16602 -41.499 5.49902s-25 5.16602 -35 8.49902zM253.998 390.004l131.005 -0.00195312l-13 -55h-131l-66 -275c16.667 -2.66699 32.667 -4.5 48 -5.5s30.666 -1.5 45.999 -1.5
c59.333 0 112.666 8.83301 159.999 26.5s87.5 42.834 120.5 75.501s58.333 72.334 76 119.001s26.5 98.667 26.5 156c0 38.667 -6.33301 71.5 -19 98.5s-29.834 48.833 -51.501 65.5s-46.834 28.667 -75.501 36s-59.334 11 -92.001 11c-16.667 0 -33.5 -0.666992 -50.5 -2
s-34.167 -3.33301 -51.5 -6z" />
    <glyph glyph-name="Ntilde" unicode="&#xd1;" horiz-adv-x="669" 
d="M249 693l67 0.000976562c24.667 -42.667 49.167 -90.334 73.5 -143.001s47.333 -105.834 69 -159.501s40.667 -105.167 57 -154.5s28.833 -91.666 37.5 -126.999l136 584h67l-164 -693h-67c-12 40.667 -27 88.167 -45 142.5s-37.5 109.5 -58.5 165.5
s-42.5 109.833 -64.5 161.5s-43 95.5 -63 131.5l-144 -601h-67zM581 781.001c-12.667 0 -23.667 2.00195 -33 6.00195s-18.333 8.5 -27 13.5s-17.5 9.5 -26.5 13.5s-19.5 6 -31.5 6c-14.667 0 -26.667 -3.83301 -36 -11.5s-19.333 -19.167 -30 -34.5l-36 22
c5.33301 9.33301 11.333 18.666 18 27.999s14.5 17.666 23.5 24.999s19.5 13.166 31.5 17.499s26.333 6.5 43 6.5c12 0 22.667 -2 32 -6s18.333 -8.5 27 -13.5s17.667 -9.5 27 -13.5s20 -6 32 -6c14.667 0 26.667 3.83301 36 11.5s19.333 19.167 30 34.5l36 -23
c-5.33301 -9.33301 -11.333 -18.666 -18 -27.999s-14.5 -17.5 -23.5 -24.5s-19.5 -12.667 -31.5 -17s-26.333 -6.5 -43 -6.5z" />
    <glyph glyph-name="Ograve" unicode="&#xd2;" horiz-adv-x="748" 
d="M138 258c0 68.667 11.333 130.833 34 186.5s52.667 103 90 142s79.5 69 126.5 90s95.167 31.5 144.5 31.5c32.667 0 64 -5.5 94 -16.5s56.333 -27.667 79 -50s40.667 -50.666 54 -84.999s20 -74.5 20 -120.5c0 -69.333 -11.333 -131.833 -34 -187.5
s-52.667 -103 -90 -142s-79.666 -69 -126.999 -90s-95.333 -31.5 -144 -31.5c-33.333 0 -64.833 5.5 -94.5 16.5s-55.834 27.667 -78.501 50s-40.667 50.666 -54 84.999s-20 74.833 -20 121.5zM210 246.999c0 -34 4.66699 -63.667 14 -89s22.333 -46.166 39 -62.499
s35.834 -28.666 57.501 -36.999s45.167 -12.5 70.5 -12.5c40.667 0 80 8.83301 118 26.5s71.667 43.5 101 77.5s53 75.833 71 125.5s27 106.5 27 170.5c0 34 -4.66699 63.667 -14 89s-22.333 46.166 -39 62.499s-36 28.666 -58 36.999s-45.333 12.5 -70 12.5
c-40.667 0 -80 -8.83301 -118 -26.5s-71.833 -43.5 -101.5 -77.5s-53.334 -75.833 -71.001 -125.5s-26.5 -106.5 -26.5 -170.5zM480 922.999l146 -155l-35 -35l-164 132z" />
    <glyph glyph-name="Oacute" unicode="&#xd3;" horiz-adv-x="748" 
d="M138 258c0 68.667 11.333 130.833 34 186.5s52.667 103 90 142s79.5 69 126.5 90s95.167 31.5 144.5 31.5c32.667 0 64 -5.5 94 -16.5s56.333 -27.667 79 -50s40.667 -50.666 54 -84.999s20 -74.5 20 -120.5c0 -69.333 -11.333 -131.833 -34 -187.5
s-52.667 -103 -90 -142s-79.666 -69 -126.999 -90s-95.333 -31.5 -144 -31.5c-33.333 0 -64.833 5.5 -94.5 16.5s-55.834 27.667 -78.501 50s-40.667 50.666 -54 84.999s-20 74.833 -20 121.5zM210 246.999c0 -34 4.66699 -63.667 14 -89s22.333 -46.166 39 -62.499
s35.834 -28.666 57.501 -36.999s45.167 -12.5 70.5 -12.5c40.667 0 80 8.83301 118 26.5s71.667 43.5 101 77.5s53 75.833 71 125.5s27 106.5 27 170.5c0 34 -4.66699 63.667 -14 89s-22.333 46.166 -39 62.499s-36 28.666 -58 36.999s-45.333 12.5 -70 12.5
c-40.667 0 -80 -8.83301 -118 -26.5s-71.833 -43.5 -101.5 -77.5s-53.334 -75.833 -71.001 -125.5s-26.5 -106.5 -26.5 -170.5zM690 860.999l-175 -128l-29 44l166 146z" />
    <glyph glyph-name="Ocircumflex" unicode="&#xd4;" horiz-adv-x="748" 
d="M138 258c0 68.667 11.333 130.833 34 186.5s52.667 103 90 142s79.5 69 126.5 90s95.167 31.5 144.5 31.5c32.667 0 64 -5.5 94 -16.5s56.333 -27.667 79 -50s40.667 -50.666 54 -84.999s20 -74.5 20 -120.5c0 -69.333 -11.333 -131.833 -34 -187.5
s-52.667 -103 -90 -142s-79.666 -69 -126.999 -90s-95.333 -31.5 -144 -31.5c-33.333 0 -64.833 5.5 -94.5 16.5s-55.834 27.667 -78.501 50s-40.667 50.666 -54 84.999s-20 74.833 -20 121.5zM210 246.999c0 -34 4.66699 -63.667 14 -89s22.333 -46.166 39 -62.499
s35.834 -28.666 57.501 -36.999s45.167 -12.5 70.5 -12.5c40.667 0 80 8.83301 118 26.5s71.667 43.5 101 77.5s53 75.833 71 125.5s27 106.5 27 170.5c0 34 -4.66699 63.667 -14 89s-22.333 46.166 -39 62.499s-36 28.666 -58 36.999s-45.333 12.5 -70 12.5
c-40.667 0 -80 -8.83301 -118 -26.5s-71.833 -43.5 -101.5 -77.5s-53.334 -75.833 -71.001 -125.5s-26.5 -106.5 -26.5 -170.5zM445 733.999l-26 33l169 147l99 -147l-34 -33l-81 96z" />
    <glyph glyph-name="Otilde" unicode="&#xd5;" horiz-adv-x="748" 
d="M138 258c0 68.667 11.333 130.833 34 186.5s52.667 103 90 142s79.5 69 126.5 90s95.167 31.5 144.5 31.5c32.667 0 64 -5.5 94 -16.5s56.333 -27.667 79 -50s40.667 -50.666 54 -84.999s20 -74.5 20 -120.5c0 -69.333 -11.333 -131.833 -34 -187.5
s-52.667 -103 -90 -142s-79.666 -69 -126.999 -90s-95.333 -31.5 -144 -31.5c-33.333 0 -64.833 5.5 -94.5 16.5s-55.834 27.667 -78.501 50s-40.667 50.666 -54 84.999s-20 74.833 -20 121.5zM210 246.999c0 -34 4.66699 -63.667 14 -89s22.333 -46.166 39 -62.499
s35.834 -28.666 57.501 -36.999s45.167 -12.5 70.5 -12.5c40.667 0 80 8.83301 118 26.5s71.667 43.5 101 77.5s53 75.833 71 125.5s27 106.5 27 170.5c0 34 -4.66699 63.667 -14 89s-22.333 46.166 -39 62.499s-36 28.666 -58 36.999s-45.333 12.5 -70 12.5
c-40.667 0 -80 -8.83301 -118 -26.5s-71.833 -43.5 -101.5 -77.5s-53.334 -75.833 -71.001 -125.5s-26.5 -106.5 -26.5 -170.5zM613 780.999c-12.667 0 -23.667 2.00195 -33 6.00195s-18.333 8.5 -27 13.5s-17.5 9.5 -26.5 13.5s-19.5 6 -31.5 6
c-14.667 0 -26.667 -3.83301 -36 -11.5s-19.333 -19.167 -30 -34.5l-36 22c5.33301 9.33301 11.333 18.666 18 27.999s14.5 17.666 23.5 24.999s19.5 13.166 31.5 17.499s26.333 6.5 43 6.5c12 0 22.667 -2 32 -6s18.333 -8.5 27 -13.5s17.667 -9.5 27 -13.5s20 -6 32 -6
c14.667 0 26.667 3.83301 36 11.5s19.333 19.167 30 34.5l36 -23c-5.33301 -9.33301 -11.333 -18.666 -18 -27.999s-14.5 -17.5 -23.5 -24.5s-19.5 -12.667 -31.5 -17s-26.333 -6.5 -43 -6.5z" />
    <glyph glyph-name="Odieresis" unicode="&#xd6;" horiz-adv-x="748" 
d="M138 258c0 68.667 11.333 130.833 34 186.5s52.667 103 90 142s79.5 69 126.5 90s95.167 31.5 144.5 31.5c32.667 0 64 -5.5 94 -16.5s56.333 -27.667 79 -50s40.667 -50.666 54 -84.999s20 -74.5 20 -120.5c0 -69.333 -11.333 -131.833 -34 -187.5
s-52.667 -103 -90 -142s-79.666 -69 -126.999 -90s-95.333 -31.5 -144 -31.5c-33.333 0 -64.833 5.5 -94.5 16.5s-55.834 27.667 -78.501 50s-40.667 50.666 -54 84.999s-20 74.833 -20 121.5zM210 246.999c0 -34 4.66699 -63.667 14 -89s22.333 -46.166 39 -62.499
s35.834 -28.666 57.501 -36.999s45.167 -12.5 70.5 -12.5c40.667 0 80 8.83301 118 26.5s71.667 43.5 101 77.5s53 75.833 71 125.5s27 106.5 27 170.5c0 34 -4.66699 63.667 -14 89s-22.333 46.166 -39 62.499s-36 28.666 -58 36.999s-45.333 12.5 -70 12.5
c-40.667 0 -80 -8.83301 -118 -26.5s-71.833 -43.5 -101.5 -77.5s-53.334 -75.833 -71.001 -125.5s-26.5 -106.5 -26.5 -170.5zM676 778.999c-15.333 0 -26.5 4.1709 -33.5 12.5039s-10.5 18.166 -10.5 29.499c0 13.333 4.5 25.666 13.5 36.999s21.5 17 37.5 17
c14.667 0 25.5 -4.33301 32.5 -13s10.5 -18.334 10.5 -29.001c0 -12.667 -4.33301 -24.834 -13 -36.501s-21 -17.5 -37 -17.5zM503 779.003c-14.667 0 -25.5 4.1709 -32.5 12.5039s-10.5 18.166 -10.5 29.499c0 13.333 4.33301 25.666 13 36.999s21 17 37 17
c15.333 0 26.5 -4.33301 33.5 -13s10.5 -18.334 10.5 -29.001c0 -12.667 -4.5 -24.834 -13.5 -36.501s-21.5 -17.5 -37.5 -17.5z" />
    <glyph glyph-name="multiply" unicode="&#xd7;" horiz-adv-x="564" 
d="M166 103l-33 43l178 144l-116 153l43 35l115 -152l189 152l34 -42l-190 -151l113 -148l-43 -34l-111 146z" />
    <glyph glyph-name="Oslash" unicode="&#xd8;" horiz-adv-x="748" 
d="M138 258c0 68.667 11.332 130.833 33.999 186.5s52.667 103 90 142s79.5 69 126.5 90s95.167 31.5 144.5 31.5c30 0 58.5 -4.5 85.5 -13.5s51.5 -22.5 73.5 -40.5l63 72l42 -36l-67 -77c15.333 -22 27.5 -47.5 36.5 -76.5s13.5 -62.5 13.5 -100.5
c0 -69.333 -11.333 -131.833 -34 -187.5s-52.667 -103 -90 -142s-79.666 -69 -126.999 -90s-95.333 -31.5 -144 -31.5c-30 0 -58.5 4.33301 -85.5 13s-51.5 22 -73.5 40l-59 -67l-43 37l63 72c-15.333 22 -27.333 47.667 -36 77s-13 63 -13 101zM707.999 445.999
c0 44 -8.33301 81.667 -25 113l-413 -471c32 -28 72.333 -42 121 -42c40.667 0 80 8.83301 118 26.5s71.667 43.5 101 77.5s53 75.833 71 125.5s27 106.5 27 170.5zM209.999 246.999c0 -45.333 8.00098 -83 24.001 -113l414 470c-16 14.667 -34.333 25.5 -55 32.5
s-42.667 10.5 -66 10.5c-40.667 0 -80 -8.83301 -118 -26.5s-71.833 -43.5 -101.5 -77.5s-53.334 -75.833 -71.001 -125.5s-26.5 -106.5 -26.5 -170.5z" />
    <glyph glyph-name="Ugrave" unicode="&#xd9;" horiz-adv-x="648" 
d="M250 693h68l-101 -419c-3.33301 -15.333 -6.16602 -30.5 -8.49902 -45.5s-3.5 -29.5 -3.5 -43.5c0 -20 2.33301 -38.5 7 -55.5s12.667 -31.833 24 -44.5s26 -22.667 44 -30s40.667 -11 68 -11c30.667 0 57.667 4.33301 81 13s43.833 22.167 61.5 40.5
s32.834 41.833 45.501 70.5s24 63 34 103l102 422h68l-104 -432c-12 -48.667 -26.333 -90.5 -43 -125.5s-36.834 -63.667 -60.501 -86s-51.167 -38.833 -82.5 -49.5s-67.333 -16 -108 -16c-35.333 0 -65.833 4.83301 -91.5 14.5s-46.834 23.167 -63.501 40.5s-29 38 -37 62
s-12 50.333 -12 79c0 29.333 4 60 12 92zM443 923l146 -155l-35 -35l-164 132z" />
    <glyph glyph-name="Uacute" unicode="&#xda;" horiz-adv-x="648" 
d="M250 693h68l-101 -419c-3.33301 -15.333 -6.16602 -30.5 -8.49902 -45.5s-3.5 -29.5 -3.5 -43.5c0 -20 2.33301 -38.5 7 -55.5s12.667 -31.833 24 -44.5s26 -22.667 44 -30s40.667 -11 68 -11c30.667 0 57.667 4.33301 81 13s43.833 22.167 61.5 40.5
s32.834 41.833 45.501 70.5s24 63 34 103l102 422h68l-104 -432c-12 -48.667 -26.333 -90.5 -43 -125.5s-36.834 -63.667 -60.501 -86s-51.167 -38.833 -82.5 -49.5s-67.333 -16 -108 -16c-35.333 0 -65.833 4.83301 -91.5 14.5s-46.834 23.167 -63.501 40.5s-29 38 -37 62
s-12 50.333 -12 79c0 29.333 4 60 12 92zM641 861l-175 -128l-29 44l166 146z" />
    <glyph glyph-name="Ucircumflex" unicode="&#xdb;" horiz-adv-x="648" 
d="M250 693h68l-101 -419c-3.33301 -15.333 -6.16602 -30.5 -8.49902 -45.5s-3.5 -29.5 -3.5 -43.5c0 -20 2.33301 -38.5 7 -55.5s12.667 -31.833 24 -44.5s26 -22.667 44 -30s40.667 -11 68 -11c30.667 0 57.667 4.33301 81 13s43.833 22.167 61.5 40.5
s32.834 41.833 45.501 70.5s24 63 34 103l102 422h68l-104 -432c-12 -48.667 -26.333 -90.5 -43 -125.5s-36.834 -63.667 -60.501 -86s-51.167 -38.833 -82.5 -49.5s-67.333 -16 -108 -16c-35.333 0 -65.833 4.83301 -91.5 14.5s-46.834 23.167 -63.501 40.5s-29 38 -37 62
s-12 50.333 -12 79c0 29.333 4 60 12 92zM399 734l-26 33l169 147l99 -147l-34 -33l-81 96z" />
    <glyph glyph-name="Udieresis" unicode="&#xdc;" horiz-adv-x="648" 
d="M250 693h68l-101 -419c-3.33301 -15.333 -6.16602 -30.5 -8.49902 -45.5s-3.5 -29.5 -3.5 -43.5c0 -20 2.33301 -38.5 7 -55.5s12.667 -31.833 24 -44.5s26 -22.667 44 -30s40.667 -11 68 -11c30.667 0 57.667 4.33301 81 13s43.833 22.167 61.5 40.5
s32.834 41.833 45.501 70.5s24 63 34 103l102 422h68l-104 -432c-12 -48.667 -26.333 -90.5 -43 -125.5s-36.834 -63.667 -60.501 -86s-51.167 -38.833 -82.5 -49.5s-67.333 -16 -108 -16c-35.333 0 -65.833 4.83301 -91.5 14.5s-46.834 23.167 -63.501 40.5s-29 38 -37 62
s-12 50.333 -12 79c0 29.333 4 60 12 92zM614 779c-15.333 0 -26.5 4.1709 -33.5 12.5039s-10.5 18.166 -10.5 29.499c0 13.333 4.5 25.666 13.5 36.999s21.5 17 37.5 17c14.667 0 25.5 -4.33301 32.5 -13s10.5 -18.334 10.5 -29.001
c0 -12.667 -4.33301 -24.834 -13 -36.501s-21 -17.5 -37 -17.5zM441 779.004c-14.667 0 -25.5 4.1709 -32.5 12.5039s-10.5 18.166 -10.5 29.499c0 13.333 4.33301 25.666 13 36.999s21 17 37 17c15.333 0 26.5 -4.33301 33.5 -13s10.5 -18.334 10.5 -29.001
c0 -12.667 -4.5 -24.834 -13.5 -36.501s-21.5 -17.5 -37.5 -17.5z" />
    <glyph glyph-name="Yacute" unicode="&#xdd;" horiz-adv-x="555" 
d="M310 280c-12.667 34 -24.8311 69 -36.498 105l-34 107l-31.5 104.5l-28 96.5h74c13.333 -57.333 28.666 -116.5 45.999 -177.5s36.666 -117.833 57.999 -170.5l72 82l75 90l70 91c22 30 41.667 58.333 59 85h81l-156 -199l-181 -214l-66 -280h-68zM595.003 861l-175 -128
l-29 44l166 146z" />
    <glyph glyph-name="Thorn" unicode="&#xde;" horiz-adv-x="528" 
d="M250 693l68 0.000976562l-29 -121c14 1.33301 26.833 2.16602 38.5 2.49902s24.834 0.5 39.501 0.5c81.333 0 142.166 -14.167 182.499 -42.5s60.5 -74.833 60.5 -139.5c0 -74 -29.667 -133.167 -89 -177.5s-148 -66.5 -266 -66.5h-69l-35 -149h-68zM269 204.001
c48.667 0 90.166 4.66504 124.499 13.998s62.333 22.333 84 39s37.5 36.334 47.5 59.001s15 47.334 15 74.001c0 44.667 -14 77.167 -42 97.5s-70.333 30.5 -127 30.5c-31.333 0 -54.666 -0.666992 -69.999 -2s-24.333 -2.33301 -27 -3l-74 -309h69z" />
    <glyph glyph-name="germandbls" unicode="&#xdf;" horiz-adv-x="589" 
d="M171 102c-8 -32 -15.8311 -61.502 -23.498 -88.502s-16.334 -52.167 -26.001 -75.5s-20.834 -45.333 -33.501 -66s-27.667 -41 -45 -61l-57 9c16.667 22.667 30.834 43.5 42.501 62.5s21.5 37.833 29.5 56.5s15 37.5 21 56.5s11.667 39.833 17 62.5l118 489
c10 42 23 77.5 39 106.5s34.5 52.5 55.5 70.5s44.167 31.167 69.5 39.5s52 12.5 80 12.5c48 0 85 -11.833 111 -35.5s39 -55.834 39 -96.501c0 -23.333 -4.33301 -44.5 -13 -63.5s-19.334 -36.5 -32.001 -52.5s-26.5 -30.5 -41.5 -43.5l-41.5 -37.5
c-12.667 -12 -23.334 -23.5 -32.001 -34.5s-13 -22.167 -13 -33.5c0 -13.333 3.83301 -24.666 11.5 -33.999s17.167 -17.833 28.5 -25.5l37 -24c13.333 -8.33301 25.666 -18.333 36.999 -30s20.833 -26 28.5 -43s11.5 -37.833 11.5 -62.5
c0 -29.333 -5.66699 -54.833 -17 -76.5s-26.333 -39.5 -45 -53.5s-40.167 -24.5 -64.5 -31.5s-49.833 -10.5 -76.5 -10.5c-24 0 -48.333 2.5 -73 7.5s-47.667 13.833 -69 26.5l28 59c14.667 -9.33301 32.334 -17.166 53.001 -23.499s41.667 -9.5 63 -9.5
c17.333 0 34.166 2 50.499 6s30.833 10.333 43.5 19s22.834 19.667 30.501 33s11.5 29.333 11.5 48c0 20 -3.83301 36.667 -11.5 50s-17.167 25 -28.5 35s-23.833 19.167 -37.5 27.5s-26.167 17.333 -37.5 27s-20.833 20.5 -28.5 32.5s-11.5 26.667 -11.5 44
c0 19.333 4.33301 36.5 13 51.5s19.334 29.167 32.001 42.5s26.5 26.333 41.5 39s28.833 25.834 41.5 39.501s23.334 28.5 32.001 44.5s13 34.333 13 55c0 24.667 -7.16699 43.667 -21.5 57s-34.833 20 -61.5 20c-19.333 0 -38.166 -3 -56.499 -9s-35.333 -15.667 -51 -29
s-29.834 -30.5 -42.501 -51.5s-22.334 -46.167 -29.001 -75.5z" />
    <glyph glyph-name="agrave" unicode="&#xe0;" 
d="M487 461c-12 2.66699 -22.998 4.66602 -32.998 5.99902s-20.333 2 -31 2c-41.333 0 -78 -8 -110 -24s-59 -37 -81 -63s-38.833 -55.667 -50.5 -89s-17.5 -67.333 -17.5 -102c0 -27.333 2.66699 -50.166 8 -68.499s12.666 -33 21.999 -44s20.166 -19 32.499 -24
s25.5 -7.5 39.5 -7.5c27.333 0 53 6.5 77 19.5s46.667 31.5 68 55.5c0 18 2.66699 38.667 8 62l15 63zM429.002 -6.00098c-4 8 -7.50098 17.1738 -10.501 27.5068s-5.16699 20.833 -6.5 31.5c-23.333 -22.667 -47.833 -39.334 -73.5 -50.001s-52.167 -16 -79.5 -16
c-21.333 0 -41.666 3.66699 -60.999 11s-36.333 18.666 -51 33.999s-26.5 35.166 -35.5 59.499s-13.5 53.166 -13.5 86.499c0 53.333 8.66699 101.666 26 144.999s41.5 80.166 72.5 110.499s67.667 53.833 110 70.5s88.5 25 138.5 25c41.333 0 81 -7 119 -21l-77 -311
c-4 -16.667 -7.33301 -32.334 -10 -47.001s-4 -28.667 -4 -42c0 -18 1.66699 -35 5 -51s9.33301 -33.667 18 -53zM363.001 773.006l146 -155l-35 -35l-164 132z" />
    <glyph glyph-name="aacute" unicode="&#xe1;" 
d="M487 461c-12 2.66699 -22.998 4.66602 -32.998 5.99902s-20.333 2 -31 2c-41.333 0 -78 -8 -110 -24s-59 -37 -81 -63s-38.833 -55.667 -50.5 -89s-17.5 -67.333 -17.5 -102c0 -27.333 2.66699 -50.166 8 -68.499s12.666 -33 21.999 -44s20.166 -19 32.499 -24
s25.5 -7.5 39.5 -7.5c27.333 0 53 6.5 77 19.5s46.667 31.5 68 55.5c0 18 2.66699 38.667 8 62l15 63zM429.002 -6.00098c-4 8 -7.50098 17.1738 -10.501 27.5068s-5.16699 20.833 -6.5 31.5c-23.333 -22.667 -47.833 -39.334 -73.5 -50.001s-52.167 -16 -79.5 -16
c-21.333 0 -41.666 3.66699 -60.999 11s-36.333 18.666 -51 33.999s-26.5 35.166 -35.5 59.499s-13.5 53.166 -13.5 86.499c0 53.333 8.66699 101.666 26 144.999s41.5 80.166 72.5 110.499s67.667 53.833 110 70.5s88.5 25 138.5 25c41.333 0 81 -7 119 -21l-77 -311
c-4 -16.667 -7.33301 -32.334 -10 -47.001s-4 -28.667 -4 -42c0 -18 1.66699 -35 5 -51s9.33301 -33.667 18 -53zM579.001 711.006l-175 -128l-29 44l166 146z" />
    <glyph glyph-name="acircumflex" unicode="&#xe2;" 
d="M487 461c-12 2.66699 -22.998 4.66602 -32.998 5.99902s-20.333 2 -31 2c-41.333 0 -78 -8 -110 -24s-59 -37 -81 -63s-38.833 -55.667 -50.5 -89s-17.5 -67.333 -17.5 -102c0 -27.333 2.66699 -50.166 8 -68.499s12.666 -33 21.999 -44s20.166 -19 32.499 -24
s25.5 -7.5 39.5 -7.5c27.333 0 53 6.5 77 19.5s46.667 31.5 68 55.5c0 18 2.66699 38.667 8 62l15 63zM429.002 -6.00098c-4 8 -7.50098 17.1738 -10.501 27.5068s-5.16699 20.833 -6.5 31.5c-23.333 -22.667 -47.833 -39.334 -73.5 -50.001s-52.167 -16 -79.5 -16
c-21.333 0 -41.666 3.66699 -60.999 11s-36.333 18.666 -51 33.999s-26.5 35.166 -35.5 59.499s-13.5 53.166 -13.5 86.499c0 53.333 8.66699 101.666 26 144.999s41.5 80.166 72.5 110.499s67.667 53.833 110 70.5s88.5 25 138.5 25c41.333 0 81 -7 119 -21l-77 -311
c-4 -16.667 -7.33301 -32.334 -10 -47.001s-4 -28.667 -4 -42c0 -18 1.66699 -35 5 -51s9.33301 -33.667 18 -53zM313.001 583.006l-26 33l169 147l99 -147l-34 -33l-81 96z" />
    <glyph glyph-name="atilde" unicode="&#xe3;" 
d="M487 461c-12 2.66699 -22.998 4.66602 -32.998 5.99902s-20.333 2 -31 2c-41.333 0 -78 -8 -110 -24s-59 -37 -81 -63s-38.833 -55.667 -50.5 -89s-17.5 -67.333 -17.5 -102c0 -27.333 2.66699 -50.166 8 -68.499s12.666 -33 21.999 -44s20.166 -19 32.499 -24
s25.5 -7.5 39.5 -7.5c27.333 0 53 6.5 77 19.5s46.667 31.5 68 55.5c0 18 2.66699 38.667 8 62l15 63zM429.002 -6.00098c-4 8 -7.50098 17.1738 -10.501 27.5068s-5.16699 20.833 -6.5 31.5c-23.333 -22.667 -47.833 -39.334 -73.5 -50.001s-52.167 -16 -79.5 -16
c-21.333 0 -41.666 3.66699 -60.999 11s-36.333 18.666 -51 33.999s-26.5 35.166 -35.5 59.499s-13.5 53.166 -13.5 86.499c0 53.333 8.66699 101.666 26 144.999s41.5 80.166 72.5 110.499s67.667 53.833 110 70.5s88.5 25 138.5 25c41.333 0 81 -7 119 -21l-77 -311
c-4 -16.667 -7.33301 -32.334 -10 -47.001s-4 -28.667 -4 -42c0 -18 1.66699 -35 5 -51s9.33301 -33.667 18 -53zM484.001 629.006c-12.667 0 -23.667 2.00195 -33 6.00195s-18.333 8.5 -27 13.5s-17.5 9.5 -26.5 13.5s-19.5 6 -31.5 6
c-14.667 0 -26.667 -3.83301 -36 -11.5s-19.333 -19.167 -30 -34.5l-36 22c5.33301 9.33301 11.333 18.666 18 27.999s14.5 17.666 23.5 24.999s19.5 13.166 31.5 17.499s26.333 6.5 43 6.5c12 0 22.667 -2 32 -6s18.333 -8.5 27 -13.5s17.667 -9.5 27 -13.5s20 -6 32 -6
c14.667 0 26.667 3.83301 36 11.5s19.333 19.167 30 34.5l36 -23c-5.33301 -9.33301 -11.333 -18.666 -18 -27.999s-14.5 -17.5 -23.5 -24.5s-19.5 -12.667 -31.5 -17s-26.333 -6.5 -43 -6.5z" />
    <glyph glyph-name="adieresis" unicode="&#xe4;" 
d="M487 461c-12 2.66699 -22.998 4.66602 -32.998 5.99902s-20.333 2 -31 2c-41.333 0 -78 -8 -110 -24s-59 -37 -81 -63s-38.833 -55.667 -50.5 -89s-17.5 -67.333 -17.5 -102c0 -27.333 2.66699 -50.166 8 -68.499s12.666 -33 21.999 -44s20.166 -19 32.499 -24
s25.5 -7.5 39.5 -7.5c27.333 0 53 6.5 77 19.5s46.667 31.5 68 55.5c0 18 2.66699 38.667 8 62l15 63zM429.002 -6.00098c-4 8 -7.50098 17.1738 -10.501 27.5068s-5.16699 20.833 -6.5 31.5c-23.333 -22.667 -47.833 -39.334 -73.5 -50.001s-52.167 -16 -79.5 -16
c-21.333 0 -41.666 3.66699 -60.999 11s-36.333 18.666 -51 33.999s-26.5 35.166 -35.5 59.499s-13.5 53.166 -13.5 86.499c0 53.333 8.66699 101.666 26 144.999s41.5 80.166 72.5 110.499s67.667 53.833 110 70.5s88.5 25 138.5 25c41.333 0 81 -7 119 -21l-77 -311
c-4 -16.667 -7.33301 -32.334 -10 -47.001s-4 -28.667 -4 -42c0 -18 1.66699 -35 5 -51s9.33301 -33.667 18 -53zM525.001 625.006c-15.333 0 -26.5 4.1709 -33.5 12.5039s-10.5 18.166 -10.5 29.499c0 13.333 4.5 25.666 13.5 36.999s21.5 17 37.5 17
c14.667 0 25.5 -4.33301 32.5 -13s10.5 -18.334 10.5 -29.001c0 -12.667 -4.33301 -24.834 -13 -36.501s-21 -17.5 -37 -17.5zM352.001 625.01c-14.667 0 -25.5 4.1709 -32.5 12.5039s-10.5 18.166 -10.5 29.499c0 13.333 4.33301 25.666 13 36.999s21 17 37 17
c15.333 0 26.5 -4.33301 33.5 -13s10.5 -18.334 10.5 -29.001c0 -12.667 -4.5 -24.834 -13.5 -36.501s-21.5 -17.5 -37.5 -17.5z" />
    <glyph glyph-name="aring" unicode="&#xe5;" 
d="M487 461c-12 2.66699 -22.998 4.66602 -32.998 5.99902s-20.333 2 -31 2c-41.333 0 -78 -8 -110 -24s-59 -37 -81 -63s-38.833 -55.667 -50.5 -89s-17.5 -67.333 -17.5 -102c0 -27.333 2.66699 -50.166 8 -68.499s12.666 -33 21.999 -44s20.166 -19 32.499 -24
s25.5 -7.5 39.5 -7.5c27.333 0 53 6.5 77 19.5s46.667 31.5 68 55.5c0 18 2.66699 38.667 8 62l15 63zM429.002 -6.00098c-4 8 -7.50098 17.1738 -10.501 27.5068s-5.16699 20.833 -6.5 31.5c-23.333 -22.667 -47.833 -39.334 -73.5 -50.001s-52.167 -16 -79.5 -16
c-21.333 0 -41.666 3.66699 -60.999 11s-36.333 18.666 -51 33.999s-26.5 35.166 -35.5 59.499s-13.5 53.166 -13.5 86.499c0 53.333 8.66699 101.666 26 144.999s41.5 80.166 72.5 110.499s67.667 53.833 110 70.5s88.5 25 138.5 25c41.333 0 81 -7 119 -21l-77 -311
c-4 -16.667 -7.33301 -32.334 -10 -47.001s-4 -28.667 -4 -42c0 -18 1.66699 -35 5 -51s9.33301 -33.667 18 -53zM542.001 676.006c0 -14.667 -2.5 -27.832 -7.5 -39.499s-11.833 -21.667 -20.5 -30s-18.834 -14.833 -30.501 -19.5s-23.834 -7 -36.501 -7
c-26 0 -48.5 8.66699 -67.5 26s-28.5 40.666 -28.5 69.999c0 28.667 9.5 51.667 28.5 69s41.5 26 67.5 26c12.667 0 24.834 -2.33301 36.501 -7s21.834 -11.167 30.501 -19.5s15.5 -18.333 20.5 -30s7.5 -24.5 7.5 -38.5zM504.001 676.008c0 18.667 -5.5 33.167 -16.5 43.5
s-24.5 15.5 -40.5 15.5s-29.5 -5.16699 -40.5 -15.5s-16.5 -24.833 -16.5 -43.5c0 -19.333 5.5 -34 16.5 -44s24.5 -15 40.5 -15s29.5 5 40.5 15s16.5 24.667 16.5 44z" />
    <glyph glyph-name="ae" unicode="&#xe6;" horiz-adv-x="773" 
d="M292 529c49.333 0 87.8301 -10.1689 115.497 -30.502s46.834 -47.5 57.501 -81.5c25.333 37.333 57 65.333 95 84s76 28 114 28c19.333 0 37.666 -2.66699 54.999 -8s32.5 -13.5 45.5 -24.5s23.333 -24.833 31 -41.5s11.5 -36.334 11.5 -59.001
c0 -39.333 -7.33301 -71 -22 -95s-37 -43 -67 -57s-67.333 -24 -112 -30s-97 -10 -157 -12c0 -3.33301 -0.166992 -6.66602 -0.5 -9.99902s-0.5 -6.33301 -0.5 -9c0 -29.333 3.66699 -53 11 -71s17.333 -31.667 30 -41s27.5 -15.5 44.5 -18.5s35.167 -4.5 54.5 -4.5
c41.333 0 86.333 11.667 135 35l7 -60c-20 -9.33301 -44.333 -17.5 -73 -24.5s-58 -10.5 -88 -10.5c-50 0 -88.667 10 -116 30s-46.666 47 -57.999 81c-23.333 -33.333 -52.5 -60.166 -87.5 -80.499s-75.5 -30.5 -121.5 -30.5c-19.333 0 -37.666 2.83301 -54.999 8.5
s-32.5 14 -45.5 25s-23.167 24.833 -30.5 41.5s-11 36 -11 58c0 38.667 7.5 70.167 22.5 94.5s37.5 43.5 67.5 57.5s67.5 24.167 112.5 30.5s97.5 10.833 157.5 13.5c0 3.33301 0.166992 6.33301 0.5 9s0.5 5.33398 0.5 8.00098c0 29.333 -3.66699 53 -11 71
s-17.5 31.833 -30.5 41.5s-28.167 16.167 -45.5 19.5s-35.666 5 -54.999 5c-41.333 0 -86.333 -11.667 -135 -35l-7 58c20 9.33301 44.333 17.5 73 24.5s58 10.5 88 10.5zM750.997 391.998c0 25.333 -7.83398 44.667 -23.501 58s-36.5 20 -62.5 20c-20 0 -40 -4 -60 -12
s-39 -20.5 -57 -37.5s-34 -38.667 -48 -65s-24.333 -57.833 -31 -94.5c56.667 0.666992 103.334 4 140.001 10s65.5 14.333 86.5 25s35.5 24 43.5 40s12 34.667 12 56zM119.996 124.999c0 -25.333 7.83301 -44.6641 23.5 -57.9971s36.5 -20 62.5 -20c20 0 40.333 4 61 12
s40 20.333 58 37s33.833 38.167 47.5 64.5s24.167 57.5 31.5 93.5c-57.333 -1.33301 -104.5 -4.83301 -141.5 -10.5s-66 -13.834 -87 -24.501s-35.5 -23.834 -43.5 -39.501s-12 -33.834 -12 -54.501z" />
    <glyph glyph-name="ccedilla" unicode="&#xe7;" horiz-adv-x="455" 
d="M154 -132c14.667 -6 31.001 -8.99805 49.001 -8.99805c15.333 0 27.666 2.33301 36.999 7s14 12.667 14 24c0 10 -3.16699 18 -9.5 24s-18.833 12.667 -37.5 20c4 8 9.33301 17.167 16 27.5s13.667 20.166 21 29.499c-48.667 6.66699 -85.167 26.834 -109.5 60.501
s-36.5 77.5 -36.5 131.5c0 45.333 7 88.833 21 130.5s34.5 78.5 61.5 110.5s60.167 57.5 99.5 76.5s84 28.5 134 28.5c34.667 0 69 -5.66699 103 -17l-27 -59c-15.333 6 -30.5 10.167 -45.5 12.5s-29.5 3.5 -43.5 3.5c-35.333 0 -67.5 -7.5 -96.5 -22.5
s-53.833 -35.333 -74.5 -61s-36.667 -55.334 -48 -89.001s-17 -69.167 -17 -106.5c0 -44 10.167 -78.667 30.5 -104s52.833 -38 97.5 -38c14 0 28.167 1.33301 42.5 4s27.5 5.83398 39.5 9.50098s22.667 7.5 32 11.5s16.333 7.66699 21 11l7 -59
c-12.667 -8 -32 -15.833 -58 -23.5s-55 -12.167 -87 -13.5c-3.33301 -4.66699 -6.5 -9.33398 -9.5 -14.001l-7.5 -12c15.333 -8.66699 26.5 -17.5 33.5 -26.5s10.5 -21.5 10.5 -37.5c0 -27.333 -10.5 -48.333 -31.5 -63s-47.5 -22 -79.5 -22
c-11.333 0 -22.5 0.666992 -33.5 2s-23.167 4.66602 -36.5 9.99902z" />
    <glyph glyph-name="egrave" unicode="&#xe8;" horiz-adv-x="488" 
d="M540 396c0 -37.333 -9.16602 -67.667 -27.499 -91s-44 -41.833 -77 -55.5s-72.667 -23.5 -119 -29.5s-97.833 -10.333 -154.5 -13v-21c0 -19.333 2 -37.333 6 -54s11.333 -31.167 22 -43.5s25.5 -22.166 44.5 -29.499s43.5 -11 73.5 -11c23.333 0 46.833 3.33301 70.5 10
s46.167 16.667 67.5 30l7 -60c-22.667 -12.667 -47.667 -22.5 -75 -29.5s-55 -10.5 -83 -10.5c-36.667 0 -67.5 4.66699 -92.5 14s-45.333 22.333 -61 39s-26.834 36.667 -33.501 60s-10 49 -10 77c0 42.667 6.5 85 19.5 127s32.167 79.667 57.5 113
s56.5 60.166 93.5 80.499s79.167 30.5 126.5 30.5c46.667 0 82.5 -12.167 107.5 -36.5s37.5 -56.5 37.5 -96.5zM389.001 469.999c-26.667 0 -51.667 -5.49902 -75 -16.499s-44.333 -25.833 -63 -44.5s-34.834 -40.334 -48.501 -65.001s-23.834 -50.667 -30.501 -78
c56.667 1.33301 104.334 5 143.001 11s69.834 14.333 93.501 25s40.5 23.5 50.5 38.5s15 32.167 15 51.5c0 26 -7.83301 45.5 -23.5 58.5s-36.167 19.5 -61.5 19.5zM352.001 773l146 -155l-35 -35l-164 132z" />
    <glyph glyph-name="eacute" unicode="&#xe9;" horiz-adv-x="488" 
d="M540 396c0 -37.333 -9.16602 -67.667 -27.499 -91s-44 -41.833 -77 -55.5s-72.667 -23.5 -119 -29.5s-97.833 -10.333 -154.5 -13v-21c0 -19.333 2 -37.333 6 -54s11.333 -31.167 22 -43.5s25.5 -22.166 44.5 -29.499s43.5 -11 73.5 -11c23.333 0 46.833 3.33301 70.5 10
s46.167 16.667 67.5 30l7 -60c-22.667 -12.667 -47.667 -22.5 -75 -29.5s-55 -10.5 -83 -10.5c-36.667 0 -67.5 4.66699 -92.5 14s-45.333 22.333 -61 39s-26.834 36.667 -33.501 60s-10 49 -10 77c0 42.667 6.5 85 19.5 127s32.167 79.667 57.5 113
s56.5 60.166 93.5 80.499s79.167 30.5 126.5 30.5c46.667 0 82.5 -12.167 107.5 -36.5s37.5 -56.5 37.5 -96.5zM389.001 469.999c-26.667 0 -51.667 -5.49902 -75 -16.499s-44.333 -25.833 -63 -44.5s-34.834 -40.334 -48.501 -65.001s-23.834 -50.667 -30.501 -78
c56.667 1.33301 104.334 5 143.001 11s69.834 14.333 93.501 25s40.5 23.5 50.5 38.5s15 32.167 15 51.5c0 26 -7.83301 45.5 -23.5 58.5s-36.167 19.5 -61.5 19.5zM519.001 711l-175 -128l-29 44l166 146z" />
    <glyph glyph-name="ecircumflex" unicode="&#xea;" horiz-adv-x="488" 
d="M540 396c0 -37.333 -9.16602 -67.667 -27.499 -91s-44 -41.833 -77 -55.5s-72.667 -23.5 -119 -29.5s-97.833 -10.333 -154.5 -13v-21c0 -19.333 2 -37.333 6 -54s11.333 -31.167 22 -43.5s25.5 -22.166 44.5 -29.499s43.5 -11 73.5 -11c23.333 0 46.833 3.33301 70.5 10
s46.167 16.667 67.5 30l7 -60c-22.667 -12.667 -47.667 -22.5 -75 -29.5s-55 -10.5 -83 -10.5c-36.667 0 -67.5 4.66699 -92.5 14s-45.333 22.333 -61 39s-26.834 36.667 -33.501 60s-10 49 -10 77c0 42.667 6.5 85 19.5 127s32.167 79.667 57.5 113
s56.5 60.166 93.5 80.499s79.167 30.5 126.5 30.5c46.667 0 82.5 -12.167 107.5 -36.5s37.5 -56.5 37.5 -96.5zM389.001 469.999c-26.667 0 -51.667 -5.49902 -75 -16.499s-44.333 -25.833 -63 -44.5s-34.834 -40.334 -48.501 -65.001s-23.834 -50.667 -30.501 -78
c56.667 1.33301 104.334 5 143.001 11s69.834 14.333 93.501 25s40.5 23.5 50.5 38.5s15 32.167 15 51.5c0 26 -7.83301 45.5 -23.5 58.5s-36.167 19.5 -61.5 19.5zM304.001 583l-26 33l169 147l99 -147l-34 -33l-81 96z" />
    <glyph glyph-name="edieresis" unicode="&#xeb;" horiz-adv-x="488" 
d="M540 396c0 -37.333 -9.16602 -67.667 -27.499 -91s-44 -41.833 -77 -55.5s-72.667 -23.5 -119 -29.5s-97.833 -10.333 -154.5 -13v-21c0 -19.333 2 -37.333 6 -54s11.333 -31.167 22 -43.5s25.5 -22.166 44.5 -29.499s43.5 -11 73.5 -11c23.333 0 46.833 3.33301 70.5 10
s46.167 16.667 67.5 30l7 -60c-22.667 -12.667 -47.667 -22.5 -75 -29.5s-55 -10.5 -83 -10.5c-36.667 0 -67.5 4.66699 -92.5 14s-45.333 22.333 -61 39s-26.834 36.667 -33.501 60s-10 49 -10 77c0 42.667 6.5 85 19.5 127s32.167 79.667 57.5 113
s56.5 60.166 93.5 80.499s79.167 30.5 126.5 30.5c46.667 0 82.5 -12.167 107.5 -36.5s37.5 -56.5 37.5 -96.5zM389.001 469.999c-26.667 0 -51.667 -5.49902 -75 -16.499s-44.333 -25.833 -63 -44.5s-34.834 -40.334 -48.501 -65.001s-23.834 -50.667 -30.501 -78
c56.667 1.33301 104.334 5 143.001 11s69.834 14.333 93.501 25s40.5 23.5 50.5 38.5s15 32.167 15 51.5c0 26 -7.83301 45.5 -23.5 58.5s-36.167 19.5 -61.5 19.5zM507.001 625c-15.333 0 -26.5 4.1709 -33.5 12.5039s-10.5 18.166 -10.5 29.499
c0 13.333 4.5 25.666 13.5 36.999s21.5 17 37.5 17c14.667 0 25.5 -4.33301 32.5 -13s10.5 -18.334 10.5 -29.001c0 -12.667 -4.33301 -24.834 -13 -36.501s-21 -17.5 -37 -17.5zM334.001 625.004c-14.667 0 -25.5 4.1709 -32.5 12.5039s-10.5 18.166 -10.5 29.499
c0 13.333 4.33301 25.666 13 36.999s21 17 37 17c15.333 0 26.5 -4.33301 33.5 -13s10.5 -18.334 10.5 -29.001c0 -12.667 -4.5 -24.834 -13.5 -36.501s-21.5 -17.5 -37.5 -17.5z" />
    <glyph glyph-name="igrave" unicode="&#xec;" horiz-adv-x="235" 
d="M208 517h65l-125 -517h-65zM187 773l146 -155l-35 -35l-164 132z" />
    <glyph glyph-name="iacute" unicode="&#xed;" horiz-adv-x="235" 
d="M208 517h65l-125 -517h-65zM387 711l-175 -128l-29 44l166 146z" />
    <glyph glyph-name="icircumflex" unicode="&#xee;" horiz-adv-x="235" 
d="M208 517h65l-125 -517h-65zM154 583l-26 33l169 147l99 -147l-34 -33l-81 96z" />
    <glyph glyph-name="idieresis" unicode="&#xef;" horiz-adv-x="235" 
d="M208 517h65l-125 -517h-65zM355 625c-15.333 0 -26.5 4.1709 -33.5 12.5039s-10.5 18.166 -10.5 29.499c0 13.333 4.5 25.666 13.5 36.999s21.5 17 37.5 17c14.667 0 25.5 -4.33301 32.5 -13s10.5 -18.334 10.5 -29.001c0 -12.667 -4.33301 -24.834 -13 -36.501
s-21 -17.5 -37 -17.5zM182 625.004c-14.667 0 -25.5 4.1709 -32.5 12.5039s-10.5 18.166 -10.5 29.499c0 13.333 4.33301 25.666 13 36.999s21 17 37 17c15.333 0 26.5 -4.33301 33.5 -13s10.5 -18.334 10.5 -29.001c0 -12.667 -4.5 -24.834 -13.5 -36.501
s-21.5 -17.5 -37.5 -17.5z" />
    <glyph glyph-name="eth" unicode="&#xf0;" horiz-adv-x="562" 
d="M550 627c27.333 -60.667 40.9971 -127.666 40.9971 -200.999c0 -24.667 -2 -52.5 -6 -83.5s-10.667 -62.833 -20 -95.5s-21.666 -64.5 -36.999 -95.5s-34.5 -58.667 -57.5 -83s-50.167 -43.833 -81.5 -58.5s-67.666 -22 -108.999 -22c-30 0 -56.333 5 -79 15
s-41.667 24 -57 42s-26.833 39.167 -34.5 63.5s-11.5 50.833 -11.5 79.5c0 46 7.83301 87.5 23.5 124.5s36.334 68.5 62.001 94.5s55 46 88 60s67.167 21 102.5 21c30.667 0 57.334 -3.5 80.001 -10.5s45.667 -19.5 69 -37.5
c-0.666992 27.333 -3.83398 55.166 -9.50098 83.499s-14.5 56.166 -26.5 83.499l-132 -42l-7 52l113 36c-11.333 16.667 -24 32.334 -38 47.001s-29.667 28 -47 40l54 36c19.333 -13.333 37 -28.5 53 -45.5s30.333 -36.167 43 -57.5l131 42l7 -52zM289.997 47.001
c36.667 0 68.5 9.16797 95.5 27.501s49.833 42.5 68.5 72.5s33.167 64 43.5 102s17.5 76.667 21.5 116c-20.667 22.667 -41.667 39 -63 49s-48.666 15 -81.999 15c-32.667 0 -61.834 -6 -87.501 -18s-47.5 -28.667 -65.5 -50s-31.667 -46.333 -41 -75
s-14 -59.334 -14 -92.001c0 -20.667 2.5 -40 7.5 -58s12.5 -33.5 22.5 -46.5s22.833 -23.333 38.5 -31s34.167 -11.5 55.5 -11.5z" />
    <glyph glyph-name="ntilde" unicode="&#xf1;" horiz-adv-x="546" 
d="M202 499c26 7.33301 53.6689 13.833 83.002 19.5s58.333 8.5 87 8.5c24 0 46.667 -2.5 68 -7.5s40 -13.833 56 -26.5s28.667 -29.334 38 -50.001s14 -46.334 14 -77.001c0 -17.333 -1.33301 -35.166 -4 -53.499s-6.33398 -36.833 -11.001 -55.5l-62 -257h-65l55 230
c5.33301 22 10.166 44.333 14.499 67s6.83301 44.334 7.5 65.001c0 20.667 -3.16699 37.667 -9.5 51s-15 24 -26 32s-23.833 13.667 -38.5 17s-30 5 -46 5c-17.333 0 -35 -1.33301 -53 -4s-35.667 -6 -53 -10l-109 -453h-65zM462.002 629
c-12.667 0 -23.667 2.00195 -33 6.00195s-18.333 8.5 -27 13.5s-17.5 9.5 -26.5 13.5s-19.5 6 -31.5 6c-14.667 0 -26.667 -3.83301 -36 -11.5s-19.333 -19.167 -30 -34.5l-36 22c5.33301 9.33301 11.333 18.666 18 27.999s14.5 17.666 23.5 24.999s19.5 13.166 31.5 17.499
s26.333 6.5 43 6.5c12 0 22.667 -2 32 -6s18.333 -8.5 27 -13.5s17.667 -9.5 27 -13.5s20 -6 32 -6c14.667 0 26.667 3.83301 36 11.5s19.333 19.167 30 34.5l36 -23c-5.33301 -9.33301 -11.333 -18.666 -18 -27.999s-14.5 -17.5 -23.5 -24.5s-19.5 -12.667 -31.5 -17
s-26.333 -6.5 -43 -6.5z" />
    <glyph glyph-name="ograve" unicode="&#xf2;" horiz-adv-x="526" 
d="M164 166c0 -39.333 11 -69 33 -89s48.333 -30 79 -30c24 0 48.667 6.16699 74 18.5s48.5 31 69.5 56s38.333 56.5 52 94.5s20.5 82.667 20.5 134c0 39.333 -11 69 -33 89s-48.333 30 -79 30c-24 0 -48.667 -6.16699 -74 -18.5s-48.5 -31 -69.5 -56
s-38.333 -56.5 -52 -94.5s-20.5 -82.667 -20.5 -134zM558 355c0 -62.667 -8.83301 -117.001 -26.5 -163.001s-40.334 -84.167 -68.001 -114.5s-58.334 -52.833 -92.001 -67.5s-66.834 -22 -99.501 -22c-23.333 0 -45.5 3.66699 -66.5 11s-39.5 18.333 -55.5 33
s-28.667 32.834 -38 54.501s-14 46.834 -14 75.501c0 62.667 8.83301 117 26.5 163s40.334 84 68.001 114s58.334 52.333 92.001 67s66.834 22 99.501 22c23.333 0 45.5 -3.66699 66.5 -11s39.5 -18.333 55.5 -33s28.667 -32.834 38 -54.501s14 -46.5 14 -74.5zM352 772.999
l146 -155l-35 -35l-164 132z" />
    <glyph glyph-name="oacute" unicode="&#xf3;" horiz-adv-x="526" 
d="M164 166c0 -39.333 11 -69 33 -89s48.333 -30 79 -30c24 0 48.667 6.16699 74 18.5s48.5 31 69.5 56s38.333 56.5 52 94.5s20.5 82.667 20.5 134c0 39.333 -11 69 -33 89s-48.333 30 -79 30c-24 0 -48.667 -6.16699 -74 -18.5s-48.5 -31 -69.5 -56
s-38.333 -56.5 -52 -94.5s-20.5 -82.667 -20.5 -134zM558 355c0 -62.667 -8.83301 -117.001 -26.5 -163.001s-40.334 -84.167 -68.001 -114.5s-58.334 -52.833 -92.001 -67.5s-66.834 -22 -99.501 -22c-23.333 0 -45.5 3.66699 -66.5 11s-39.5 18.333 -55.5 33
s-28.667 32.834 -38 54.501s-14 46.834 -14 75.501c0 62.667 8.83301 117 26.5 163s40.334 84 68.001 114s58.334 52.333 92.001 67s66.834 22 99.501 22c23.333 0 45.5 -3.66699 66.5 -11s39.5 -18.333 55.5 -33s28.667 -32.834 38 -54.501s14 -46.5 14 -74.5zM542 710.999
l-175 -128l-29 44l166 146z" />
    <glyph glyph-name="ocircumflex" unicode="&#xf4;" horiz-adv-x="526" 
d="M164 166c0 -39.333 11 -69 33 -89s48.333 -30 79 -30c24 0 48.667 6.16699 74 18.5s48.5 31 69.5 56s38.333 56.5 52 94.5s20.5 82.667 20.5 134c0 39.333 -11 69 -33 89s-48.333 30 -79 30c-24 0 -48.667 -6.16699 -74 -18.5s-48.5 -31 -69.5 -56
s-38.333 -56.5 -52 -94.5s-20.5 -82.667 -20.5 -134zM558 355c0 -62.667 -8.83301 -117.001 -26.5 -163.001s-40.334 -84.167 -68.001 -114.5s-58.334 -52.833 -92.001 -67.5s-66.834 -22 -99.501 -22c-23.333 0 -45.5 3.66699 -66.5 11s-39.5 18.333 -55.5 33
s-28.667 32.834 -38 54.501s-14 46.834 -14 75.501c0 62.667 8.83301 117 26.5 163s40.334 84 68.001 114s58.334 52.333 92.001 67s66.834 22 99.501 22c23.333 0 45.5 -3.66699 66.5 -11s39.5 -18.333 55.5 -33s28.667 -32.834 38 -54.501s14 -46.5 14 -74.5zM305 582.999
l-26 33l169 147l99 -147l-34 -33l-81 96z" />
    <glyph glyph-name="otilde" unicode="&#xf5;" horiz-adv-x="526" 
d="M164 166c0 -39.333 11 -69 33 -89s48.333 -30 79 -30c24 0 48.667 6.16699 74 18.5s48.5 31 69.5 56s38.333 56.5 52 94.5s20.5 82.667 20.5 134c0 39.333 -11 69 -33 89s-48.333 30 -79 30c-24 0 -48.667 -6.16699 -74 -18.5s-48.5 -31 -69.5 -56
s-38.333 -56.5 -52 -94.5s-20.5 -82.667 -20.5 -134zM558 355c0 -62.667 -8.83301 -117.001 -26.5 -163.001s-40.334 -84.167 -68.001 -114.5s-58.334 -52.833 -92.001 -67.5s-66.834 -22 -99.501 -22c-23.333 0 -45.5 3.66699 -66.5 11s-39.5 18.333 -55.5 33
s-28.667 32.834 -38 54.501s-14 46.834 -14 75.501c0 62.667 8.83301 117 26.5 163s40.334 84 68.001 114s58.334 52.333 92.001 67s66.834 22 99.501 22c23.333 0 45.5 -3.66699 66.5 -11s39.5 -18.333 55.5 -33s28.667 -32.834 38 -54.501s14 -46.5 14 -74.5zM476 628.999
c-12.667 0 -23.667 2.00195 -33 6.00195s-18.333 8.5 -27 13.5s-17.5 9.5 -26.5 13.5s-19.5 6 -31.5 6c-14.667 0 -26.667 -3.83301 -36 -11.5s-19.333 -19.167 -30 -34.5l-36 22c5.33301 9.33301 11.333 18.666 18 27.999s14.5 17.666 23.5 24.999s19.5 13.166 31.5 17.499
s26.333 6.5 43 6.5c12 0 22.667 -2 32 -6s18.333 -8.5 27 -13.5s17.667 -9.5 27 -13.5s20 -6 32 -6c14.667 0 26.667 3.83301 36 11.5s19.333 19.167 30 34.5l36 -23c-5.33301 -9.33301 -11.333 -18.666 -18 -27.999s-14.5 -17.5 -23.5 -24.5s-19.5 -12.667 -31.5 -17
s-26.333 -6.5 -43 -6.5z" />
    <glyph glyph-name="odieresis" unicode="&#xf6;" horiz-adv-x="526" 
d="M164 166c0 -39.333 11 -69 33 -89s48.333 -30 79 -30c24 0 48.667 6.16699 74 18.5s48.5 31 69.5 56s38.333 56.5 52 94.5s20.5 82.667 20.5 134c0 39.333 -11 69 -33 89s-48.333 30 -79 30c-24 0 -48.667 -6.16699 -74 -18.5s-48.5 -31 -69.5 -56
s-38.333 -56.5 -52 -94.5s-20.5 -82.667 -20.5 -134zM558 355c0 -62.667 -8.83301 -117.001 -26.5 -163.001s-40.334 -84.167 -68.001 -114.5s-58.334 -52.833 -92.001 -67.5s-66.834 -22 -99.501 -22c-23.333 0 -45.5 3.66699 -66.5 11s-39.5 18.333 -55.5 33
s-28.667 32.834 -38 54.501s-14 46.834 -14 75.501c0 62.667 8.83301 117 26.5 163s40.334 84 68.001 114s58.334 52.333 92.001 67s66.834 22 99.501 22c23.333 0 45.5 -3.66699 66.5 -11s39.5 -18.333 55.5 -33s28.667 -32.834 38 -54.501s14 -46.5 14 -74.5zM509 624.999
c-15.333 0 -26.5 4.1709 -33.5 12.5039s-10.5 18.166 -10.5 29.499c0 13.333 4.5 25.666 13.5 36.999s21.5 17 37.5 17c14.667 0 25.5 -4.33301 32.5 -13s10.5 -18.334 10.5 -29.001c0 -12.667 -4.33301 -24.834 -13 -36.501s-21 -17.5 -37 -17.5zM336 625.003
c-14.667 0 -25.5 4.1709 -32.5 12.5039s-10.5 18.166 -10.5 29.499c0 13.333 4.33301 25.666 13 36.999s21 17 37 17c15.333 0 26.5 -4.33301 33.5 -13s10.5 -18.334 10.5 -29.001c0 -12.667 -4.5 -24.834 -13.5 -36.501s-21.5 -17.5 -37.5 -17.5z" />
    <glyph glyph-name="divide" unicode="&#xf7;" horiz-adv-x="564" 
d="M295 56c-13.333 0 -23.332 4.66699 -29.999 14s-8.33398 21 -5.00098 35c3.33301 14.667 10.666 26.667 21.999 36s23.666 14 36.999 14c14 0 24.333 -4.66699 31 -14s8.33398 -21.333 5.00098 -36c-3.33301 -14 -10.666 -25.667 -21.999 -35s-24 -14 -38 -14z
M386.001 432c-13.333 0 -23.332 4.66699 -29.999 14s-8.33398 21.333 -5.00098 36c3.33301 14 10.666 25.667 21.999 35s23.666 14 36.999 14c14 0 24.333 -4.66699 31 -14s8.33398 -21 5.00098 -35c-3.33301 -14.667 -10.666 -26.667 -21.999 -36s-24 -14 -38 -14z
M134.002 322h452l-13 -56h-452z" />
    <glyph glyph-name="oslash" unicode="&#xf8;" horiz-adv-x="526" 
d="M558 355c0 -62.667 -8.83398 -116.997 -26.501 -162.997s-40.334 -84.167 -68.001 -114.5s-58.334 -52.833 -92.001 -67.5s-66.834 -22 -99.501 -22c-20 0 -39.333 2.66699 -58 8s-35.667 13.666 -51 24.999l-49 -56l-39 33l53 60
c-9.33301 13.333 -16.666 28.666 -21.999 45.999s-8 36.666 -8 57.999c0 62.667 8.83301 117 26.5 163s40.334 84 68.001 114s58.334 52.333 92.001 67s66.834 22 99.501 22c23.333 0 45.333 -3.66699 66 -11s39 -18 55 -32l54 61l39 -32l-62 -70
c14.667 -25.333 22 -55 22 -89zM163.999 166.003c0 -11.333 0.832031 -21.5 2.49902 -30.5s4.16699 -17.5 7.5 -25.5l288 326c-21.333 22 -48.666 33 -81.999 33c-24 0 -48.667 -6.16699 -74 -18.5s-48.5 -31 -69.5 -56s-38.333 -56.5 -52 -94.5s-20.5 -82.667 -20.5 -134z
M491.998 350.003c0 13.333 -1.66699 26 -5 38l-281 -319c18.667 -14.667 42 -22 70 -22c24 0 48.667 6.16699 74 18.5s48.5 31 69.5 56s38.333 56.5 52 94.5s20.5 82.667 20.5 134z" />
    <glyph glyph-name="ugrave" unicode="&#xf9;" 
d="M248 -12c-28.667 0 -52.667 3.66699 -72 11s-34.666 17.5 -45.999 30.5s-19.5 28.333 -24.5 46s-7.5 36.834 -7.5 57.501c0 19.333 1.66699 39.833 5 61.5s7.66602 43.5 12.999 65.5l62 257h65l-55 -228l-17.5 -73.5c-6.33301 -25.667 -9.5 -50.167 -9.5 -73.5
c0 -13.333 1.5 -25.666 4.5 -36.999s8.16699 -21.333 15.5 -30s17 -15.334 29 -20.001s27.333 -7 46 -7c32 0 60.167 6.33301 84.5 19s47.166 31 68.499 55c0 18 2.66699 38.667 8 62l15 63l67 270h65l-79 -320c-4 -16.667 -7.33301 -32.334 -10 -47.001s-4 -28.667 -4 -42
c0 -18 1.66699 -35 5 -51s9.33301 -33.667 18 -53l-67 -10c-4 8 -7.5 17.167 -10.5 27.5s-5.16699 20.833 -6.5 31.5c-23.333 -22.667 -48.166 -39.167 -74.499 -49.5s-55.5 -15.5 -87.5 -15.5zM298 773l146 -155l-35 -35l-164 132z" />
    <glyph glyph-name="uacute" unicode="&#xfa;" 
d="M248 -12c-28.667 0 -52.667 3.66699 -72 11s-34.666 17.5 -45.999 30.5s-19.5 28.333 -24.5 46s-7.5 36.834 -7.5 57.501c0 19.333 1.66699 39.833 5 61.5s7.66602 43.5 12.999 65.5l62 257h65l-55 -228l-17.5 -73.5c-6.33301 -25.667 -9.5 -50.167 -9.5 -73.5
c0 -13.333 1.5 -25.666 4.5 -36.999s8.16699 -21.333 15.5 -30s17 -15.334 29 -20.001s27.333 -7 46 -7c32 0 60.167 6.33301 84.5 19s47.166 31 68.499 55c0 18 2.66699 38.667 8 62l15 63l67 270h65l-79 -320c-4 -16.667 -7.33301 -32.334 -10 -47.001s-4 -28.667 -4 -42
c0 -18 1.66699 -35 5 -51s9.33301 -33.667 18 -53l-67 -10c-4 8 -7.5 17.167 -10.5 27.5s-5.16699 20.833 -6.5 31.5c-23.333 -22.667 -48.166 -39.167 -74.499 -49.5s-55.5 -15.5 -87.5 -15.5zM518 711l-175 -128l-29 44l166 146z" />
    <glyph glyph-name="ucircumflex" unicode="&#xfb;" 
d="M248 -12c-28.667 0 -52.667 3.66699 -72 11s-34.666 17.5 -45.999 30.5s-19.5 28.333 -24.5 46s-7.5 36.834 -7.5 57.501c0 19.333 1.66699 39.833 5 61.5s7.66602 43.5 12.999 65.5l62 257h65l-55 -228l-17.5 -73.5c-6.33301 -25.667 -9.5 -50.167 -9.5 -73.5
c0 -13.333 1.5 -25.666 4.5 -36.999s8.16699 -21.333 15.5 -30s17 -15.334 29 -20.001s27.333 -7 46 -7c32 0 60.167 6.33301 84.5 19s47.166 31 68.499 55c0 18 2.66699 38.667 8 62l15 63l67 270h65l-79 -320c-4 -16.667 -7.33301 -32.334 -10 -47.001s-4 -28.667 -4 -42
c0 -18 1.66699 -35 5 -51s9.33301 -33.667 18 -53l-67 -10c-4 8 -7.5 17.167 -10.5 27.5s-5.16699 20.833 -6.5 31.5c-23.333 -22.667 -48.166 -39.167 -74.499 -49.5s-55.5 -15.5 -87.5 -15.5zM278 583l-26 33l169 147l99 -147l-34 -33l-81 96z" />
    <glyph glyph-name="udieresis" unicode="&#xfc;" 
d="M248 -12c-28.667 0 -52.667 3.66699 -72 11s-34.666 17.5 -45.999 30.5s-19.5 28.333 -24.5 46s-7.5 36.834 -7.5 57.501c0 19.333 1.66699 39.833 5 61.5s7.66602 43.5 12.999 65.5l62 257h65l-55 -228l-17.5 -73.5c-6.33301 -25.667 -9.5 -50.167 -9.5 -73.5
c0 -13.333 1.5 -25.666 4.5 -36.999s8.16699 -21.333 15.5 -30s17 -15.334 29 -20.001s27.333 -7 46 -7c32 0 60.167 6.33301 84.5 19s47.166 31 68.499 55c0 18 2.66699 38.667 8 62l15 63l67 270h65l-79 -320c-4 -16.667 -7.33301 -32.334 -10 -47.001s-4 -28.667 -4 -42
c0 -18 1.66699 -35 5 -51s9.33301 -33.667 18 -53l-67 -10c-4 8 -7.5 17.167 -10.5 27.5s-5.16699 20.833 -6.5 31.5c-23.333 -22.667 -48.166 -39.167 -74.499 -49.5s-55.5 -15.5 -87.5 -15.5zM485 625c-15.333 0 -26.5 4.1709 -33.5 12.5039s-10.5 18.166 -10.5 29.499
c0 13.333 4.5 25.666 13.5 36.999s21.5 17 37.5 17c14.667 0 25.5 -4.33301 32.5 -13s10.5 -18.334 10.5 -29.001c0 -12.667 -4.33301 -24.834 -13 -36.501s-21 -17.5 -37 -17.5zM312 625.004c-14.667 0 -25.5 4.1709 -32.5 12.5039s-10.5 18.166 -10.5 29.499
c0 13.333 4.33301 25.666 13 36.999s21 17 37 17c15.333 0 26.5 -4.33301 33.5 -13s10.5 -18.334 10.5 -29.001c0 -12.667 -4.5 -24.834 -13.5 -36.501s-21.5 -17.5 -37.5 -17.5z" />
    <glyph glyph-name="yacute" unicode="&#xfd;" horiz-adv-x="452" 
d="M-36 -116c18 -10 38.332 -14.9951 60.999 -14.9951c34 0 67.333 9.33301 100 28s63 47 91 85c-28 88.667 -50 178.667 -66 270s-25.333 179.666 -28 264.999h68c1.33301 -32 3.5 -67 6.5 -105s7.5 -77.667 13.5 -119s13.333 -83.5 22 -126.5
s19.334 -84.833 32.001 -125.5c30 47.333 57 95.166 81 143.499s45 93.833 63 136.5s32.833 81.167 44.5 115.5s20.167 61.166 25.5 80.499h64c-4 -14 -11.333 -37.833 -22 -71.5s-25 -72.834 -43 -117.501s-39.833 -92.834 -65.5 -144.501s-55.167 -102.167 -88.5 -151.5
c-51.333 -76.667 -101 -132.5 -149 -167.5s-98 -52.5 -150 -52.5c-12 0 -25 1 -39 3s-28.667 7 -44 15zM473.999 711.005l-175 -128l-29 44l166 146z" />
    <glyph glyph-name="thorn" unicode="&#xfe;" horiz-adv-x="519" 
d="M273 517c32 8 64 12 96 12c61.333 0 107 -16 137 -48s45 -79.333 45 -142c0 -46 -7.33301 -90 -22 -132s-36.167 -79 -64.5 -111s-63 -57.5 -104 -76.5s-87.833 -28.5 -140.5 -28.5c-26 0 -50 3 -72 9l-44 -185h-66l138 573l26 108l64 268l68 12zM164 60
c20.667 -6 41.668 -9 63.001 -9c41.333 0 78 7.83301 110 23.5s59 36.334 81 62.001s38.667 55.167 50 88.5s17 68 17 104c0 50 -11 86.5 -33 109.5s-55 34.5 -99 34.5c-15.333 0 -30.833 -1.33301 -46.5 -4s-31.834 -6.33398 -48.501 -11.001z" />
    <glyph glyph-name="ydieresis" unicode="&#xff;" horiz-adv-x="452" 
d="M-36 -116c18 -10 38.332 -14.9951 60.999 -14.9951c34 0 67.333 9.33301 100 28s63 47 91 85c-28 88.667 -50 178.667 -66 270s-25.333 179.666 -28 264.999h68c1.33301 -32 3.5 -67 6.5 -105s7.5 -77.667 13.5 -119s13.333 -83.5 22 -126.5
s19.334 -84.833 32.001 -125.5c30 47.333 57 95.166 81 143.499s45 93.833 63 136.5s32.833 81.167 44.5 115.5s20.167 61.166 25.5 80.499h64c-4 -14 -11.333 -37.833 -22 -71.5s-25 -72.834 -43 -117.501s-39.833 -92.834 -65.5 -144.501s-55.167 -102.167 -88.5 -151.5
c-51.333 -76.667 -101 -132.5 -149 -167.5s-98 -52.5 -150 -52.5c-12 0 -25 1 -39 3s-28.667 7 -44 15zM435.999 625.005c-15.333 0 -26.5 4.1709 -33.5 12.5039s-10.5 18.166 -10.5 29.499c0 13.333 4.5 25.666 13.5 36.999s21.5 17 37.5 17
c14.667 0 25.5 -4.33301 32.5 -13s10.5 -18.334 10.5 -29.001c0 -12.667 -4.33301 -24.834 -13 -36.501s-21 -17.5 -37 -17.5zM262.999 625.009c-14.667 0 -25.5 4.1709 -32.5 12.5039s-10.5 18.166 -10.5 29.499c0 13.333 4.33301 25.666 13 36.999s21 17 37 17
c15.333 0 26.5 -4.33301 33.5 -13s10.5 -18.334 10.5 -29.001c0 -12.667 -4.5 -24.834 -13.5 -36.501s-21.5 -17.5 -37.5 -17.5z" />
    <glyph glyph-name="Amacron" unicode="&#x100;" horiz-adv-x="622" 
d="M546 0c-3.33301 32 -6.83301 63.667 -10.5 95l-11.5 95h-326l-52 -93l-52 -97h-74c68.667 124 139.334 244.667 212.001 362l214 331h73c16.667 -97.333 33.167 -202.5 49.5 -315.5s32.166 -238.833 47.499 -377.5h-70zM465 615l-119 -183l-114 -184h285
c-7.33301 60 -15.333 120.167 -24 180.5zM373 787l13 57h259l-13 -57h-259z" />
    <glyph glyph-name="amacron" unicode="&#x101;" 
d="M487 461c-12 2.66699 -22.998 4.66602 -32.998 5.99902s-20.333 2 -31 2c-41.333 0 -78 -8 -110 -24s-59 -37 -81 -63s-38.833 -55.667 -50.5 -89s-17.5 -67.333 -17.5 -102c0 -27.333 2.66699 -50.166 8 -68.499s12.666 -33 21.999 -44s20.166 -19 32.499 -24
s25.5 -7.5 39.5 -7.5c27.333 0 53 6.5 77 19.5s46.667 31.5 68 55.5c0 18 2.66699 38.667 8 62l15 63zM429.002 -6.00098c-4 8 -7.50098 17.1738 -10.501 27.5068s-5.16699 20.833 -6.5 31.5c-23.333 -22.667 -47.833 -39.334 -73.5 -50.001s-52.167 -16 -79.5 -16
c-21.333 0 -41.666 3.66699 -60.999 11s-36.333 18.666 -51 33.999s-26.5 35.166 -35.5 59.499s-13.5 53.166 -13.5 86.499c0 53.333 8.66699 101.666 26 144.999s41.5 80.166 72.5 110.499s67.667 53.833 110 70.5s88.5 25 138.5 25c41.333 0 81 -7 119 -21l-77 -311
c-4 -16.667 -7.33301 -32.334 -10 -47.001s-4 -28.667 -4 -42c0 -18 1.66699 -35 5 -51s9.33301 -33.667 18 -53zM291.001 647.006l13 57h259l-13 -57h-259z" />
    <glyph glyph-name="Abreve" unicode="&#x102;" horiz-adv-x="622" 
d="M546 0c-3.33301 32 -6.83301 63.667 -10.5 95l-11.5 95h-326l-52 -93l-52 -97h-74c68.667 124 139.334 244.667 212.001 362l214 331h73c16.667 -97.333 33.167 -202.5 49.5 -315.5s32.166 -238.833 47.499 -377.5h-70zM465 615l-119 -183l-114 -184h285
c-7.33301 60 -15.333 120.167 -24 180.5zM392 903h41.999c-0.666992 -3.33301 -1 -6.33301 -1 -9v-8c0 -18.667 5.16699 -33.334 15.5 -44.001s25.833 -16 46.5 -16c18 0 32.833 3.16699 44.5 9.5s21.167 13.666 28.5 21.999s12.833 16.833 16.5 25.5
s6.16699 15.334 7.5 20.001h42c-5.33301 -46 -21.166 -79.667 -47.499 -101s-59.833 -32 -100.5 -32c-32.667 0 -57.167 9.5 -73.5 28.5s-24.5 42.833 -24.5 71.5c0 4.66699 0.333008 9.83398 1 15.501s1.66699 11.5 3 17.5z" />
    <glyph glyph-name="abreve" unicode="&#x103;" 
d="M487 461c-12 2.66699 -22.998 4.66602 -32.998 5.99902s-20.333 2 -31 2c-41.333 0 -78 -8 -110 -24s-59 -37 -81 -63s-38.833 -55.667 -50.5 -89s-17.5 -67.333 -17.5 -102c0 -27.333 2.66699 -50.166 8 -68.499s12.666 -33 21.999 -44s20.166 -19 32.499 -24
s25.5 -7.5 39.5 -7.5c27.333 0 53 6.5 77 19.5s46.667 31.5 68 55.5c0 18 2.66699 38.667 8 62l15 63zM429.002 -6.00098c-4 8 -7.50098 17.1738 -10.501 27.5068s-5.16699 20.833 -6.5 31.5c-23.333 -22.667 -47.833 -39.334 -73.5 -50.001s-52.167 -16 -79.5 -16
c-21.333 0 -41.666 3.66699 -60.999 11s-36.333 18.666 -51 33.999s-26.5 35.166 -35.5 59.499s-13.5 53.166 -13.5 86.499c0 53.333 8.66699 101.666 26 144.999s41.5 80.166 72.5 110.499s67.667 53.833 110 70.5s88.5 25 138.5 25c41.333 0 81 -7 119 -21l-77 -311
c-4 -16.667 -7.33301 -32.334 -10 -47.001s-4 -28.667 -4 -42c0 -18 1.66699 -35 5 -51s9.33301 -33.667 18 -53zM325.001 746.006h41.999c-0.666992 -3.33301 -1 -6.33301 -1 -9v-8c0 -18.667 5.16699 -33.334 15.5 -44.001s25.833 -16 46.5 -16
c18 0 32.833 3.16699 44.5 9.5s21.167 13.666 28.5 21.999s12.833 16.833 16.5 25.5s6.16699 15.334 7.5 20.001h42c-5.33301 -46 -21.166 -79.667 -47.499 -101s-59.833 -32 -100.5 -32c-32.667 0 -57.167 9.5 -73.5 28.5s-24.5 42.833 -24.5 71.5
c0 4.66699 0.333008 9.83398 1 15.501s1.66699 11.5 3 17.5z" />
    <glyph glyph-name="Aogonek" unicode="&#x104;" horiz-adv-x="622" 
d="M546 0c-3.33301 32 -6.83691 63.6699 -10.5039 95.0029l-11.5 95h-326l-52 -93l-52 -97h-74c68.667 124 139.334 244.667 212.001 362l214 331h73c16.667 -97.333 33.167 -202.5 49.5 -315.5s32.166 -238.833 47.499 -377.5c-37.333 -24 -63.333 -44.5 -78 -61.5
s-22 -32.167 -22 -45.5c0 -8 2.83301 -14 8.5 -18s12.667 -6.66699 21 -8s16.833 -1.5 25.5 -0.5s16 2.16699 22 3.5l-7 -49c-9.33301 -2 -18.166 -3.66699 -26.499 -5s-17.166 -2 -26.499 -2c-10.667 0 -20.667 1 -30 3s-17.666 5.5 -24.999 10.5
s-13.166 11.5 -17.499 19.5s-6.5 18.333 -6.5 31c0 12 3 23.667 9 35s13.5 22.166 22.5 32.499s19.167 20.166 30.5 29.499s22.333 17.666 33 24.999h-3zM464.996 615.003l-119 -183l-114 -184h285c-7.33301 60 -15.333 120.167 -24 180.5z" />
    <glyph glyph-name="aogonek" unicode="&#x105;" 
d="M331 -122c0 12 2.99512 23.6758 8.99512 35.0088s13.5 22.166 22.5 32.499s19.167 20.166 30.5 29.499s22.333 17.666 33 24.999c-7.33301 15.333 -12 33 -14 53c-23.333 -22.667 -47.833 -39.334 -73.5 -50.001s-52.167 -16 -79.5 -16
c-21.333 0 -41.666 3.66699 -60.999 11s-36.333 18.666 -51 33.999s-26.5 35.166 -35.5 59.499s-13.5 53.166 -13.5 86.499c0 53.333 8.66699 101.666 26 144.999s41.5 80.166 72.5 110.499s67.667 53.833 110 70.5s88.5 25 138.5 25c41.333 0 81 -7 119 -21l-77 -311
c-4 -16.667 -7.33301 -32.334 -10 -47.001s-4 -28.667 -4 -42c0 -18 1.66699 -35 5 -51s9.33301 -33.667 18 -53c-37.333 -24 -63.833 -45.167 -79.5 -63.5s-23.5 -34.166 -23.5 -47.499c0 -8 2.83301 -14 8.5 -18s12.667 -6.66699 21 -8s16.833 -1.5 25.5 -0.5
s16 2.16699 22 3.5l-7 -49c-9.33301 -2 -18.166 -3.66699 -26.499 -5s-17.166 -2 -26.499 -2c-10.667 0 -20.667 1 -30 3s-17.666 5.5 -24.999 10.5s-13.166 11.5 -17.499 19.5s-6.5 18.333 -6.5 31zM486.995 461.009c-12 2.66699 -22.998 4.66602 -32.998 5.99902
s-20.333 2 -31 2c-41.333 0 -78 -8 -110 -24s-59 -37 -81 -63s-38.833 -55.667 -50.5 -89s-17.5 -67.333 -17.5 -102c0 -27.333 2.66699 -50.166 8 -68.499s12.666 -33 21.999 -44s20.166 -19 32.499 -24s25.5 -7.5 39.5 -7.5c27.333 0 53 6.5 77 19.5s46.667 31.5 68 55.5
c0 18 2.66699 38.667 8 62l15 63z" />
    <glyph glyph-name="Cacute" unicode="&#x106;" horiz-adv-x="610" 
d="M587 31c-27.333 -14.667 -58.3359 -26 -93.0029 -34s-69 -12 -103 -12c-37.333 0 -71.5 5.16699 -102.5 15.5s-57.667 26.333 -80 48s-39.666 49.334 -51.999 83.001s-18.5 74.167 -18.5 121.5c0 71.333 11 135.166 33 191.499s51.667 104 89 143s80.333 68.833 129 89.5
s99.667 31 153 31c31.333 0 60.5 -3.33301 87.5 -10s54.5 -17.667 82.5 -33l-31 -62c-48 29.333 -99 44 -153 44c-42 0 -82.167 -9.16699 -120.5 -27.5s-72.166 -44.5 -101.499 -78.5s-52.666 -75.167 -69.999 -123.5s-26 -102.5 -26 -162.5
c0 -68 14.667 -119.833 44 -155.5s74.333 -53.5 135 -53.5c26.667 0 50.334 1.66699 71.001 5s38.5 7.33301 53.5 12s27.667 9.5 38 14.5s19.166 9.5 26.499 13.5zM695.997 861l-175 -128l-29 44l166 146z" />
    <glyph glyph-name="cacute" unicode="&#x107;" horiz-adv-x="455" 
d="M435 25c-13.333 -8.66699 -33.832 -17.001 -61.499 -25.001s-58.5 -12 -92.5 -12c-60.667 0 -106.334 17.333 -137.001 52s-46 82.334 -46 143.001c0 45.333 7 88.833 21 130.5s34.5 78.5 61.5 110.5s60.167 57.5 99.5 76.5s84 28.5 134 28.5
c34.667 0 69 -5.66699 103 -17l-27 -59c-15.333 6 -30.5 10.167 -45.5 12.5s-29.5 3.5 -43.5 3.5c-35.333 0 -67.5 -7.5 -96.5 -22.5s-53.833 -35.333 -74.5 -61s-36.667 -55.334 -48 -89.001s-17 -69.167 -17 -106.5c0 -44 10.167 -78.667 30.5 -104s52.833 -38 97.5 -38
c14 0 28.167 1.33301 42.5 4s27.5 5.83398 39.5 9.50098s22.667 7.5 32 11.5s16.333 7.66699 21 11zM543.001 710.999l-175 -128l-29 44l166 146z" />
    <glyph glyph-name="Ccircumflex" unicode="&#x108;" horiz-adv-x="610" 
d="M587 31c-27.333 -14.667 -58.3359 -26 -93.0029 -34s-69 -12 -103 -12c-37.333 0 -71.5 5.16699 -102.5 15.5s-57.667 26.333 -80 48s-39.666 49.334 -51.999 83.001s-18.5 74.167 -18.5 121.5c0 71.333 11 135.166 33 191.499s51.667 104 89 143s80.333 68.833 129 89.5
s99.667 31 153 31c31.333 0 60.5 -3.33301 87.5 -10s54.5 -17.667 82.5 -33l-31 -62c-48 29.333 -99 44 -153 44c-42 0 -82.167 -9.16699 -120.5 -27.5s-72.166 -44.5 -101.499 -78.5s-52.666 -75.167 -69.999 -123.5s-26 -102.5 -26 -162.5
c0 -68 14.667 -119.833 44 -155.5s74.333 -53.5 135 -53.5c26.667 0 50.334 1.66699 71.001 5s38.5 7.33301 53.5 12s27.667 9.5 38 14.5s19.166 9.5 26.499 13.5zM433.997 734l-26 33l169 147l99 -147l-34 -33l-81 96z" />
    <glyph glyph-name="ccircumflex" unicode="&#x109;" horiz-adv-x="455" 
d="M435 25c-13.333 -8.66699 -33.832 -17.001 -61.499 -25.001s-58.5 -12 -92.5 -12c-60.667 0 -106.334 17.333 -137.001 52s-46 82.334 -46 143.001c0 45.333 7 88.833 21 130.5s34.5 78.5 61.5 110.5s60.167 57.5 99.5 76.5s84 28.5 134 28.5
c34.667 0 69 -5.66699 103 -17l-27 -59c-15.333 6 -30.5 10.167 -45.5 12.5s-29.5 3.5 -43.5 3.5c-35.333 0 -67.5 -7.5 -96.5 -22.5s-53.833 -35.333 -74.5 -61s-36.667 -55.334 -48 -89.001s-17 -69.167 -17 -106.5c0 -44 10.167 -78.667 30.5 -104s52.833 -38 97.5 -38
c14 0 28.167 1.33301 42.5 4s27.5 5.83398 39.5 9.50098s22.667 7.5 32 11.5s16.333 7.66699 21 11zM293.001 582.999l-26 33l169 147l99 -147l-34 -33l-81 96z" />
    <glyph glyph-name="Cdotaccent" unicode="&#x10a;" horiz-adv-x="610" 
d="M587 31c-27.333 -14.667 -58.3359 -26 -93.0029 -34s-69 -12 -103 -12c-37.333 0 -71.5 5.16699 -102.5 15.5s-57.667 26.333 -80 48s-39.666 49.334 -51.999 83.001s-18.5 74.167 -18.5 121.5c0 71.333 11 135.166 33 191.499s51.667 104 89 143s80.333 68.833 129 89.5
s99.667 31 153 31c31.333 0 60.5 -3.33301 87.5 -10s54.5 -17.667 82.5 -33l-31 -62c-48 29.333 -99 44 -153 44c-42 0 -82.167 -9.16699 -120.5 -27.5s-72.166 -44.5 -101.499 -78.5s-52.666 -75.167 -69.999 -123.5s-26 -102.5 -26 -162.5
c0 -68 14.667 -119.833 44 -155.5s74.333 -53.5 135 -53.5c26.667 0 50.334 1.66699 71.001 5s38.5 7.33301 53.5 12s27.667 9.5 38 14.5s19.166 9.5 26.499 13.5zM563.997 775c-17.333 0 -29.666 4.66699 -36.999 14s-11 20 -11 32c0 14 4.83301 27.333 14.5 40
s23.167 19 40.5 19s29.666 -4.66699 36.999 -14s11 -20 11 -32c0 -14 -4.83301 -27.333 -14.5 -40s-23.167 -19 -40.5 -19z" />
    <glyph glyph-name="cdotaccent" unicode="&#x10b;" horiz-adv-x="455" 
d="M435 25c-13.333 -8.66699 -33.832 -17.001 -61.499 -25.001s-58.5 -12 -92.5 -12c-60.667 0 -106.334 17.333 -137.001 52s-46 82.334 -46 143.001c0 45.333 7 88.833 21 130.5s34.5 78.5 61.5 110.5s60.167 57.5 99.5 76.5s84 28.5 134 28.5
c34.667 0 69 -5.66699 103 -17l-27 -59c-15.333 6 -30.5 10.167 -45.5 12.5s-29.5 3.5 -43.5 3.5c-35.333 0 -67.5 -7.5 -96.5 -22.5s-53.833 -35.333 -74.5 -61s-36.667 -55.334 -48 -89.001s-17 -69.167 -17 -106.5c0 -44 10.167 -78.667 30.5 -104s52.833 -38 97.5 -38
c14 0 28.167 1.33301 42.5 4s27.5 5.83398 39.5 9.50098s22.667 7.5 32 11.5s16.333 7.66699 21 11zM420.001 620.999c-17.333 0 -29.666 4.66699 -36.999 14s-11 20 -11 32c0 14 4.83301 27.333 14.5 40s23.167 19 40.5 19s29.666 -4.66699 36.999 -14s11 -20 11 -32
c0 -14 -4.83301 -27.333 -14.5 -40s-23.167 -19 -40.5 -19z" />
    <glyph glyph-name="Ccaron" unicode="&#x10c;" horiz-adv-x="610" 
d="M587 31c-27.333 -14.667 -58.3359 -26 -93.0029 -34s-69 -12 -103 -12c-37.333 0 -71.5 5.16699 -102.5 15.5s-57.667 26.333 -80 48s-39.666 49.334 -51.999 83.001s-18.5 74.167 -18.5 121.5c0 71.333 11 135.166 33 191.499s51.667 104 89 143s80.333 68.833 129 89.5
s99.667 31 153 31c31.333 0 60.5 -3.33301 87.5 -10s54.5 -17.667 82.5 -33l-31 -62c-48 29.333 -99 44 -153 44c-42 0 -82.167 -9.16699 -120.5 -27.5s-72.166 -44.5 -101.499 -78.5s-52.666 -75.167 -69.999 -123.5s-26 -102.5 -26 -162.5
c0 -68 14.667 -119.833 44 -155.5s74.333 -53.5 135 -53.5c26.667 0 50.334 1.66699 71.001 5s38.5 7.33301 53.5 12s27.667 9.5 38 14.5s19.166 9.5 26.499 13.5zM693.997 916l26 -33l-169 -147l-99 147l34 33l81 -96z" />
    <glyph glyph-name="ccaron" unicode="&#x10d;" horiz-adv-x="455" 
d="M435 25c-13.333 -8.66699 -33.832 -17.001 -61.499 -25.001s-58.5 -12 -92.5 -12c-60.667 0 -106.334 17.333 -137.001 52s-46 82.334 -46 143.001c0 45.333 7 88.833 21 130.5s34.5 78.5 61.5 110.5s60.167 57.5 99.5 76.5s84 28.5 134 28.5
c34.667 0 69 -5.66699 103 -17l-27 -59c-15.333 6 -30.5 10.167 -45.5 12.5s-29.5 3.5 -43.5 3.5c-35.333 0 -67.5 -7.5 -96.5 -22.5s-53.833 -35.333 -74.5 -61s-36.667 -55.334 -48 -89.001s-17 -69.167 -17 -106.5c0 -44 10.167 -78.667 30.5 -104s52.833 -38 97.5 -38
c14 0 28.167 1.33301 42.5 4s27.5 5.83398 39.5 9.50098s22.667 7.5 32 11.5s16.333 7.66699 21 11zM544.001 762.999l26 -33l-169 -147l-99 147l34 33l81 -96z" />
    <glyph glyph-name="Dcaron" unicode="&#x10e;" horiz-adv-x="679" 
d="M162 60c16.667 -2.66699 32.666 -4.5 47.999 -5.5s30.666 -1.5 45.999 -1.5c62.667 0 117.834 9.16699 165.501 27.5s87.5 43.5 119.5 75.5s56.167 69.833 72.5 113.5s24.5 91.167 24.5 142.5c0 76.667 -19.167 134 -57.5 172s-98.166 57 -179.499 57
c-16.667 0 -33.5 -0.666992 -50.5 -2s-34.167 -3.33301 -51.5 -6zM241.999 680c32.667 7.33301 62.332 12.335 88.999 15.002s53 4 79 4c102 0 177.667 -24.667 227 -74s74 -119.333 74 -210c0 -61.333 -10 -117.833 -30 -169.5s-49.5 -96.167 -88.5 -133.5
s-87.5 -66.333 -145.5 -87s-125 -31 -201 -31c-13.333 0 -27.5 0.5 -42.5 1.5s-29.667 2.16699 -44 3.5s-28.166 3.16602 -41.499 5.49902s-25 5.16602 -35 8.49902zM605.997 916.002l26 -33l-169 -147l-99 147l34 33l81 -96z" />
    <glyph glyph-name="dcaron" unicode="&#x10f;" horiz-adv-x="540" 
d="M493 464c-9.33301 1.33301 -19.666 2.5 -30.999 3.5s-21.666 1.5 -30.999 1.5c-46.667 0 -86.834 -8.5 -120.501 -25.5s-61.334 -39 -83.001 -66s-37.667 -57 -48 -90s-15.5 -65.5 -15.5 -97.5c0 -20 1.83301 -38.5 5.5 -55.5s9.5 -32 17.5 -45s18.333 -23.167 31 -30.5
s28 -11 46 -11c16.667 0 32.5 2.33301 47.5 7s29 10.5 42 17.5s24.833 14.833 35.5 23.5s19.667 17 27 25c0 17.333 2.33301 36.833 7 58.5s10 44.167 16 67.5zM434 -6c-3.33301 6.66699 -6.66699 15.499 -10 26.499s-5.66602 21.833 -6.99902 32.5
c-6 -6.66699 -13.833 -13.834 -23.5 -21.501s-21.167 -14.667 -34.5 -21s-28.333 -11.666 -45 -15.999s-35 -6.5 -55 -6.5c-28.667 0 -53.167 5.16699 -73.5 15.5s-37 24.166 -50 41.499s-22.5 37.833 -28.5 61.5s-9 48.5 -9 74.5c0 42 6.83301 83.667 20.5 125
s34.667 78.5 63 111.5s64.166 59.833 107.499 80.5s94.333 31 153 31c21.333 0 43 -2 65 -6l57 241l68 12l-144 -597c-3.33301 -12 -5.83301 -23.667 -7.5 -35s-2.5 -22.333 -2.5 -33c0 -19.333 1.66699 -37.666 5 -54.999s9.33301 -34.666 18 -51.999zM770.999 775.999
l-77 -217h-47l53 217h71z" />
    <glyph glyph-name="Dcroat" unicode="&#x110;" horiz-adv-x="692" 
d="M173 335l-80.002 0.00390625l13 55h80l69 290c32.667 7.33301 62.334 12.333 89.001 15s53 4 79 4c96 0 170.167 -22.5 222.5 -67.5s78.5 -113.5 78.5 -205.5c0 -52.667 -8 -104.834 -24 -156.501s-42.333 -97.834 -79 -138.501s-84.5 -73.667 -143.5 -99
s-131.833 -38 -218.5 -38c-13.333 0 -27.5 0.5 -42.5 1.5s-29.667 2.16699 -44 3.5s-28.166 3.16602 -41.499 5.49902s-25 5.16602 -35 8.49902zM253.998 390.004l131.005 -0.00195312l-13 -55h-131l-66 -275c16.667 -2.66699 32.667 -4.5 48 -5.5s30.666 -1.5 45.999 -1.5
c59.333 0 112.666 8.83301 159.999 26.5s87.5 42.834 120.5 75.501s58.333 72.334 76 119.001s26.5 98.667 26.5 156c0 38.667 -6.33301 71.5 -19 98.5s-29.834 48.833 -51.501 65.5s-46.834 28.667 -75.501 36s-59.334 11 -92.001 11c-16.667 0 -33.5 -0.666992 -50.5 -2
s-34.167 -3.33301 -51.5 -6z" />
    <glyph glyph-name="dcroat" unicode="&#x111;" horiz-adv-x="540" 
d="M434 -6c-3.33301 6.66699 -6.66699 15.499 -10 26.499s-5.66602 21.833 -6.99902 32.5c-6 -6.66699 -13.833 -13.834 -23.5 -21.501s-21.167 -14.667 -34.5 -21s-28.333 -11.666 -45 -15.999s-35 -6.5 -55 -6.5c-28.667 0 -53.167 5.16699 -73.5 15.5
s-37 24.166 -50 41.499s-22.5 37.833 -28.5 61.5s-9 48.5 -9 74.5c0 42 6.83301 83.667 20.5 125s34.667 78.5 63 111.5s64.166 59.833 107.499 80.5s94.333 31 153 31c21.333 0 43 -2 65 -6l23 100h-154l12 52h155l21 89l68 12l-25 -101h80l-12 -52h-80l-107 -444
c-3.33301 -12 -5.83301 -23.667 -7.5 -35s-2.5 -22.333 -2.5 -33c0 -19.333 1.66699 -37.666 5 -54.999s9.33301 -34.666 18 -51.999zM492.999 463.999c-9.33301 1.33301 -19.666 2.5 -30.999 3.5s-21.666 1.5 -30.999 1.5c-46.667 0 -86.834 -8.5 -120.501 -25.5
s-61.334 -39 -83.001 -66s-37.667 -57 -48 -90s-15.5 -65.5 -15.5 -97.5c0 -20 1.83301 -38.5 5.5 -55.5s9.5 -32 17.5 -45s18.333 -23.167 31 -30.5s28 -11 46 -11c16.667 0 32.5 2.33301 47.5 7s29 10.5 42 17.5s24.833 14.833 35.5 23.5s19.667 17 27 25
c0 17.333 2.33301 36.833 7 58.5s10 44.167 16 67.5z" />
    <glyph glyph-name="Emacron" unicode="&#x112;" horiz-adv-x="524" 
d="M249 693h387l-13 -59h-321l-59 -241h286l-13 -58h-284l-69 -276h344l-12 -59h-412zM336 787l13 57h259l-13 -57h-259z" />
    <glyph glyph-name="emacron" unicode="&#x113;" horiz-adv-x="488" 
d="M540 396c0 -37.333 -9.16602 -67.667 -27.499 -91s-44 -41.833 -77 -55.5s-72.667 -23.5 -119 -29.5s-97.833 -10.333 -154.5 -13v-21c0 -19.333 2 -37.333 6 -54s11.333 -31.167 22 -43.5s25.5 -22.166 44.5 -29.499s43.5 -11 73.5 -11c23.333 0 46.833 3.33301 70.5 10
s46.167 16.667 67.5 30l7 -60c-22.667 -12.667 -47.667 -22.5 -75 -29.5s-55 -10.5 -83 -10.5c-36.667 0 -67.5 4.66699 -92.5 14s-45.333 22.333 -61 39s-26.834 36.667 -33.501 60s-10 49 -10 77c0 42.667 6.5 85 19.5 127s32.167 79.667 57.5 113
s56.5 60.166 93.5 80.499s79.167 30.5 126.5 30.5c46.667 0 82.5 -12.167 107.5 -36.5s37.5 -56.5 37.5 -96.5zM389.001 469.999c-26.667 0 -51.667 -5.49902 -75 -16.499s-44.333 -25.833 -63 -44.5s-34.834 -40.334 -48.501 -65.001s-23.834 -50.667 -30.501 -78
c56.667 1.33301 104.334 5 143.001 11s69.834 14.333 93.501 25s40.5 23.5 50.5 38.5s15 32.167 15 51.5c0 26 -7.83301 45.5 -23.5 58.5s-36.167 19.5 -61.5 19.5zM290.001 647l13 57h259l-13 -57h-259z" />
    <glyph glyph-name="Ebreve" unicode="&#x114;" horiz-adv-x="524" 
d="M249 693h387l-13 -59h-321l-59 -241h286l-13 -58h-284l-69 -276h344l-12 -59h-412zM369 903h41.999c-0.666992 -3.33301 -1 -6.33301 -1 -9v-8c0 -18.667 5.16699 -33.334 15.5 -44.001s25.833 -16 46.5 -16c18 0 32.833 3.16699 44.5 9.5s21.167 13.666 28.5 21.999
s12.833 16.833 16.5 25.5s6.16699 15.334 7.5 20.001h42c-5.33301 -46 -21.166 -79.667 -47.499 -101s-59.833 -32 -100.5 -32c-32.667 0 -57.167 9.5 -73.5 28.5s-24.5 42.833 -24.5 71.5c0 4.66699 0.333008 9.83398 1 15.501s1.66699 11.5 3 17.5z" />
    <glyph glyph-name="ebreve" unicode="&#x115;" horiz-adv-x="488" 
d="M540 396c0 -37.333 -9.16602 -67.667 -27.499 -91s-44 -41.833 -77 -55.5s-72.667 -23.5 -119 -29.5s-97.833 -10.333 -154.5 -13v-21c0 -19.333 2 -37.333 6 -54s11.333 -31.167 22 -43.5s25.5 -22.166 44.5 -29.499s43.5 -11 73.5 -11c23.333 0 46.833 3.33301 70.5 10
s46.167 16.667 67.5 30l7 -60c-22.667 -12.667 -47.667 -22.5 -75 -29.5s-55 -10.5 -83 -10.5c-36.667 0 -67.5 4.66699 -92.5 14s-45.333 22.333 -61 39s-26.834 36.667 -33.501 60s-10 49 -10 77c0 42.667 6.5 85 19.5 127s32.167 79.667 57.5 113
s56.5 60.166 93.5 80.499s79.167 30.5 126.5 30.5c46.667 0 82.5 -12.167 107.5 -36.5s37.5 -56.5 37.5 -96.5zM389.001 469.999c-26.667 0 -51.667 -5.49902 -75 -16.499s-44.333 -25.833 -63 -44.5s-34.834 -40.334 -48.501 -65.001s-23.834 -50.667 -30.501 -78
c56.667 1.33301 104.334 5 143.001 11s69.834 14.333 93.501 25s40.5 23.5 50.5 38.5s15 32.167 15 51.5c0 26 -7.83301 45.5 -23.5 58.5s-36.167 19.5 -61.5 19.5zM311.001 746h41.999c-0.666992 -3.33301 -1 -6.33301 -1 -9v-8c0 -18.667 5.16699 -33.334 15.5 -44.001
s25.833 -16 46.5 -16c18 0 32.833 3.16699 44.5 9.5s21.167 13.666 28.5 21.999s12.833 16.833 16.5 25.5s6.16699 15.334 7.5 20.001h42c-5.33301 -46 -21.166 -79.667 -47.499 -101s-59.833 -32 -100.5 -32c-32.667 0 -57.167 9.5 -73.5 28.5s-24.5 42.833 -24.5 71.5
c0 4.66699 0.333008 9.83398 1 15.501s1.66699 11.5 3 17.5z" />
    <glyph glyph-name="Edotaccent" unicode="&#x116;" horiz-adv-x="524" 
d="M249 693h387l-13 -59h-321l-59 -241h286l-13 -58h-284l-69 -276h344l-12 -59h-412zM477 775c-17.333 0 -29.666 4.66699 -36.999 14s-11 20 -11 32c0 14 4.83301 27.333 14.5 40s23.167 19 40.5 19s29.666 -4.66699 36.999 -14s11 -20 11 -32
c0 -14 -4.83301 -27.333 -14.5 -40s-23.167 -19 -40.5 -19z" />
    <glyph glyph-name="edotaccent" unicode="&#x117;" horiz-adv-x="488" 
d="M540 396c0 -37.333 -9.16602 -67.667 -27.499 -91s-44 -41.833 -77 -55.5s-72.667 -23.5 -119 -29.5s-97.833 -10.333 -154.5 -13v-21c0 -19.333 2 -37.333 6 -54s11.333 -31.167 22 -43.5s25.5 -22.166 44.5 -29.499s43.5 -11 73.5 -11c23.333 0 46.833 3.33301 70.5 10
s46.167 16.667 67.5 30l7 -60c-22.667 -12.667 -47.667 -22.5 -75 -29.5s-55 -10.5 -83 -10.5c-36.667 0 -67.5 4.66699 -92.5 14s-45.333 22.333 -61 39s-26.834 36.667 -33.501 60s-10 49 -10 77c0 42.667 6.5 85 19.5 127s32.167 79.667 57.5 113
s56.5 60.166 93.5 80.499s79.167 30.5 126.5 30.5c46.667 0 82.5 -12.167 107.5 -36.5s37.5 -56.5 37.5 -96.5zM389.001 469.999c-26.667 0 -51.667 -5.49902 -75 -16.499s-44.333 -25.833 -63 -44.5s-34.834 -40.334 -48.501 -65.001s-23.834 -50.667 -30.501 -78
c56.667 1.33301 104.334 5 143.001 11s69.834 14.333 93.501 25s40.5 23.5 50.5 38.5s15 32.167 15 51.5c0 26 -7.83301 45.5 -23.5 58.5s-36.167 19.5 -61.5 19.5zM427.001 621c-17.333 0 -29.666 4.66699 -36.999 14s-11 20 -11 32c0 14 4.83301 27.333 14.5 40
s23.167 19 40.5 19s29.666 -4.66699 36.999 -14s11 -20 11 -32c0 -14 -4.83301 -27.333 -14.5 -40s-23.167 -19 -40.5 -19z" />
    <glyph glyph-name="Eogonek" unicode="&#x118;" horiz-adv-x="524" 
d="M249 693l386.996 0.00292969l-13 -59h-321l-59 -241h286l-13 -58h-284l-69 -276h344l-12 -59c-37.333 -24 -63.333 -44.5 -78 -61.5s-22 -32.167 -22 -45.5c0 -8 2.83301 -14 8.5 -18s12.667 -6.66699 21 -8s16.833 -1.5 25.5 -0.5s16 2.16699 22 3.5l-7 -49
c-9.33301 -2 -18.166 -3.66699 -26.499 -5s-17.166 -2 -26.499 -2c-10.667 0 -20.667 1 -30 3s-17.666 5.5 -24.999 10.5s-13.166 11.5 -17.499 19.5s-6.5 18.333 -6.5 31c0 12 3 23.667 9 35s13.5 22.166 22.5 32.499s19.167 20.166 30.5 29.499s22.333 17.666 33 24.999
h-345z" />
    <glyph glyph-name="eogonek" unicode="&#x119;" horiz-adv-x="488" 
d="M261 -122c0 10.667 2.49707 21.3291 7.49707 31.9961s11.333 20.834 19 30.501s16.5 18.834 26.5 27.501s20 16.667 30 24c-8 -1.33301 -16.167 -2.33301 -24.5 -3s-16.5 -1 -24.5 -1c-36.667 0 -67.5 4.66699 -92.5 14s-45.333 22.333 -61 39s-26.834 36.667 -33.501 60
s-10 49 -10 77c0 42.667 6.5 85 19.5 127s32.167 79.667 57.5 113s56.5 60.166 93.5 80.499s79.167 30.5 126.5 30.5c46.667 0 82.5 -12.167 107.5 -36.5s37.5 -56.5 37.5 -96.5c0 -39.333 -9.16699 -71.166 -27.5 -95.499s-44 -43.5 -77 -57.5s-72.667 -24 -119 -30
s-97.833 -10.333 -154.5 -13v-14c0 -19.333 2 -37.333 6 -54s11.333 -31.167 22 -43.5s25.5 -22.166 44.5 -29.499s43.5 -11 73.5 -11c23.333 0 46.833 3.33301 70.5 10s46.167 16.667 67.5 30l7 -60c-45.333 -32 -78.333 -58.167 -99 -78.5s-31 -39.166 -31 -56.499
c0 -8 2.83301 -14 8.5 -18s12.667 -6.66699 21 -8s16.833 -1.5 25.5 -0.5s16 2.16699 22 3.5l-7 -49c-9.33301 -2 -18.166 -3.66699 -26.499 -5s-17.166 -2 -26.499 -2c-10.667 0 -20.667 1 -30 3s-17.666 5.5 -24.999 10.5s-13.166 11.5 -17.499 19.5s-6.5 18.333 -6.5 31z
M388.997 469.995c-27.333 0 -52.668 -5.5 -76.001 -16.5s-44.5 -26 -63.5 -45s-35.167 -41 -48.5 -66s-23.333 -51.5 -30 -79.5c57.333 0.666992 105.333 4 144 10s69.834 14.167 93.501 24.5s40.5 23.333 50.5 39s15 34.167 15 55.5c0 26 -7.83301 45.5 -23.5 58.5
s-36.167 19.5 -61.5 19.5z" />
    <glyph glyph-name="Ecaron" unicode="&#x11a;" horiz-adv-x="524" 
d="M249 693h387l-13 -59h-321l-59 -241h286l-13 -58h-284l-69 -276h344l-12 -59h-412zM598 916l26 -33l-169 -147l-99 147l34 33l81 -96z" />
    <glyph glyph-name="ecaron" unicode="&#x11b;" horiz-adv-x="488" 
d="M540 396c0 -37.333 -9.16602 -67.667 -27.499 -91s-44 -41.833 -77 -55.5s-72.667 -23.5 -119 -29.5s-97.833 -10.333 -154.5 -13v-21c0 -19.333 2 -37.333 6 -54s11.333 -31.167 22 -43.5s25.5 -22.166 44.5 -29.499s43.5 -11 73.5 -11c23.333 0 46.833 3.33301 70.5 10
s46.167 16.667 67.5 30l7 -60c-22.667 -12.667 -47.667 -22.5 -75 -29.5s-55 -10.5 -83 -10.5c-36.667 0 -67.5 4.66699 -92.5 14s-45.333 22.333 -61 39s-26.834 36.667 -33.501 60s-10 49 -10 77c0 42.667 6.5 85 19.5 127s32.167 79.667 57.5 113
s56.5 60.166 93.5 80.499s79.167 30.5 126.5 30.5c46.667 0 82.5 -12.167 107.5 -36.5s37.5 -56.5 37.5 -96.5zM389.001 469.999c-26.667 0 -51.667 -5.49902 -75 -16.499s-44.333 -25.833 -63 -44.5s-34.834 -40.334 -48.501 -65.001s-23.834 -50.667 -30.501 -78
c56.667 1.33301 104.334 5 143.001 11s69.834 14.333 93.501 25s40.5 23.5 50.5 38.5s15 32.167 15 51.5c0 26 -7.83301 45.5 -23.5 58.5s-36.167 19.5 -61.5 19.5zM527.001 763l26 -33l-169 -147l-99 147l34 33l81 -96z" />
    <glyph glyph-name="Gcircumflex" unicode="&#x11c;" horiz-adv-x="640" 
d="M593 324l68.001 -0.00390625l-72 -301c-30 -12 -61 -21.333 -93 -28s-63 -10 -93 -10c-46 0 -85.833 6.33301 -119.5 19s-61.167 31 -82.5 55s-37.166 52.833 -47.499 86.5s-15.5 71.5 -15.5 113.5c0 58.667 9.33301 115 28 169s45.334 101.667 80.001 143
s76.834 74.5 126.501 99.5s105.167 37.5 166.5 37.5c30 0 55.667 -1.66699 77 -5s39.5 -7.33301 54.5 -12s27.167 -9.66699 36.5 -15s17.666 -9.66602 24.999 -12.999l-31 -62c-2 2 -7.66699 5.5 -17 10.5s-21.5 10.167 -36.5 15.5s-32.333 10 -52 14s-41.167 6 -64.5 6
c-49.333 0 -93.833 -10.667 -133.5 -32s-73.334 -49.666 -101.001 -84.999s-49 -76.166 -64 -122.499s-22.5 -94.833 -22.5 -145.5c0 -69.333 15 -122.666 45 -159.999s78.333 -56 145 -56c21.333 0 43.166 1.83301 65.499 5.5s45.166 9.5 68.499 17.5zM446.001 733.996
l-26 33l169 147l99 -147l-34 -33l-81 96z" />
    <glyph glyph-name="gcircumflex" unicode="&#x11d;" horiz-adv-x="524" 
d="M492 462c-21.333 5.33301 -42 8 -62 8c-46 0 -85.833 -8 -119.5 -24s-61.5 -36.5 -83.5 -61.5s-38.333 -52.667 -49 -83s-16 -59.5 -16 -87.5c0 -18 1.66699 -35.167 5 -51.5s9 -30.5 17 -42.5s19 -21.5 33 -28.5s32 -10.5 54 -10.5c22.667 0 46.167 4.16699 70.5 12.5
s47.5 19.5 69.5 33.5zM44 -89c14 -11.333 34.1699 -20.6641 60.5029 -27.9971s52.5 -11 78.5 -11c61.333 0 108.5 14 141.5 42s54.5 67.667 64.5 119l5 26c-20 -12.667 -41.333 -22.167 -64 -28.5s-45.334 -9.5 -68.001 -9.5c-28.667 0 -53.5 4.66699 -74.5 14
s-38.167 22.166 -51.5 38.499s-23.333 35.333 -30 57s-10 44.834 -10 69.501c0 38 6.83301 76.5 20.5 115.5s34.834 74.333 63.501 106s64.5 57.5 107.5 77.5s94.167 30 153.5 30c24 0 46.667 -2.5 68 -7.5s40.333 -12.167 57 -21.5l-112 -466
c-6.66699 -28 -15.334 -55.333 -26.001 -82s-26.334 -50.334 -47.001 -71.001s-48.167 -37.334 -82.5 -50.001s-78.5 -19 -132.5 -19c-10.667 0 -22.667 0.833008 -36 2.5s-26.833 4.16699 -40.5 7.5s-26.834 7.16602 -39.501 11.499s-24 9.5 -34 15.5zM299.003 583.002
l-26 33l169 147l99 -147l-34 -33l-81 96z" />
    <glyph glyph-name="Gbreve" unicode="&#x11e;" horiz-adv-x="640" 
d="M593 324l68.001 -0.00390625l-72 -301c-30 -12 -61 -21.333 -93 -28s-63 -10 -93 -10c-46 0 -85.833 6.33301 -119.5 19s-61.167 31 -82.5 55s-37.166 52.833 -47.499 86.5s-15.5 71.5 -15.5 113.5c0 58.667 9.33301 115 28 169s45.334 101.667 80.001 143
s76.834 74.5 126.501 99.5s105.167 37.5 166.5 37.5c30 0 55.667 -1.66699 77 -5s39.5 -7.33301 54.5 -12s27.167 -9.66699 36.5 -15s17.666 -9.66602 24.999 -12.999l-31 -62c-2 2 -7.66699 5.5 -17 10.5s-21.5 10.167 -36.5 15.5s-32.333 10 -52 14s-41.167 6 -64.5 6
c-49.333 0 -93.833 -10.667 -133.5 -32s-73.334 -49.666 -101.001 -84.999s-49 -76.166 -64 -122.499s-22.5 -94.833 -22.5 -145.5c0 -69.333 15 -122.666 45 -159.999s78.333 -56 145 -56c21.333 0 43.166 1.83301 65.499 5.5s45.166 9.5 68.499 17.5zM449.001 902.996
h41.999c-0.666992 -3.33301 -1 -6.33301 -1 -9v-8c0 -18.667 5.16699 -33.334 15.5 -44.001s25.833 -16 46.5 -16c18 0 32.833 3.16699 44.5 9.5s21.167 13.666 28.5 21.999s12.833 16.833 16.5 25.5s6.16699 15.334 7.5 20.001h42
c-5.33301 -46 -21.166 -79.667 -47.499 -101s-59.833 -32 -100.5 -32c-32.667 0 -57.167 9.5 -73.5 28.5s-24.5 42.833 -24.5 71.5c0 4.66699 0.333008 9.83398 1 15.501s1.66699 11.5 3 17.5z" />
    <glyph glyph-name="gbreve" unicode="&#x11f;" horiz-adv-x="524" 
d="M492 462c-21.333 5.33301 -42 8 -62 8c-46 0 -85.833 -8 -119.5 -24s-61.5 -36.5 -83.5 -61.5s-38.333 -52.667 -49 -83s-16 -59.5 -16 -87.5c0 -18 1.66699 -35.167 5 -51.5s9 -30.5 17 -42.5s19 -21.5 33 -28.5s32 -10.5 54 -10.5c22.667 0 46.167 4.16699 70.5 12.5
s47.5 19.5 69.5 33.5zM44 -89c14 -11.333 34.1699 -20.6641 60.5029 -27.9971s52.5 -11 78.5 -11c61.333 0 108.5 14 141.5 42s54.5 67.667 64.5 119l5 26c-20 -12.667 -41.333 -22.167 -64 -28.5s-45.334 -9.5 -68.001 -9.5c-28.667 0 -53.5 4.66699 -74.5 14
s-38.167 22.166 -51.5 38.499s-23.333 35.333 -30 57s-10 44.834 -10 69.501c0 38 6.83301 76.5 20.5 115.5s34.834 74.333 63.501 106s64.5 57.5 107.5 77.5s94.167 30 153.5 30c24 0 46.667 -2.5 68 -7.5s40.333 -12.167 57 -21.5l-112 -466
c-6.66699 -28 -15.334 -55.333 -26.001 -82s-26.334 -50.334 -47.001 -71.001s-48.167 -37.334 -82.5 -50.001s-78.5 -19 -132.5 -19c-10.667 0 -22.667 0.833008 -36 2.5s-26.833 4.16699 -40.5 7.5s-26.834 7.16602 -39.501 11.499s-24 9.5 -34 15.5zM333.003 746.002
h41.999c-0.666992 -3.33301 -1 -6.33301 -1 -9v-8c0 -18.667 5.16699 -33.334 15.5 -44.001s25.833 -16 46.5 -16c18 0 32.833 3.16699 44.5 9.5s21.167 13.666 28.5 21.999s12.833 16.833 16.5 25.5s6.16699 15.334 7.5 20.001h42
c-5.33301 -46 -21.166 -79.667 -47.499 -101s-59.833 -32 -100.5 -32c-32.667 0 -57.167 9.5 -73.5 28.5s-24.5 42.833 -24.5 71.5c0 4.66699 0.333008 9.83398 1 15.501s1.66699 11.5 3 17.5z" />
    <glyph glyph-name="Gdotaccent" unicode="&#x120;" horiz-adv-x="640" 
d="M593 324l68.001 -0.00390625l-72 -301c-30 -12 -61 -21.333 -93 -28s-63 -10 -93 -10c-46 0 -85.833 6.33301 -119.5 19s-61.167 31 -82.5 55s-37.166 52.833 -47.499 86.5s-15.5 71.5 -15.5 113.5c0 58.667 9.33301 115 28 169s45.334 101.667 80.001 143
s76.834 74.5 126.501 99.5s105.167 37.5 166.5 37.5c30 0 55.667 -1.66699 77 -5s39.5 -7.33301 54.5 -12s27.167 -9.66699 36.5 -15s17.666 -9.66602 24.999 -12.999l-31 -62c-2 2 -7.66699 5.5 -17 10.5s-21.5 10.167 -36.5 15.5s-32.333 10 -52 14s-41.167 6 -64.5 6
c-49.333 0 -93.833 -10.667 -133.5 -32s-73.334 -49.666 -101.001 -84.999s-49 -76.166 -64 -122.499s-22.5 -94.833 -22.5 -145.5c0 -69.333 15 -122.666 45 -159.999s78.333 -56 145 -56c21.333 0 43.166 1.83301 65.499 5.5s45.166 9.5 68.499 17.5zM561.001 774.996
c-17.333 0 -29.666 4.66699 -36.999 14s-11 20 -11 32c0 14 4.83301 27.333 14.5 40s23.167 19 40.5 19s29.666 -4.66699 36.999 -14s11 -20 11 -32c0 -14 -4.83301 -27.333 -14.5 -40s-23.167 -19 -40.5 -19z" />
    <glyph glyph-name="gdotaccent" unicode="&#x121;" horiz-adv-x="524" 
d="M492 462c-21.333 5.33301 -42 8 -62 8c-46 0 -85.833 -8 -119.5 -24s-61.5 -36.5 -83.5 -61.5s-38.333 -52.667 -49 -83s-16 -59.5 -16 -87.5c0 -18 1.66699 -35.167 5 -51.5s9 -30.5 17 -42.5s19 -21.5 33 -28.5s32 -10.5 54 -10.5c22.667 0 46.167 4.16699 70.5 12.5
s47.5 19.5 69.5 33.5zM44 -89c14 -11.333 34.1699 -20.6641 60.5029 -27.9971s52.5 -11 78.5 -11c61.333 0 108.5 14 141.5 42s54.5 67.667 64.5 119l5 26c-20 -12.667 -41.333 -22.167 -64 -28.5s-45.334 -9.5 -68.001 -9.5c-28.667 0 -53.5 4.66699 -74.5 14
s-38.167 22.166 -51.5 38.499s-23.333 35.333 -30 57s-10 44.834 -10 69.501c0 38 6.83301 76.5 20.5 115.5s34.834 74.333 63.501 106s64.5 57.5 107.5 77.5s94.167 30 153.5 30c24 0 46.667 -2.5 68 -7.5s40.333 -12.167 57 -21.5l-112 -466
c-6.66699 -28 -15.334 -55.333 -26.001 -82s-26.334 -50.334 -47.001 -71.001s-48.167 -37.334 -82.5 -50.001s-78.5 -19 -132.5 -19c-10.667 0 -22.667 0.833008 -36 2.5s-26.833 4.16699 -40.5 7.5s-26.834 7.16602 -39.501 11.499s-24 9.5 -34 15.5zM449.003 621.002
c-17.333 0 -29.666 4.66699 -36.999 14s-11 20 -11 32c0 14 4.83301 27.333 14.5 40s23.167 19 40.5 19s29.666 -4.66699 36.999 -14s11 -20 11 -32c0 -14 -4.83301 -27.333 -14.5 -40s-23.167 -19 -40.5 -19z" />
    <glyph glyph-name="Gcommaaccent" unicode="&#x122;" horiz-adv-x="640" 
d="M593 324l68.001 -0.00390625l-72 -301c-30 -12 -61 -21.333 -93 -28s-63 -10 -93 -10c-46 0 -85.833 6.33301 -119.5 19s-61.167 31 -82.5 55s-37.166 52.833 -47.499 86.5s-15.5 71.5 -15.5 113.5c0 58.667 9.33301 115 28 169s45.334 101.667 80.001 143
s76.834 74.5 126.501 99.5s105.167 37.5 166.5 37.5c30 0 55.667 -1.66699 77 -5s39.5 -7.33301 54.5 -12s27.167 -9.66699 36.5 -15s17.666 -9.66602 24.999 -12.999l-31 -62c-2 2 -7.66699 5.5 -17 10.5s-21.5 10.167 -36.5 15.5s-32.333 10 -52 14s-41.167 6 -64.5 6
c-49.333 0 -93.833 -10.667 -133.5 -32s-73.334 -49.666 -101.001 -84.999s-49 -76.166 -64 -122.499s-22.5 -94.833 -22.5 -145.5c0 -69.333 15 -122.666 45 -159.999s78.333 -56 145 -56c21.333 0 43.166 1.83301 65.499 5.5s45.166 9.5 68.499 17.5zM251.001 -139.004
c14 -2 26.001 -0.830078 36.001 3.50293s18.167 10.666 24.5 18.999s11.5 18.166 15.5 29.499s7.66699 23.666 11 36.999h72c-2.66699 -19.333 -8.5 -38 -17.5 -56s-20.833 -33.667 -35.5 -47s-31.834 -23 -51.501 -29s-41.5 -6 -65.5 0z" />
    <glyph glyph-name="gcommaaccent" unicode="&#x123;" horiz-adv-x="524" 
d="M492 462c-21.333 5.33301 -42 8 -62 8c-46 0 -85.833 -8 -119.5 -24s-61.5 -36.5 -83.5 -61.5s-38.333 -52.667 -49 -83s-16 -59.5 -16 -87.5c0 -18 1.66699 -35.167 5 -51.5s9 -30.5 17 -42.5s19 -21.5 33 -28.5s32 -10.5 54 -10.5c22.667 0 46.167 4.16699 70.5 12.5
s47.5 19.5 69.5 33.5zM44 -89c14 -11.333 34.1699 -20.6641 60.5029 -27.9971s52.5 -11 78.5 -11c61.333 0 108.5 14 141.5 42s54.5 67.667 64.5 119l5 26c-20 -12.667 -41.333 -22.167 -64 -28.5s-45.334 -9.5 -68.001 -9.5c-28.667 0 -53.5 4.66699 -74.5 14
s-38.167 22.166 -51.5 38.499s-23.333 35.333 -30 57s-10 44.834 -10 69.501c0 38 6.83301 76.5 20.5 115.5s34.834 74.333 63.501 106s64.5 57.5 107.5 77.5s94.167 30 153.5 30c24 0 46.667 -2.5 68 -7.5s40.333 -12.167 57 -21.5l-112 -466
c-6.66699 -28 -15.334 -55.333 -26.001 -82s-26.334 -50.334 -47.001 -71.001s-48.167 -37.334 -82.5 -50.001s-78.5 -19 -132.5 -19c-10.667 0 -22.667 0.833008 -36 2.5s-26.833 4.16699 -40.5 7.5s-26.834 7.16602 -39.501 11.499s-24 9.5 -34 15.5zM376.003 614.002
c2 21.333 6.66699 40.999 14 58.999s17 34 29 48s26 25.5 42 34.5s33 15.167 51 18.5l21 -35c-12 -6 -22.667 -12.167 -32 -18.5s-17.333 -14.166 -24 -23.499s-12.667 -20.5 -18 -33.5s-10 -29.5 -14 -49.5h-69z" />
    <glyph glyph-name="Hcircumflex" unicode="&#x124;" horiz-adv-x="655" 
d="M249 693h68l-74 -301h359l72 301h68l-165 -693h-68l80 333h-358l-80 -333h-68zM400 734l-26 33l169 147l99 -147l-34 -33l-81 96z" />
    <glyph glyph-name="hcircumflex" unicode="&#x125;" horiz-adv-x="545" 
d="M148 0l-65 -0.00292969l182 764l68 12l-66 -273c42 17.333 81.667 26 119 26c22.667 0 43.667 -3.33301 63 -10s36.333 -16.667 51 -30s26.167 -30.166 34.5 -50.499s12.5 -44.5 12.5 -72.5c0 -17.333 -1.33301 -35.166 -4 -53.499s-6.33398 -36.833 -11.001 -55.5
l-62 -257h-65l55 230c5.33301 22 10.333 44.333 15 67s7 44.334 7 65.001c0 20 -3.16699 36.833 -9.5 50.5s-14.666 24.667 -24.999 33s-22.5 14.333 -36.5 18s-28.667 5.5 -44 5.5c-19.333 0 -38.833 -2 -58.5 -6s-38.167 -9 -55.5 -15zM244 862.997l131 94l91 -100
l-30 -33l-72 69l-98 -68z" />
    <glyph glyph-name="Hbar" unicode="&#x126;" horiz-adv-x="675" 
d="M220 532h-81l13 54h81l26 107h68l-27 -107h358l26 107h68l-26 -107h78l-13 -54h-78l-126 -532h-68l80 333h-358l-80 -333h-68zM612 392l33 140h-358l-34 -140h359z" />
    <glyph glyph-name="hbar" unicode="&#x127;" horiz-adv-x="545" 
d="M465 623l-169 -0.00292969l-29 -120c42 17.333 81.667 26 119 26c22.667 0 43.667 -3.33301 63 -10s36.333 -16.667 51 -30s26.167 -30.166 34.5 -50.499s12.5 -44.5 12.5 -72.5c0 -17.333 -1.33301 -35.166 -4 -53.499s-6.33398 -36.833 -11.001 -55.5l-62 -257h-65
l55 230c5.33301 22 10.333 44.333 15 67s7 44.334 7 65.001c0 20 -3.16699 36.833 -9.5 50.5s-14.666 24.667 -24.999 33s-22.5 14.333 -36.5 18s-28.667 5.5 -44 5.5c-19.333 0 -38.833 -2 -58.5 -6s-38.167 -9 -55.5 -15l-105 -448h-65l148 623h-65l12 52h66l21 89l68 12
l-25 -101h169z" />
    <glyph glyph-name="Itilde" unicode="&#x128;" horiz-adv-x="230" 
d="M249 693h68l-165 -693h-69zM362 781c-12.667 0 -23.667 2.00195 -33 6.00195s-18.333 8.5 -27 13.5s-17.5 9.5 -26.5 13.5s-19.5 6 -31.5 6c-14.667 0 -26.667 -3.83301 -36 -11.5s-19.333 -19.167 -30 -34.5l-36 22c5.33301 9.33301 11.333 18.666 18 27.999
s14.5 17.666 23.5 24.999s19.5 13.166 31.5 17.499s26.333 6.5 43 6.5c12 0 22.667 -2 32 -6s18.333 -8.5 27 -13.5s17.667 -9.5 27 -13.5s20 -6 32 -6c14.667 0 26.667 3.83301 36 11.5s19.333 19.167 30 34.5l36 -23c-5.33301 -9.33301 -11.333 -18.666 -18 -27.999
s-14.5 -17.5 -23.5 -24.5s-19.5 -12.667 -31.5 -17s-26.333 -6.5 -43 -6.5z" />
    <glyph glyph-name="itilde" unicode="&#x129;" horiz-adv-x="235" 
d="M208 517h65l-125 -517h-65zM329 629c-12.667 0 -23.667 2.00195 -33 6.00195s-18.333 8.5 -27 13.5s-17.5 9.5 -26.5 13.5s-19.5 6 -31.5 6c-14.667 0 -26.667 -3.83301 -36 -11.5s-19.333 -19.167 -30 -34.5l-36 22c5.33301 9.33301 11.333 18.666 18 27.999
s14.5 17.666 23.5 24.999s19.5 13.166 31.5 17.499s26.333 6.5 43 6.5c12 0 22.667 -2 32 -6s18.333 -8.5 27 -13.5s17.667 -9.5 27 -13.5s20 -6 32 -6c14.667 0 26.667 3.83301 36 11.5s19.333 19.167 30 34.5l36 -23c-5.33301 -9.33301 -11.333 -18.666 -18 -27.999
s-14.5 -17.5 -23.5 -24.5s-19.5 -12.667 -31.5 -17s-26.333 -6.5 -43 -6.5z" />
    <glyph glyph-name="Imacron" unicode="&#x12a;" horiz-adv-x="230" 
d="M249 693h68l-165 -693h-69zM173 804l13 57h259l-13 -57h-259z" />
    <glyph glyph-name="imacron" unicode="&#x12b;" horiz-adv-x="235" 
d="M208 517h65l-125 -517h-65zM141 647l13 57h259l-13 -57h-259z" />
    <glyph glyph-name="Ibreve" unicode="&#x12c;" horiz-adv-x="230" 
d="M249 693h68l-165 -693h-69zM191 903h41.999c-0.666992 -3.33301 -1 -6.33301 -1 -9v-8c0 -18.667 5.16699 -33.334 15.5 -44.001s25.833 -16 46.5 -16c18 0 32.833 3.16699 44.5 9.5s21.167 13.666 28.5 21.999s12.833 16.833 16.5 25.5s6.16699 15.334 7.5 20.001h42
c-5.33301 -46 -21.166 -79.667 -47.499 -101s-59.833 -32 -100.5 -32c-32.667 0 -57.167 9.5 -73.5 28.5s-24.5 42.833 -24.5 71.5c0 4.66699 0.333008 9.83398 1 15.501s1.66699 11.5 3 17.5z" />
    <glyph glyph-name="ibreve" unicode="&#x12d;" horiz-adv-x="235" 
d="M208 517h65l-125 -517h-65zM160 746h41.999c-0.666992 -3.33301 -1 -6.33301 -1 -9v-8c0 -18.667 5.16699 -33.334 15.5 -44.001s25.833 -16 46.5 -16c18 0 32.833 3.16699 44.5 9.5s21.167 13.666 28.5 21.999s12.833 16.833 16.5 25.5s6.16699 15.334 7.5 20.001h42
c-5.33301 -46 -21.166 -79.667 -47.499 -101s-59.833 -32 -100.5 -32c-32.667 0 -57.167 9.5 -73.5 28.5s-24.5 42.833 -24.5 71.5c0 4.66699 0.333008 9.83398 1 15.501s1.66699 11.5 3 17.5z" />
    <glyph glyph-name="Iogonek" unicode="&#x12e;" horiz-adv-x="230" 
d="M249 693l67.9961 0.00292969l-165 -693c-37.333 -24 -63.333 -44.5 -78 -61.5s-22 -32.167 -22 -45.5c0 -8 2.83301 -14 8.5 -18s12.667 -6.66699 21 -8s16.833 -1.5 25.5 -0.5s16 2.16699 22 3.5l-7 -49c-9.33301 -2 -18.166 -3.66699 -26.499 -5s-17.166 -2 -26.499 -2
c-10.667 0 -20.667 1 -30 3s-17.666 5.5 -24.999 10.5s-13.166 11.5 -17.499 19.5s-6.5 18.333 -6.5 31c0 12 3 23.667 9 35s13.5 22.166 22.5 32.499s19.167 20.166 30.5 29.499s22.333 17.666 33 24.999h-2z" />
    <glyph glyph-name="iogonek" unicode="&#x12f;" horiz-adv-x="235" 
d="M-14 -122c0 12 2.99609 23.6699 8.99609 35.0029s13.833 22.166 23.5 32.499s20.167 20.166 31.5 29.499s22.333 17.666 33 24.999l125 517h65l-125 -517c-37.333 -24 -63.333 -44.5 -78 -61.5s-22 -32.167 -22 -45.5c0 -8 2.83301 -14 8.5 -18s12.667 -6.66699 21 -8
s16.833 -1.5 25.5 -0.5s16 2.16699 22 3.5l-7 -49c-9.33301 -2 -18.166 -3.66699 -26.499 -5s-17.166 -2 -26.499 -2c-10.667 0 -20.667 1 -30 3s-17.666 5.5 -24.999 10.5s-13.166 11.5 -17.499 19.5s-6.5 18.333 -6.5 31zM233.996 668.003
c0 17.333 4.83496 30.498 14.502 39.498s20.167 13.5 31.5 13.5c13.333 0 23.666 -4.16699 30.999 -12.5s11 -19.166 11 -32.499c0 -16 -5.33301 -28.333 -16 -37s-21.334 -13 -32.001 -13c-13.333 0 -23.333 3.83301 -30 11.5s-10 17.834 -10 30.501z" />
    <glyph glyph-name="Idotaccent" unicode="&#x130;" horiz-adv-x="230" 
d="M249 693h68l-165 -693h-69zM303 775c-17.333 0 -29.666 4.66699 -36.999 14s-11 20 -11 32c0 14 4.83301 27.333 14.5 40s23.167 19 40.5 19s29.666 -4.66699 36.999 -14s11 -20 11 -32c0 -14 -4.83301 -27.333 -14.5 -40s-23.167 -19 -40.5 -19z" />
    <glyph glyph-name="dotlessi" unicode="&#x131;" horiz-adv-x="235" 
d="M208 517h65l-125 -517h-65z" />
    <glyph glyph-name="IJ" unicode="&#x132;" horiz-adv-x="700" 
d="M254 693h68l-165 -693h-69zM303 95c10 -10 26.666 -20.6689 49.999 -32.002s51 -17 83 -17c18 0 35 1.83301 51 5.5s31 10.834 45 21.501s26.667 25.834 38 45.501s21 45.5 29 77.5l120 497h68l-120 -505c-9.33301 -40 -21.666 -73 -36.999 -99s-33 -46.833 -53 -62.5
s-42.167 -26.5 -66.5 -32.5s-50.166 -9 -77.499 -9c-34.667 0 -65.834 5.33301 -93.501 16s-51.5 24.667 -71.5 42z" />
    <glyph glyph-name="ij" unicode="&#x133;" horiz-adv-x="455" 
d="M206 517h65l-125 -517h-65zM232 668c0 17.333 4.83496 30.498 14.502 39.498s20.167 13.5 31.5 13.5c13.333 0 23.666 -4.16699 30.999 -12.5s11 -19.166 11 -32.499c0 -16 -5.33301 -28.333 -16 -37s-21.334 -13 -32.001 -13c-13.333 0 -23.333 3.83301 -30 11.5
s-10 17.834 -10 30.501zM124.002 -115.002c10.667 -5.33301 20.833 -9.33398 30.5 -12.001s20.834 -4 33.501 -4c18 0 33.333 3.66699 46 11s23.834 17.5 33.501 30.5s17.667 28.5 24 46.5s12.166 37.667 17.499 59l119 501h65l-117 -489
c-8.66699 -36 -18.167 -67.5 -28.5 -94.5s-23 -49.5 -38 -67.5s-33 -31.5 -54 -40.5s-46.167 -13.5 -75.5 -13.5c-16.667 0 -30.834 1.83301 -42.501 5.5s-21.167 7.83398 -28.5 12.501zM456.001 667.997c0 17.333 4.83496 30.498 14.502 39.498s20.167 13.5 31.5 13.5
c13.333 0 23.666 -4.16699 30.999 -12.5s11 -19.166 11 -32.499c0 -16 -5.33301 -28.333 -16 -37s-21.334 -13 -32.001 -13c-13.333 0 -23.333 3.83301 -30 11.5s-10 17.834 -10 30.501z" />
    <glyph glyph-name="Jcircumflex" unicode="&#x134;" horiz-adv-x="450" 
d="M53 95c10 -10 26.666 -20.6689 49.999 -32.002s51 -17 83 -17c18 0 35 1.83301 51 5.5s31 10.834 45 21.501s26.667 25.834 38 45.501s21 45.5 29 77.5l120 497h68l-120 -505c-9.33301 -40 -21.666 -73 -36.999 -99s-33 -46.833 -53 -62.5s-42.167 -26.5 -66.5 -32.5
s-50.166 -9 -77.499 -9c-34.667 0 -65.834 5.33301 -93.501 16s-51.5 24.667 -71.5 42zM411.999 733.998l-26 33l169 147l99 -147l-34 -33l-81 96z" />
    <glyph glyph-name="jcircumflex" unicode="&#x135;" horiz-adv-x="235" 
d="M-86 -115c10.667 -5.33301 20.833 -9.33398 30.5 -12.001s20.834 -4 33.501 -4c18 0 33.333 3.66699 46 11s23.834 17.5 33.501 30.5s17.667 28.5 24 46.5s12.166 37.667 17.499 59l119 501h65l-117 -489c-8.66699 -36 -18.167 -67.5 -28.5 -94.5s-23 -49.5 -38 -67.5
s-33 -31.5 -54 -40.5s-46.167 -13.5 -75.5 -13.5c-16.667 0 -30.834 1.83301 -42.501 5.5s-21.167 7.83398 -28.5 12.501zM152.999 582.999l-26 33l169 147l99 -147l-34 -33l-81 96z" />
    <glyph glyph-name="Kcommaaccent" unicode="&#x136;" horiz-adv-x="599" 
d="M249 693l66.999 -0.000976562l-76 -319l106.5 80l112.5 90l101.5 84.5c31 26.333 55.5 47.833 73.5 64.5h90l-84 -73l-108 -89l-114.5 -91.5l-103.5 -81.5c24 -18 49 -41.5 75 -70.5s51.167 -60.167 75.5 -93.5s46.833 -67 67.5 -101s37 -65 49 -93h-74
c-38.667 74.667 -80.167 141.334 -124.5 200.001s-94.166 108 -149.499 148l-82 -348h-68zM205.999 -139.001c14 -2 26.001 -0.830078 36.001 3.50293s18.167 10.666 24.5 18.999s11.5 18.166 15.5 29.499s7.66699 23.666 11 36.999h72c-2.66699 -19.333 -8.5 -38 -17.5 -56
s-20.833 -33.667 -35.5 -47s-31.834 -23 -51.501 -29s-41.5 -6 -65.5 0z" />
    <glyph glyph-name="kcommaaccent" unicode="&#x137;" horiz-adv-x="499" 
d="M267 764l67.9961 12.001l-115 -478c24 16 48.5 34.167 73.5 54.5l72 61c23 20.333 43.833 39.666 62.5 57.999s33.334 33.5 44.001 45.5h79c-12 -15.333 -29.167 -34 -51.5 -56l-71 -67c-25 -22.667 -49.667 -43.834 -74 -63.501s-44.5 -34.167 -60.5 -43.5
c22.667 -17.333 44.834 -37.666 66.501 -60.999s41.5 -48 59.5 -74s34.167 -52.167 48.5 -78.5s25.5 -50.833 33.5 -73.5h-70c-29.333 62.667 -62.666 116.5 -99.999 161.5s-76.666 81.5 -117.999 109.5l-66 -271h-65zM152.996 -138.999
c14 -2 26.001 -0.830078 36.001 3.50293s18.167 10.666 24.5 18.999s11.5 18.166 15.5 29.499s7.66699 23.666 11 36.999h72c-2.66699 -19.333 -8.5 -38 -17.5 -56s-20.833 -33.667 -35.5 -47s-31.834 -23 -51.501 -29s-41.5 -6 -65.5 0z" />
    <glyph glyph-name="kgreenlandic" unicode="&#x138;" horiz-adv-x="504" 
d="M208 517l65 -0.000976562l-53 -219c24 16 49 34.167 75 54.5l75 61c24 20.333 45.667 39.666 65 57.999s34.333 33.5 45 45.5h79c-12 -15.333 -29.667 -34.166 -53 -56.499s-48.5 -45 -75.5 -68l-78.5 -64c-25.333 -19.667 -46 -34.167 -62 -43.5
c22.667 -17.333 45.5 -37.666 68.5 -60.999s44.333 -47.833 64 -73.5s37.167 -51.5 52.5 -77.5s27 -50.333 35 -73h-70c-29.333 62.667 -64 116.5 -104 161.5s-80.667 81.5 -122 109.5l-66 -271h-65z" />
    <glyph glyph-name="Lacute" unicode="&#x139;" horiz-adv-x="474" 
d="M248 693h68l-152 -635h307l-13 -58h-375zM449 861l-175 -128l-29 44l166 146z" />
    <glyph glyph-name="lacute" unicode="&#x13a;" horiz-adv-x="266" 
d="M251 764l66.999 11.999l-124 -521l-15.5 -64.5c-5 -20.333 -7.5 -39.166 -7.5 -56.499c0 -10.667 1 -20.5 3 -29.5s6 -17 12 -24s14.5 -13.167 25.5 -18.5s25.167 -10 42.5 -14l-15 -57c-48.667 6 -82.667 20.833 -102 44.5s-29 53.5 -29 89.5
c0 16 1.33301 32.833 4 50.5s6.33398 36.167 11.001 55.5zM245.999 822.999l-13 39l162 77l17 -59z" />
    <glyph glyph-name="Lcommaaccent" unicode="&#x13b;" horiz-adv-x="474" 
d="M248 693h68l-152 -635h307l-13 -58h-375zM166 -139c14 -2 26.001 -0.830078 36.001 3.50293s18.167 10.666 24.5 18.999s11.5 18.166 15.5 29.499s7.66699 23.666 11 36.999h72c-2.66699 -19.333 -8.5 -38 -17.5 -56s-20.833 -33.667 -35.5 -47s-31.834 -23 -51.501 -29
s-41.5 -6 -65.5 0z" />
    <glyph glyph-name="lcommaaccent" unicode="&#x13c;" horiz-adv-x="266" 
d="M251 764l66.999 11.999l-124 -521l-15.5 -64.5c-5 -20.333 -7.5 -39.166 -7.5 -56.499c0 -10.667 1 -20.5 3 -29.5s6 -17 12 -24s14.5 -13.167 25.5 -18.5s25.167 -10 42.5 -14l-15 -57c-48.667 6 -82.667 20.833 -102 44.5s-29 53.5 -29 89.5
c0 16 1.33301 32.833 4 50.5s6.33398 36.167 11.001 55.5zM35.999 -139.001c14 -2 26.001 -0.830078 36.001 3.50293s18.167 10.666 24.5 18.999s11.5 18.166 15.5 29.499s7.66699 23.666 11 36.999h72c-2.66699 -19.333 -8.5 -38 -17.5 -56s-20.833 -33.667 -35.5 -47
s-31.834 -23 -51.501 -29s-41.5 -6 -65.5 0z" />
    <glyph glyph-name="Lcaron" unicode="&#x13d;" horiz-adv-x="474" 
d="M248 693h68l-152 -635h307l-13 -58h-375zM477 694l-77 -217h-47l53 217h71z" />
    <glyph glyph-name="lcaron" unicode="&#x13e;" horiz-adv-x="266" 
d="M251 764l66.999 11.999l-124 -521l-15.5 -64.5c-5 -20.333 -7.5 -39.166 -7.5 -56.499c0 -10.667 1 -20.5 3 -29.5s6 -17 12 -24s14.5 -13.167 25.5 -18.5s25.167 -10 42.5 -14l-15 -57c-48.667 6 -82.667 20.833 -102 44.5s-29 53.5 -29 89.5
c0 16 1.33301 32.833 4 50.5s6.33398 36.167 11.001 55.5zM467.999 775.999l-77 -217h-47l53 217h71z" />
    <glyph glyph-name="Ldot" unicode="&#x13f;" horiz-adv-x="484" 
d="M248 693h68l-152 -635h307l-13 -58h-375zM434 291c-17.333 0 -29.666 4.66699 -36.999 14s-11 20 -11 32c0 14 4.83301 27.333 14.5 40s23.167 19 40.5 19s29.666 -4.66699 36.999 -14s11 -20 11 -32c0 -14 -4.83301 -27.333 -14.5 -40s-23.167 -19 -40.5 -19z" />
    <glyph glyph-name="ldot" unicode="&#x140;" horiz-adv-x="306" 
d="M331 291c-17.333 0 -29.666 4.66699 -36.999 14s-11 20 -11 32c0 14 4.83301 27.333 14.5 40s23.167 19 40.5 19s29.666 -4.66699 36.999 -14s11 -20 11 -32c0 -14 -4.83301 -27.333 -14.5 -40s-23.167 -19 -40.5 -19zM251 764l66.999 11.999l-124 -521l-15.5 -64.5
c-5 -20.333 -7.5 -39.166 -7.5 -56.499c0 -10.667 1 -20.5 3 -29.5s6 -17 12 -24s14.5 -13.167 25.5 -18.5s25.167 -10 42.5 -14l-15 -57c-48.667 6 -82.667 20.833 -102 44.5s-29 53.5 -29 89.5c0 16 1.33301 32.833 4 50.5s6.33398 36.167 11.001 55.5z" />
    <glyph glyph-name="Lslash" unicode="&#x141;" horiz-adv-x="507" 
d="M187 298l-87 -39l-14 56l117 53l78 325h68l-70 -291l127 57l14 -56l-158 -71l-65 -274h307l-13 -58h-375z" />
    <glyph glyph-name="lslash" unicode="&#x142;" horiz-adv-x="286" 
d="M161 348l-72 -32.0029l-12 47l98 44l86 357l67 12l-80 -337l85 39l11 -47l-110 -50l-30 -126l-15.5 -64.5c-5 -20.333 -7.5 -39.166 -7.5 -56.499c0 -21.333 5.66699 -39.166 17 -53.499s33.666 -24.833 66.999 -31.5l-16 -58
c-25.333 1.33301 -46.5 5.66602 -63.5 12.999s-30.5 16.833 -40.5 28.5s-17 25.334 -21 41.001s-6 32.834 -6 51.501c0 16 1.33301 32.833 4 50.5s6.33398 36.167 11.001 55.5z" />
    <glyph glyph-name="Nacute" unicode="&#x143;" horiz-adv-x="669" 
d="M249 693l67 0.000976562c24.667 -42.667 49.167 -90.334 73.5 -143.001s47.333 -105.834 69 -159.501s40.667 -105.167 57 -154.5s28.833 -91.666 37.5 -126.999l136 584h67l-164 -693h-67c-12 40.667 -27 88.167 -45 142.5s-37.5 109.5 -58.5 165.5
s-42.5 109.833 -64.5 161.5s-43 95.5 -63 131.5l-144 -601h-67zM648 861.001l-175 -128l-29 44l166 146z" />
    <glyph glyph-name="nacute" unicode="&#x144;" horiz-adv-x="546" 
d="M202 499c26 7.33301 53.6689 13.833 83.002 19.5s58.333 8.5 87 8.5c24 0 46.667 -2.5 68 -7.5s40 -13.833 56 -26.5s28.667 -29.334 38 -50.001s14 -46.334 14 -77.001c0 -17.333 -1.33301 -35.166 -4 -53.499s-6.33398 -36.833 -11.001 -55.5l-62 -257h-65l55 230
c5.33301 22 10.166 44.333 14.499 67s6.83301 44.334 7.5 65.001c0 20.667 -3.16699 37.667 -9.5 51s-15 24 -26 32s-23.833 13.667 -38.5 17s-30 5 -46 5c-17.333 0 -35 -1.33301 -53 -4s-35.667 -6 -53 -10l-109 -453h-65zM545.002 711l-175 -128l-29 44l166 146z" />
    <glyph glyph-name="Ncommaaccent" unicode="&#x145;" horiz-adv-x="669" 
d="M249 693l67 0.000976562c24.667 -42.667 49.167 -90.334 73.5 -143.001s47.333 -105.834 69 -159.501s40.667 -105.167 57 -154.5s28.833 -91.666 37.5 -126.999l136 584h67l-164 -693h-67c-12 40.667 -27 88.167 -45 142.5s-37.5 109.5 -58.5 165.5
s-42.5 109.833 -64.5 161.5s-43 95.5 -63 131.5l-144 -601h-67zM211 -138.999c14 -2 26.001 -0.830078 36.001 3.50293s18.167 10.666 24.5 18.999s11.5 18.166 15.5 29.499s7.66699 23.666 11 36.999h72c-2.66699 -19.333 -8.5 -38 -17.5 -56s-20.833 -33.667 -35.5 -47
s-31.834 -23 -51.501 -29s-41.5 -6 -65.5 0z" />
    <glyph glyph-name="ncommaaccent" unicode="&#x146;" horiz-adv-x="546" 
d="M202 499c26 7.33301 53.6689 13.833 83.002 19.5s58.333 8.5 87 8.5c24 0 46.667 -2.5 68 -7.5s40 -13.833 56 -26.5s28.667 -29.334 38 -50.001s14 -46.334 14 -77.001c0 -17.333 -1.33301 -35.166 -4 -53.499s-6.33398 -36.833 -11.001 -55.5l-62 -257h-65l55 230
c5.33301 22 10.166 44.333 14.499 67s6.83301 44.334 7.5 65.001c0 20.667 -3.16699 37.667 -9.5 51s-15 24 -26 32s-23.833 13.667 -38.5 17s-30 5 -46 5c-17.333 0 -35 -1.33301 -53 -4s-35.667 -6 -53 -10l-109 -453h-65zM138.002 -139
c14 -2 26.001 -0.830078 36.001 3.50293s18.167 10.666 24.5 18.999s11.5 18.166 15.5 29.499s7.66699 23.666 11 36.999h72c-2.66699 -19.333 -8.5 -38 -17.5 -56s-20.833 -33.667 -35.5 -47s-31.834 -23 -51.501 -29s-41.5 -6 -65.5 0z" />
    <glyph glyph-name="Ncaron" unicode="&#x147;" horiz-adv-x="669" 
d="M249 693l67 0.000976562c24.667 -42.667 49.167 -90.334 73.5 -143.001s47.333 -105.834 69 -159.501s40.667 -105.167 57 -154.5s28.833 -91.666 37.5 -126.999l136 584h67l-164 -693h-67c-12 40.667 -27 88.167 -45 142.5s-37.5 109.5 -58.5 165.5
s-42.5 109.833 -64.5 161.5s-43 95.5 -63 131.5l-144 -601h-67zM651 916.001l26 -33l-169 -147l-99 147l34 33l81 -96z" />
    <glyph glyph-name="ncaron" unicode="&#x148;" horiz-adv-x="546" 
d="M202 499c26 7.33301 53.6689 13.833 83.002 19.5s58.333 8.5 87 8.5c24 0 46.667 -2.5 68 -7.5s40 -13.833 56 -26.5s28.667 -29.334 38 -50.001s14 -46.334 14 -77.001c0 -17.333 -1.33301 -35.166 -4 -53.499s-6.33398 -36.833 -11.001 -55.5l-62 -257h-65l55 230
c5.33301 22 10.166 44.333 14.499 67s6.83301 44.334 7.5 65.001c0 20.667 -3.16699 37.667 -9.5 51s-15 24 -26 32s-23.833 13.667 -38.5 17s-30 5 -46 5c-17.333 0 -35 -1.33301 -53 -4s-35.667 -6 -53 -10l-109 -453h-65zM549.002 763l26 -33l-169 -147l-99 147l34 33
l81 -96z" />
    <glyph glyph-name="napostrophe" unicode="&#x149;" horiz-adv-x="546" 
d="M202 499c26 7.33301 53.6689 13.833 83.002 19.5s58.333 8.5 87 8.5c24 0 46.667 -2.5 68 -7.5s40 -13.833 56 -26.5s28.667 -29.334 38 -50.001s14 -46.334 14 -77.001c0 -17.333 -1.33301 -35.166 -4 -53.499s-6.33398 -36.833 -11.001 -55.5l-62 -257h-65l55 230
c5.33301 22 10.166 44.333 14.499 67s6.83301 44.334 7.5 65.001c0 20.667 -3.16699 37.667 -9.5 51s-15 24 -26 32s-23.833 13.667 -38.5 17s-30 5 -46 5c-17.333 0 -35 -1.33301 -53 -4s-35.667 -6 -53 -10l-109 -453h-65zM123.002 586
c12 15.333 23.167 31.499 33.5 48.499s19.333 34 27 51s13.667 33.333 18 49s6.83301 29.5 7.5 41.5h73c-7.33301 -35.333 -20.833 -69.666 -40.5 -102.999s-44.5 -68 -74.5 -104z" />
    <glyph glyph-name="Eng" unicode="&#x14a;" horiz-adv-x="669" 
d="M525 0c-12 40.667 -27.001 88.168 -45.001 142.501s-37.5 109.5 -58.5 165.5s-42.5 109.833 -64.5 161.5s-43 95.5 -63 131.5l-144 -601h-67l166 693h67c24.667 -42.667 49.167 -90.334 73.5 -143.001s47.333 -105.834 69 -159.501s40.667 -105.167 57 -154.5
s28.833 -91.666 37.5 -126.999l136 584h67l-167 -702c-7.33301 -30 -14.166 -56.167 -20.499 -78.5s-15.166 -40.833 -26.499 -55.5s-27 -25.667 -47 -33s-47.333 -11 -82 -11c-3.33301 0 -7.5 0.5 -12.5 1.5l-14.5 3c-4.66699 1 -8.5 2.16699 -11.5 3.5
s-4.16699 2.33301 -3.5 3l13 46c2 -1.33301 6.66699 -3 14 -5s16.666 -3 27.999 -3c18 0 32.5 3.16699 43.5 9.5s19.667 15.5 26 27.5s11.5 26.5 15.5 43.5z" />
    <glyph glyph-name="eng" unicode="&#x14b;" horiz-adv-x="546" 
d="M274 -132c1.33301 -1.33301 5.16602 -2.83594 11.499 -4.50293s13.833 -2.5 22.5 -2.5c14.667 0 27 2.66699 37 8s18.333 12.833 25 22.5s12.334 21.5 17.001 35.5s9 29.667 13 47l61 256c6 23.333 11.667 46.5 17 69.5s8 44.833 8 65.5c0 32.667 -9 58.334 -27 77.001
s-50.333 28 -97 28c-19.333 0 -38.666 -1.5 -57.999 -4.5s-34.666 -6.16699 -45.999 -9.5l-110 -456h-65l119 499c16.667 5.33301 34.5 9.83301 53.5 13.5s37.167 6.5 54.5 8.5s33 3.5 47 4.5s24.667 1.5 32 1.5c30 0 55.167 -4 75.5 -12s36.666 -19.167 48.999 -33.5
s21.333 -31.166 27 -50.499s8.5 -40.333 8.5 -63c0 -17.333 -1.5 -35.333 -4.5 -54s-6.83301 -37.667 -11.5 -57l-64 -267c-6.66699 -24 -12.334 -46.667 -17.001 -68s-12.5 -40 -23.5 -56s-27 -28.833 -48 -38.5s-51.5 -14.5 -91.5 -14.5
c-2.66699 0 -8.5 0.833008 -17.5 2.5s-13.833 3.83398 -14.5 6.50098z" />
    <glyph glyph-name="Omacron" unicode="&#x14c;" horiz-adv-x="748" 
d="M138 258c0 68.667 11.333 130.833 34 186.5s52.667 103 90 142s79.5 69 126.5 90s95.167 31.5 144.5 31.5c32.667 0 64 -5.5 94 -16.5s56.333 -27.667 79 -50s40.667 -50.666 54 -84.999s20 -74.5 20 -120.5c0 -69.333 -11.333 -131.833 -34 -187.5
s-52.667 -103 -90 -142s-79.666 -69 -126.999 -90s-95.333 -31.5 -144 -31.5c-33.333 0 -64.833 5.5 -94.5 16.5s-55.834 27.667 -78.501 50s-40.667 50.666 -54 84.999s-20 74.833 -20 121.5zM210 246.999c0 -34 4.66699 -63.667 14 -89s22.333 -46.166 39 -62.499
s35.834 -28.666 57.501 -36.999s45.167 -12.5 70.5 -12.5c40.667 0 80 8.83301 118 26.5s71.667 43.5 101 77.5s53 75.833 71 125.5s27 106.5 27 170.5c0 34 -4.66699 63.667 -14 89s-22.333 46.166 -39 62.499s-36 28.666 -58 36.999s-45.333 12.5 -70 12.5
c-40.667 0 -80 -8.83301 -118 -26.5s-71.833 -43.5 -101.5 -77.5s-53.334 -75.833 -71.001 -125.5s-26.5 -106.5 -26.5 -170.5zM426 803.999l13 57h259l-13 -57h-259z" />
    <glyph glyph-name="omacron" unicode="&#x14d;" horiz-adv-x="526" 
d="M164 166c0 -39.333 11 -69 33 -89s48.333 -30 79 -30c24 0 48.667 6.16699 74 18.5s48.5 31 69.5 56s38.333 56.5 52 94.5s20.5 82.667 20.5 134c0 39.333 -11 69 -33 89s-48.333 30 -79 30c-24 0 -48.667 -6.16699 -74 -18.5s-48.5 -31 -69.5 -56
s-38.333 -56.5 -52 -94.5s-20.5 -82.667 -20.5 -134zM558 355c0 -62.667 -8.83301 -117.001 -26.5 -163.001s-40.334 -84.167 -68.001 -114.5s-58.334 -52.833 -92.001 -67.5s-66.834 -22 -99.501 -22c-23.333 0 -45.5 3.66699 -66.5 11s-39.5 18.333 -55.5 33
s-28.667 32.834 -38 54.501s-14 46.834 -14 75.501c0 62.667 8.83301 117 26.5 163s40.334 84 68.001 114s58.334 52.333 92.001 67s66.834 22 99.501 22c23.333 0 45.5 -3.66699 66.5 -11s39.5 -18.333 55.5 -33s28.667 -32.834 38 -54.501s14 -46.5 14 -74.5zM288 646.999
l13 57h259l-13 -57h-259z" />
    <glyph glyph-name="Obreve" unicode="&#x14e;" horiz-adv-x="748" 
d="M138 258c0 68.667 11.333 130.833 34 186.5s52.667 103 90 142s79.5 69 126.5 90s95.167 31.5 144.5 31.5c32.667 0 64 -5.5 94 -16.5s56.333 -27.667 79 -50s40.667 -50.666 54 -84.999s20 -74.5 20 -120.5c0 -69.333 -11.333 -131.833 -34 -187.5
s-52.667 -103 -90 -142s-79.666 -69 -126.999 -90s-95.333 -31.5 -144 -31.5c-33.333 0 -64.833 5.5 -94.5 16.5s-55.834 27.667 -78.501 50s-40.667 50.666 -54 84.999s-20 74.833 -20 121.5zM210 246.999c0 -34 4.66699 -63.667 14 -89s22.333 -46.166 39 -62.499
s35.834 -28.666 57.501 -36.999s45.167 -12.5 70.5 -12.5c40.667 0 80 8.83301 118 26.5s71.667 43.5 101 77.5s53 75.833 71 125.5s27 106.5 27 170.5c0 34 -4.66699 63.667 -14 89s-22.333 46.166 -39 62.499s-36 28.666 -58 36.999s-45.333 12.5 -70 12.5
c-40.667 0 -80 -8.83301 -118 -26.5s-71.833 -43.5 -101.5 -77.5s-53.334 -75.833 -71.001 -125.5s-26.5 -106.5 -26.5 -170.5zM464 902.999h41.999c-0.666992 -3.33301 -1 -6.33301 -1 -9v-8c0 -18.667 5.16699 -33.334 15.5 -44.001s25.833 -16 46.5 -16
c18 0 32.833 3.16699 44.5 9.5s21.167 13.666 28.5 21.999s12.833 16.833 16.5 25.5s6.16699 15.334 7.5 20.001h42c-5.33301 -46 -21.166 -79.667 -47.499 -101s-59.833 -32 -100.5 -32c-32.667 0 -57.167 9.5 -73.5 28.5s-24.5 42.833 -24.5 71.5
c0 4.66699 0.333008 9.83398 1 15.501s1.66699 11.5 3 17.5z" />
    <glyph glyph-name="obreve" unicode="&#x14f;" horiz-adv-x="526" 
d="M164 166c0 -39.333 11 -69 33 -89s48.333 -30 79 -30c24 0 48.667 6.16699 74 18.5s48.5 31 69.5 56s38.333 56.5 52 94.5s20.5 82.667 20.5 134c0 39.333 -11 69 -33 89s-48.333 30 -79 30c-24 0 -48.667 -6.16699 -74 -18.5s-48.5 -31 -69.5 -56
s-38.333 -56.5 -52 -94.5s-20.5 -82.667 -20.5 -134zM558 355c0 -62.667 -8.83301 -117.001 -26.5 -163.001s-40.334 -84.167 -68.001 -114.5s-58.334 -52.833 -92.001 -67.5s-66.834 -22 -99.501 -22c-23.333 0 -45.5 3.66699 -66.5 11s-39.5 18.333 -55.5 33
s-28.667 32.834 -38 54.501s-14 46.834 -14 75.501c0 62.667 8.83301 117 26.5 163s40.334 84 68.001 114s58.334 52.333 92.001 67s66.834 22 99.501 22c23.333 0 45.5 -3.66699 66.5 -11s39.5 -18.333 55.5 -33s28.667 -32.834 38 -54.501s14 -46.5 14 -74.5zM310 745.999
h41.999c-0.666992 -3.33301 -1 -6.33301 -1 -9v-8c0 -18.667 5.16699 -33.334 15.5 -44.001s25.833 -16 46.5 -16c18 0 32.833 3.16699 44.5 9.5s21.167 13.666 28.5 21.999s12.833 16.833 16.5 25.5s6.16699 15.334 7.5 20.001h42
c-5.33301 -46 -21.166 -79.667 -47.499 -101s-59.833 -32 -100.5 -32c-32.667 0 -57.167 9.5 -73.5 28.5s-24.5 42.833 -24.5 71.5c0 4.66699 0.333008 9.83398 1 15.501s1.66699 11.5 3 17.5z" />
    <glyph glyph-name="Ohungarumlaut" unicode="&#x150;" horiz-adv-x="748" 
d="M138 258c0 68.667 11.333 130.833 34 186.5s52.667 103 90 142s79.5 69 126.5 90s95.167 31.5 144.5 31.5c32.667 0 64 -5.5 94 -16.5s56.333 -27.667 79 -50s40.667 -50.666 54 -84.999s20 -74.5 20 -120.5c0 -69.333 -11.333 -131.833 -34 -187.5
s-52.667 -103 -90 -142s-79.666 -69 -126.999 -90s-95.333 -31.5 -144 -31.5c-33.333 0 -64.833 5.5 -94.5 16.5s-55.834 27.667 -78.501 50s-40.667 50.666 -54 84.999s-20 74.833 -20 121.5zM210 246.999c0 -34 4.66699 -63.667 14 -89s22.333 -46.166 39 -62.499
s35.834 -28.666 57.501 -36.999s45.167 -12.5 70.5 -12.5c40.667 0 80 8.83301 118 26.5s71.667 43.5 101 77.5s53 75.833 71 125.5s27 106.5 27 170.5c0 34 -4.66699 63.667 -14 89s-22.333 46.166 -39 62.499s-36 28.666 -58 36.999s-45.333 12.5 -70 12.5
c-40.667 0 -80 -8.83301 -118 -26.5s-71.833 -43.5 -101.5 -77.5s-53.334 -75.833 -71.001 -125.5s-26.5 -106.5 -26.5 -170.5zM469 734.999l-30 33l143 158l45 -48zM626 734.999l-30 33l143 158l45 -48z" />
    <glyph glyph-name="ohungarumlaut" unicode="&#x151;" horiz-adv-x="526" 
d="M164 166c0 -39.333 11 -69 33 -89s48.333 -30 79 -30c24 0 48.667 6.16699 74 18.5s48.5 31 69.5 56s38.333 56.5 52 94.5s20.5 82.667 20.5 134c0 39.333 -11 69 -33 89s-48.333 30 -79 30c-24 0 -48.667 -6.16699 -74 -18.5s-48.5 -31 -69.5 -56
s-38.333 -56.5 -52 -94.5s-20.5 -82.667 -20.5 -134zM558 355c0 -62.667 -8.83301 -117.001 -26.5 -163.001s-40.334 -84.167 -68.001 -114.5s-58.334 -52.833 -92.001 -67.5s-66.834 -22 -99.501 -22c-23.333 0 -45.5 3.66699 -66.5 11s-39.5 18.333 -55.5 33
s-28.667 32.834 -38 54.501s-14 46.834 -14 75.501c0 62.667 8.83301 117 26.5 163s40.334 84 68.001 114s58.334 52.333 92.001 67s66.834 22 99.501 22c23.333 0 45.5 -3.66699 66.5 -11s39.5 -18.333 55.5 -33s28.667 -32.834 38 -54.501s14 -46.5 14 -74.5zM312 581.999
l-30 33l143 158l45 -48zM469 581.999l-30 33l143 158l45 -48z" />
    <glyph glyph-name="OE" unicode="&#x152;" horiz-adv-x="948" 
d="M544 0c-18.667 -2.66699 -36.832 -4.66602 -54.499 -5.99902s-35.167 -2 -52.5 -2c-102 0 -177.333 23.5 -226 70.5s-73 118.5 -73 214.5c0 59.333 10 114.666 30 165.999s49.833 96 89.5 134s88.5 68 146.5 90s125 33 201 33c15.333 0 30.666 -0.666992 45.999 -2
s31 -3 47 -5h362l-13 -59h-306l-59 -241h271l-13 -58h-269l-69 -276h329l-12 -59h-375zM434.002 53.001c16.667 0 33.5 0.667969 50.5 2.00098s34.167 3 51.5 5l138 576c-12 1.33301 -24 2.33301 -36 3s-23.667 1 -35 1c-64 0 -120.5 -8.66699 -169.5 -26s-90 -42 -123 -74
s-58 -70.167 -75 -114.5s-25.5 -93.5 -25.5 -147.5c0 -80.667 18.167 -138.334 54.5 -173.001s92.833 -52 169.5 -52z" />
    <glyph glyph-name="oe" unicode="&#x153;" horiz-adv-x="846" 
d="M384 529c44 0 78.333 -9.33203 103 -27.999s42.334 -48 53.001 -88c28 38.667 61 67.667 99 87s77 29 117 29c19.333 0 37.666 -2.83301 54.999 -8.5s32.5 -14 45.5 -25s23.167 -24.833 30.5 -41.5s11 -36 11 -58c0 -39.333 -8 -71 -24 -95s-39.5 -43 -70.5 -57
s-69.333 -24.167 -115 -30.5s-98.5 -10.833 -158.5 -13.5c0 -3.33301 -0.166992 -6.33301 -0.5 -9s-0.5 -5.33398 -0.5 -8.00098c0 -29.333 3.66699 -53 11 -71s17.333 -31.667 30 -41s27.5 -15.5 44.5 -18.5s35.167 -4.5 54.5 -4.5c41.333 0 86.333 11.667 135 35l7 -60
c-20 -9.33301 -44.333 -17.5 -73 -24.5s-58 -10.5 -88 -10.5c-19.333 0 -38.166 1.83301 -56.499 5.5s-35.333 10 -51 19s-29.334 20.833 -41.001 35.5s-20.5 33 -26.5 55c-28 -41.333 -59.667 -70.833 -95 -88.5s-71.333 -26.5 -108 -26.5c-30.667 0 -57 4.83301 -79 14.5
s-40 23.167 -54 40.5s-24.333 37.666 -31 60.999s-10 49 -10 77c0 43.333 6.83301 85.833 20.5 127.5s33 78.834 58 111.501s55 59 90 79s74.167 30 117.5 30zM380 469.001c-31.333 0 -60.166 -8.33203 -86.499 -24.999s-49 -38.5 -68 -65.5s-33.833 -57.667 -44.5 -92
s-16 -68.833 -16 -103.5c0 -42 8.66699 -75.333 26 -100s45.666 -37 84.999 -37c24 0 48.167 6.16699 72.5 18.5s46.333 31.166 66 56.499s35.834 57 48.501 95s19 82.667 19 134c0 39.333 -9.33301 69 -28 89s-43.334 30 -74.001 30zM832 392.002
c0 25.333 -7.83301 44.665 -23.5 57.998s-36.5 20 -62.5 20c-20 0 -40.333 -4 -61 -12s-40.334 -20.167 -59.001 -36.5s-35.5 -36.833 -50.5 -61.5s-26.167 -54 -33.5 -88l-2 -9c56.667 0.666992 103.834 4 141.501 10s67.667 14.333 90 25s38 23.834 47 39.501
s13.5 33.834 13.5 54.501z" />
    <glyph glyph-name="Racute" unicode="&#x154;" horiz-adv-x="592" 
d="M408 699c78.667 0 137.666 -15.832 176.999 -47.499s59 -76.5 59 -134.5c0 -52 -16.667 -97.5 -50 -136.5s-84 -67.167 -152 -84.5c8 -14.667 17.667 -33.834 29 -57.501s22.833 -49.167 34.5 -76.5l34 -83.5c11 -28.333 20.167 -54.5 27.5 -78.5h-72
c-18.667 56.667 -39.167 109.5 -61.5 158.5s-43.166 90.5 -62.499 124.5c-22 -2 -45 -3 -69 -3h-84l-67 -280h-68l163 680c23.333 4.66699 48.833 9 76.5 13s56.167 6 85.5 6zM313.999 338.001c83.333 0 147.332 15.833 191.999 47.5s67 76.167 67 133.5
c0 42 -14 72.667 -42 92s-72.333 29 -133 29c-17.333 0 -34.166 -0.833008 -50.499 -2.5l-44.5 -4.5l-72 -295h83zM585.998 861.001l-175 -128l-29 44l166 146z" />
    <glyph glyph-name="racute" unicode="&#x155;" horiz-adv-x="366" 
d="M201 494c25.333 10 53.166 18.333 83.499 25s60.166 10 89.499 10c15.333 0 30 -1 44 -3s27.333 -5.33301 40 -10l-17 -59c-26 8 -52.667 12 -80 12c-17.333 0 -34.666 -1.33301 -51.999 -4s-34.666 -6.66699 -51.999 -12l-109 -453h-65zM490 711l-175 -128l-29 44
l166 146z" />
    <glyph glyph-name="Rcommaaccent" unicode="&#x156;" horiz-adv-x="592" 
d="M408 699c78.667 0 137.666 -15.832 176.999 -47.499s59 -76.5 59 -134.5c0 -52 -16.667 -97.5 -50 -136.5s-84 -67.167 -152 -84.5c8 -14.667 17.667 -33.834 29 -57.501s22.833 -49.167 34.5 -76.5l34 -83.5c11 -28.333 20.167 -54.5 27.5 -78.5h-72
c-18.667 56.667 -39.167 109.5 -61.5 158.5s-43.166 90.5 -62.499 124.5c-22 -2 -45 -3 -69 -3h-84l-67 -280h-68l163 680c23.333 4.66699 48.833 9 76.5 13s56.167 6 85.5 6zM313.999 338.001c83.333 0 147.332 15.833 191.999 47.5s67 76.167 67 133.5
c0 42 -14 72.667 -42 92s-72.333 29 -133 29c-17.333 0 -34.166 -0.833008 -50.499 -2.5l-44.5 -4.5l-72 -295h83zM190.998 -138.999c14 -2 26.001 -0.830078 36.001 3.50293s18.167 10.666 24.5 18.999s11.5 18.166 15.5 29.499s7.66699 23.666 11 36.999h72
c-2.66699 -19.333 -8.5 -38 -17.5 -56s-20.833 -33.667 -35.5 -47s-31.834 -23 -51.501 -29s-41.5 -6 -65.5 0z" />
    <glyph glyph-name="rcommaaccent" unicode="&#x157;" horiz-adv-x="366" 
d="M201 494c25.333 10 53.166 18.333 83.499 25s60.166 10 89.499 10c15.333 0 30 -1 44 -3s27.333 -5.33301 40 -10l-17 -59c-26 8 -52.667 12 -80 12c-17.333 0 -34.666 -1.33301 -51.999 -4s-34.666 -6.66699 -51.999 -12l-109 -453h-65zM-17 -139
c14 -2 26.001 -0.830078 36.001 3.50293s18.167 10.666 24.5 18.999s11.5 18.166 15.5 29.499s7.66699 23.666 11 36.999h72c-2.66699 -19.333 -8.5 -38 -17.5 -56s-20.833 -33.667 -35.5 -47s-31.834 -23 -51.501 -29s-41.5 -6 -65.5 0z" />
    <glyph glyph-name="Rcaron" unicode="&#x158;" horiz-adv-x="592" 
d="M408 699c78.667 0 137.666 -15.832 176.999 -47.499s59 -76.5 59 -134.5c0 -52 -16.667 -97.5 -50 -136.5s-84 -67.167 -152 -84.5c8 -14.667 17.667 -33.834 29 -57.501s22.833 -49.167 34.5 -76.5l34 -83.5c11 -28.333 20.167 -54.5 27.5 -78.5h-72
c-18.667 56.667 -39.167 109.5 -61.5 158.5s-43.166 90.5 -62.499 124.5c-22 -2 -45 -3 -69 -3h-84l-67 -280h-68l163 680c23.333 4.66699 48.833 9 76.5 13s56.167 6 85.5 6zM313.999 338.001c83.333 0 147.332 15.833 191.999 47.5s67 76.167 67 133.5
c0 42 -14 72.667 -42 92s-72.333 29 -133 29c-17.333 0 -34.166 -0.833008 -50.499 -2.5l-44.5 -4.5l-72 -295h83zM573.998 916.001l26 -33l-169 -147l-99 147l34 33l81 -96z" />
    <glyph glyph-name="rcaron" unicode="&#x159;" horiz-adv-x="366" 
d="M201 494c25.333 10 53.166 18.333 83.499 25s60.166 10 89.499 10c15.333 0 30 -1 44 -3s27.333 -5.33301 40 -10l-17 -59c-26 8 -52.667 12 -80 12c-17.333 0 -34.666 -1.33301 -51.999 -4s-34.666 -6.66699 -51.999 -12l-109 -453h-65zM500 763l26 -33l-169 -147
l-99 147l34 33l81 -96z" />
    <glyph glyph-name="Sacute" unicode="&#x15a;" horiz-adv-x="487" 
d="M83 93c19.333 -14.667 42.8291 -26.502 70.4961 -35.502s56.5 -13.5 86.5 -13.5c24 0 47.167 2.83301 69.5 8.5s42.333 14.667 60 27s31.834 28 42.501 47s16 41.833 16 68.5s-6.33301 48.334 -19 65.001s-28.5 31 -47.5 43s-39.667 23.167 -62 33.5s-43 22.833 -62 37.5
s-34.833 32.5 -47.5 53.5s-19 48.5 -19 82.5c0 24 5 47.833 15 71.5s25.5 44.834 46.5 63.501s47.333 33.834 79 45.501s69.167 17.5 112.5 17.5c28.667 0 55.834 -2.83301 81.501 -8.5s53.5 -15.834 83.5 -30.501l-35 -57c-23.333 14 -46.5 23.833 -69.5 29.5
s-47.167 8.5 -72.5 8.5c-22 0 -43.167 -2.5 -63.5 -7.5s-38.5 -12.667 -54.5 -23s-28.833 -24 -38.5 -41s-14.5 -37.5 -14.5 -61.5c0 -26.667 6.33301 -48.334 19 -65.001s28.667 -31 48 -43s40 -23.167 62 -33.5s42.667 -22.666 62 -36.999s35.333 -32.5 48 -54.5
s19 -50.667 19 -86c0 -26 -5.16699 -51.833 -15.5 -77.5s-26.666 -48.5 -48.999 -68.5s-50.666 -36.167 -84.999 -48.5s-75.5 -18.5 -123.5 -18.5c-32 0 -63.167 4.33301 -93.5 13s-58.5 20.667 -84.5 36zM569.996 860.998l-175 -128l-29 44l166 146z" />
    <glyph glyph-name="sacute" unicode="&#x15b;" horiz-adv-x="400" 
d="M76 82c24.667 -13.333 46.334 -22.3311 65.001 -26.998s39.667 -7 63 -7c16.667 0 32.667 1.83301 48 5.5s28.666 9.16699 39.999 16.5s20.333 17 27 29s10 26 10 42c0 17.333 -4.83301 31.666 -14.5 42.999s-21.667 21.166 -36 29.499s-29.833 16.5 -46.5 24.5
s-32.167 17.333 -46.5 28s-26.333 24 -36 40s-14.5 36.667 -14.5 62c0 28.667 5.33301 53.167 16 73.5s25 37 43 50s38.667 22.5 62 28.5s47.333 9 72 9c21.333 0 42.5 -1.83301 63.5 -5.5s41.167 -9.16699 60.5 -16.5l-26 -58c-14 6 -30 10.833 -48 14.5
s-36.667 5.5 -56 5.5c-16 0 -31.5 -1.66699 -46.5 -5s-28.167 -8.83301 -39.5 -16.5s-20.5 -17.334 -27.5 -29.001s-10.5 -25.834 -10.5 -42.501c0 -17.333 4.83301 -31.666 14.5 -42.999s21.5 -21.333 35.5 -30s29.5 -16.834 46.5 -24.501s32.5 -16.834 46.5 -27.501
s25.833 -23.5 35.5 -38.5s14.5 -34.167 14.5 -57.5c0 -29.333 -5.5 -54.666 -16.5 -75.999s-25.5 -38.666 -43.5 -51.999s-38.667 -23.166 -62 -29.499s-47.333 -9.5 -72 -9.5c-26 0 -52 2.83301 -78 8.5s-49.667 14.5 -71 26.5zM479 711.002l-175 -128l-29 44l166 146z" />
    <glyph glyph-name="Scircumflex" unicode="&#x15c;" horiz-adv-x="487" 
d="M83 93c19.333 -14.667 42.8291 -26.502 70.4961 -35.502s56.5 -13.5 86.5 -13.5c24 0 47.167 2.83301 69.5 8.5s42.333 14.667 60 27s31.834 28 42.501 47s16 41.833 16 68.5s-6.33301 48.334 -19 65.001s-28.5 31 -47.5 43s-39.667 23.167 -62 33.5s-43 22.833 -62 37.5
s-34.833 32.5 -47.5 53.5s-19 48.5 -19 82.5c0 24 5 47.833 15 71.5s25.5 44.834 46.5 63.501s47.333 33.834 79 45.501s69.167 17.5 112.5 17.5c28.667 0 55.834 -2.83301 81.501 -8.5s53.5 -15.834 83.5 -30.501l-35 -57c-23.333 14 -46.5 23.833 -69.5 29.5
s-47.167 8.5 -72.5 8.5c-22 0 -43.167 -2.5 -63.5 -7.5s-38.5 -12.667 -54.5 -23s-28.833 -24 -38.5 -41s-14.5 -37.5 -14.5 -61.5c0 -26.667 6.33301 -48.334 19 -65.001s28.667 -31 48 -43s40 -23.167 62 -33.5s42.667 -22.666 62 -36.999s35.333 -32.5 48 -54.5
s19 -50.667 19 -86c0 -26 -5.16699 -51.833 -15.5 -77.5s-26.666 -48.5 -48.999 -68.5s-50.666 -36.167 -84.999 -48.5s-75.5 -18.5 -123.5 -18.5c-32 0 -63.167 4.33301 -93.5 13s-58.5 20.667 -84.5 36zM325.996 733.998l-26 33l169 147l99 -147l-34 -33l-81 96z" />
    <glyph glyph-name="scircumflex" unicode="&#x15d;" horiz-adv-x="400" 
d="M76 82c24.667 -13.333 46.334 -22.3311 65.001 -26.998s39.667 -7 63 -7c16.667 0 32.667 1.83301 48 5.5s28.666 9.16699 39.999 16.5s20.333 17 27 29s10 26 10 42c0 17.333 -4.83301 31.666 -14.5 42.999s-21.667 21.166 -36 29.499s-29.833 16.5 -46.5 24.5
s-32.167 17.333 -46.5 28s-26.333 24 -36 40s-14.5 36.667 -14.5 62c0 28.667 5.33301 53.167 16 73.5s25 37 43 50s38.667 22.5 62 28.5s47.333 9 72 9c21.333 0 42.5 -1.83301 63.5 -5.5s41.167 -9.16699 60.5 -16.5l-26 -58c-14 6 -30 10.833 -48 14.5
s-36.667 5.5 -56 5.5c-16 0 -31.5 -1.66699 -46.5 -5s-28.167 -8.83301 -39.5 -16.5s-20.5 -17.334 -27.5 -29.001s-10.5 -25.834 -10.5 -42.501c0 -17.333 4.83301 -31.666 14.5 -42.999s21.5 -21.333 35.5 -30s29.5 -16.834 46.5 -24.501s32.5 -16.834 46.5 -27.501
s25.833 -23.5 35.5 -38.5s14.5 -34.167 14.5 -57.5c0 -29.333 -5.5 -54.666 -16.5 -75.999s-25.5 -38.666 -43.5 -51.999s-38.667 -23.166 -62 -29.499s-47.333 -9.5 -72 -9.5c-26 0 -52 2.83301 -78 8.5s-49.667 14.5 -71 26.5zM232 583.002l-26 33l169 147l99 -147
l-34 -33l-81 96z" />
    </font>
</defs>
</svg>
