<?xml version="1.0" standalone="no"?>
<!DOCTYPE svg PUBLIC "-//W3C//DTD SVG 1.1//EN" "http://www.w3.org/Graphics/SVG/1.1/DTD/svg11.dtd" >
<svg>
<metadata>
Created by FontForge 20090914 at Tue Oct  1 18:20:53 2013
 By www-data
Copyright 2011 Canonical Ltd.  Licensed under the Ubuntu Font Licence 1.0
</metadata>
<defs>
<font id="Ubuntu-Italic" horiz-adv-x="376" >
  <font-face 
    font-family="Ubuntu"
    font-weight="400"
    font-style="italic"
    font-stretch="normal"
    units-per-em="1000"
    panose-1="2 11 5 4 3 6 2 10 2 4"
    ascent="800"
    descent="-200"
    x-height="520"
    cap-height="693"
    bbox="-167 -189.999 3585 962.003"
    underline-thickness="79"
    underline-position="-84"
    slope="-13"
    unicode-range="U+0008-U+FB04"
  />
<missing-glyph horiz-adv-x="500" 
d="M50 0v750h400v-750h-400zM400 50v650h-300v-650h300z" />
    <glyph glyph-name="f_f" unicode="ff" horiz-adv-x="740" 
d="M294 520l173.999 -0.000976562l-18 -78h-174l-80 -330l-21 -91c-6 -26.667 -13.167 -51.667 -21.5 -75s-19.333 -45.833 -33 -67.5s-32.167 -44.167 -55.5 -67.5l-82 12c20 26 35.667 48 47 66s20.833 36.333 28.5 55s14.334 40.167 20.001 64.5l22.5 94.5l111 464
c8 33.333 18.167 63 30.5 89s28 47.833 47 65.5s41.5 31.167 67.5 40.5s57 14 93 14c23.333 0 45.5 -2.33301 66.5 -7s36.833 -9.66699 47.5 -15l-37 -74c-5.33301 2.66699 -14.5 6 -27.5 10s-32.167 6 -57.5 6c-22 0 -40.667 -3.16699 -56 -9.5
s-28.333 -15.166 -39 -26.499s-19.167 -25 -25.5 -41s-11.833 -34 -16.5 -54zM665.999 519.999l173.999 -0.000976562l-18 -78h-174l-80 -330l-21 -91c-6 -26.667 -13.167 -51.667 -21.5 -75s-19.333 -45.833 -33 -67.5s-32.167 -44.167 -55.5 -67.5l-82 12
c20 26 35.667 48 47 66s20.833 36.333 28.5 55s14.334 40.167 20.001 64.5l22.5 94.5l111 464c8 33.333 18.167 63 30.5 89s28 47.833 47 65.5s41.5 31.167 67.5 40.5s57 14 93 14c23.333 0 45.5 -2.33301 66.5 -7s36.833 -9.66699 47.5 -15l-37 -74
c-5.33301 2.66699 -14.5 6 -27.5 10s-32.167 6 -57.5 6c-22 0 -40.667 -3.16699 -56 -9.5s-28.333 -15.166 -39 -26.499s-19.167 -25 -25.5 -41s-11.833 -34 -16.5 -54z" />
    <glyph glyph-name="f_i" unicode="fi" horiz-adv-x="621" 
d="M541 0h-93l125 520h93zM649 614c-15.333 0 -28.167 4.66797 -38.5 14.001s-15.5 22.333 -15.5 39c0 21.333 6.66699 38.166 20 50.499s28.333 18.5 45 18.5c15.333 0 28.333 -4.83301 39 -14.5s16 -23.167 16 -40.5c0 -20 -7 -36.167 -21 -48.5s-29 -18.5 -45 -18.5z
M211.999 567.001c8 33.333 18.167 62.999 30.5 88.999s28 47.833 47 65.5s41.5 31.167 67.5 40.5s57 14 93 14c19.333 0 37.666 -1.83301 54.999 -5.5s31.333 -8.16699 42 -13.5l-37 -74c-5.33301 2.66699 -13.5 5.5 -24.5 8.5s-25.5 4.5 -43.5 4.5
c-22 0 -40.667 -3.16699 -56 -9.5s-28.333 -15.166 -39 -26.499s-19.167 -25 -25.5 -41s-11.833 -34 -16.5 -54l-11 -45h174l-18 -78h-174l-80 -330l-21 -91c-6 -26.667 -13.167 -51.667 -21.5 -75s-19.333 -45.833 -33 -67.5s-32.167 -44.167 -55.5 -67.5l-82 12
c20 26 35.667 48 47 66s20.833 36.333 28.5 55s14.334 40.167 20.001 64.5l22.5 94.5z" />
    <glyph glyph-name="f_l" unicode="fl" horiz-adv-x="652" 
d="M591 229l-10.001 -43.0029c-3.33301 -14 -5 -27.333 -5 -40c0 -22.667 5.5 -40.667 16.5 -54s31.5 -21.666 61.5 -24.999l-21 -76c-27.333 0.666992 -50.5 4.83398 -69.5 12.501s-34.333 17.834 -46 30.501s-20.167 27.667 -25.5 45s-8 36.333 -8 57
c0 15.333 1.33301 31.333 4 48s6.33398 34 11.001 52l126 524l97 16zM211.999 566.997c8 33.333 18.167 62.999 30.5 88.999s28 47.833 47 65.5s41.5 31.167 67.5 40.5s57 14 93 14c19.333 0 37.666 -1.83301 54.999 -5.5s31.333 -8.16699 42 -13.5l-37 -74
c-5.33301 2.66699 -13.5 5.5 -24.5 8.5s-25.5 4.5 -43.5 4.5c-22 0 -40.667 -3.16699 -56 -9.5s-28.333 -15.166 -39 -26.499s-19.167 -25 -25.5 -41s-11.833 -34 -16.5 -54l-11 -45h174l-18 -78h-174l-80 -330l-21 -91c-6 -26.667 -13.167 -51.667 -21.5 -75
s-19.333 -45.833 -33 -67.5s-32.167 -44.167 -55.5 -67.5l-82 12c20 26 35.667 48 47 66s20.833 36.333 28.5 55s14.334 40.167 20.001 64.5l22.5 94.5z" />
    <glyph glyph-name="f_f_i" unicode="ffi" horiz-adv-x="993" 
d="M294 520l173.999 -0.000976562l-18 -78h-174l-80 -330l-21 -91c-6 -26.667 -13.167 -51.667 -21.5 -75s-19.333 -45.833 -33 -67.5s-32.167 -44.167 -55.5 -67.5l-82 12c20 26 35.667 48 47 66s20.833 36.333 28.5 55s14.334 40.167 20.001 64.5l22.5 94.5l111 464
c8 33.333 18.167 63 30.5 89s28 47.833 47 65.5s41.5 31.167 67.5 40.5s57 14 93 14c23.333 0 45.5 -2.33301 66.5 -7s36.833 -9.66699 47.5 -15l-37 -74c-5.33301 2.66699 -14.5 6 -27.5 10s-32.167 6 -57.5 6c-22 0 -40.667 -3.16699 -56 -9.5
s-28.333 -15.166 -39 -26.499s-19.167 -25 -25.5 -41s-11.833 -34 -16.5 -54zM912.999 -0.000976562h-93l125 520h93zM1021 613.999c-15.333 0 -28.167 4.66797 -38.5 14.001s-15.5 22.333 -15.5 39c0 21.333 6.66699 38.166 20 50.499s28.333 18.5 45 18.5
c15.333 0 28.333 -4.83301 39 -14.5s16 -23.167 16 -40.5c0 -20 -7 -36.167 -21 -48.5s-29 -18.5 -45 -18.5zM583.998 567c8 33.333 18.167 62.999 30.5 88.999s28 47.833 47 65.5s41.5 31.167 67.5 40.5s57 14 93 14c19.333 0 37.666 -1.83301 54.999 -5.5
s31.333 -8.16699 42 -13.5l-37 -74c-5.33301 2.66699 -13.5 5.5 -24.5 8.5s-25.5 4.5 -43.5 4.5c-22 0 -40.667 -3.16699 -56 -9.5s-28.333 -15.166 -39 -26.499s-19.167 -25 -25.5 -41s-11.833 -34 -16.5 -54l-11 -45h174l-18 -78h-174l-80 -330l-21 -91
c-6 -26.667 -13.167 -51.667 -21.5 -75s-19.333 -45.833 -33 -67.5s-32.167 -44.167 -55.5 -67.5l-82 12c20 26 35.667 48 47 66s20.833 36.333 28.5 55s14.334 40.167 20.001 64.5l22.5 94.5z" />
    <glyph glyph-name="f_f_l" unicode="ffl" horiz-adv-x="1024" 
d="M294 520l173.999 -0.000976562l-18 -78h-174l-80 -330l-21 -91c-6 -26.667 -13.167 -51.667 -21.5 -75s-19.333 -45.833 -33 -67.5s-32.167 -44.167 -55.5 -67.5l-82 12c20 26 35.667 48 47 66s20.833 36.333 28.5 55s14.334 40.167 20.001 64.5l22.5 94.5l111 464
c8 33.333 18.167 63 30.5 89s28 47.833 47 65.5s41.5 31.167 67.5 40.5s57 14 93 14c23.333 0 45.5 -2.33301 66.5 -7s36.833 -9.66699 47.5 -15l-37 -74c-5.33301 2.66699 -14.5 6 -27.5 10s-32.167 6 -57.5 6c-22 0 -40.667 -3.16699 -56 -9.5
s-28.333 -15.166 -39 -26.499s-19.167 -25 -25.5 -41s-11.833 -34 -16.5 -54zM962.999 228.999l-10.001 -43.0029c-3.33301 -14 -5 -27.333 -5 -40c0 -22.667 5.5 -40.667 16.5 -54s31.5 -21.666 61.5 -24.999l-21 -76c-27.333 0.666992 -50.5 4.83398 -69.5 12.501
s-34.333 17.834 -46 30.501s-20.167 27.667 -25.5 45s-8 36.333 -8 57c0 15.333 1.33301 31.333 4 48s6.33398 34 11.001 52l126 524l97 16zM583.998 566.996c8 33.333 18.167 62.999 30.5 88.999s28 47.833 47 65.5s41.5 31.167 67.5 40.5s57 14 93 14
c19.333 0 37.666 -1.83301 54.999 -5.5s31.333 -8.16699 42 -13.5l-37 -74c-5.33301 2.66699 -13.5 5.5 -24.5 8.5s-25.5 4.5 -43.5 4.5c-22 0 -40.667 -3.16699 -56 -9.5s-28.333 -15.166 -39 -26.499s-19.167 -25 -25.5 -41s-11.833 -34 -16.5 -54l-11 -45h174l-18 -78
h-174l-80 -330l-21 -91c-6 -26.667 -13.167 -51.667 -21.5 -75s-19.333 -45.833 -33 -67.5s-32.167 -44.167 -55.5 -67.5l-82 12c20 26 35.667 48 47 66s20.833 36.333 28.5 55s14.334 40.167 20.001 64.5l22.5 94.5z" />
    <glyph glyph-name=".notdef" horiz-adv-x="500" 
d="M50 0v750h400v-750h-400zM400 50v650h-300v-650h300z" />
    <glyph glyph-name=".null" horiz-adv-x="0" 
 />
    <glyph glyph-name=".null" horiz-adv-x="0" 
 />
    <glyph glyph-name=".null" horiz-adv-x="0" 
 />
    <glyph glyph-name="nonmarkingreturn" unicode="&#x9;" horiz-adv-x="231" 
 />
    <glyph glyph-name="nonmarkingreturn" unicode="&#xd;" horiz-adv-x="231" 
 />
    <glyph glyph-name="space" unicode=" " horiz-adv-x="231" 
 />
    <glyph glyph-name="exclam" unicode="!" horiz-adv-x="250" 
d="M338 693l-45 -189.002c-4 -16 -9.5 -36.833 -16.5 -62.5s-14.667 -52.167 -23 -79.5s-17 -54.166 -26 -80.499s-17.167 -48.166 -24.5 -65.499h-57c5.33301 45.333 11.5 90.833 18.5 136.5s17.167 96.5 30.5 152.5l45 188h98zM133 -13.002
c-18.667 0 -33.3311 4.99902 -43.998 14.999s-16 24.667 -16 44c0 24 7.16699 42.5 21.5 55.5s30.833 19.5 49.5 19.5s33.5 -5.16699 44.5 -15.5s16.5 -25.5 16.5 -45.5c0 -11.333 -2.16699 -21.5 -6.5 -30.5s-9.83301 -16.667 -16.5 -23s-14.334 -11.166 -23.001 -14.499
s-17.334 -5 -26.001 -5z" />
    <glyph glyph-name="quotedbl" unicode="&#x22;" horiz-adv-x="410" 
d="M348 760l-12.001 -50c-8 -32.667 -18.167 -67.167 -30.5 -103.5s-25.833 -71.5 -40.5 -105.5h-54c2.66699 36 6.33398 71.5 11.001 106.5s11 69.5 19 103.5l12 49h95zM520.999 760l-12.001 -50c-8 -32.667 -18.167 -67.167 -30.5 -103.5s-25.833 -71.5 -40.5 -105.5h-54
c2.66699 36 6.33398 71.5 11.001 106.5s11 69.5 19 103.5l12 49h95z" />
    <glyph glyph-name="numbersign" unicode="#" horiz-adv-x="654" 
d="M402 510h157l78 183h84l-78 -183h84l-18 -74h-97l-78 -179h132l-18 -74h-145l-78 -183h-84l77 183h-156l-78 -183h-84l77 183h-86l18 74h100l77 179h-134l18 74h147l79 183h84zM293 257h157l78 179h-157z" />
    <glyph glyph-name="dollar" unicode="$" horiz-adv-x="564" 
d="M277 96c19.333 0 38.6689 1.8291 58.002 5.49609s36.666 9.83398 51.999 18.501s27.666 20.167 36.999 34.5s14 32.166 14 53.499c0 14.667 -2.83301 27.334 -8.5 38.001s-13.667 20.334 -24 29.001s-22.666 16.5 -36.999 23.5l-46.5 22.5
c-14.667 6.66699 -29.167 14.334 -43.5 23.001s-27.166 19.167 -38.499 31.5s-20.5 27 -27.5 44s-10.5 37.5 -10.5 61.5c0 48 16.167 88.167 48.5 120.5s80.5 52.5 144.5 60.5l27 114h81l-27 -112c28.667 -2.66699 54.5 -8.5 77.5 -17.5s40.5 -17.5 52.5 -25.5l-42 -69
c-11.333 8 -27.833 15.667 -49.5 23s-48.5 11 -80.5 11c-19.333 0 -37.5 -1.83301 -54.5 -5.5s-32 -9.5 -45 -17.5s-23.167 -18.167 -30.5 -30.5s-11 -26.833 -11 -43.5c0 -27.333 8.33301 -48.333 25 -63s42 -30 76 -46c18 -8 35.333 -16.667 52 -26
s31.167 -20.333 43.5 -33s22.166 -27.5 29.499 -44.5s11 -37.167 11 -60.5c0 -29.333 -5 -55.333 -15 -78s-24.333 -42.167 -43 -58.5s-40.834 -29.5 -66.501 -39.5s-53.834 -16.667 -84.501 -20l-30 -129h-81l31 130c-17.333 0.666992 -34 2.66699 -50 6
s-31 7.33301 -45 12s-26.333 9.5 -37 14.5s-19 9.5 -25 13.5l43 71c12 -7.33301 30.333 -16.166 55 -26.499s56.334 -15.5 95.001 -15.5z" />
    <glyph glyph-name="percent" unicode="%" horiz-adv-x="836" 
d="M269 0h-95l549 693h95zM158 476c0 28 4.5 55.833 13.5 83.5s21.667 52.5 38 74.5s36.5 39.833 60.5 53.5s51 20.5 81 20.5c40 0 71.167 -11.5 93.5 -34.5s33.5 -56.833 33.5 -101.5c0 -28 -4.5 -55.833 -13.5 -83.5s-21.667 -52.5 -38 -74.5s-36.5 -39.833 -60.5 -53.5
s-51 -20.5 -81 -20.5c-40 0 -71.167 11.5 -93.5 34.5s-33.5 56.833 -33.5 101.5zM404 565c0 22.667 -3.83301 41.167 -11.5 55.5s-23.167 21.5 -46.5 21.5c-19.333 0 -36.166 -5.33301 -50.499 -16s-26.166 -23.834 -35.499 -39.501s-16.333 -32.834 -21 -51.501
s-7 -36 -7 -52c0 -22.667 3.83301 -41.167 11.5 -55.5s23.167 -21.5 46.5 -21.5c19.333 0 36.166 5.33301 50.499 16s26.166 23.834 35.499 39.501s16.333 32.834 21 51.501s7 36 7 52zM514 121c0 28 4.5 55.833 13.5 83.5s21.667 52.5 38 74.5s36.5 39.833 60.5 53.5
s51 20.5 81 20.5c40 0 71.167 -11.5 93.5 -34.5s33.5 -56.833 33.5 -101.5c0 -28 -4.5 -55.833 -13.5 -83.5s-21.667 -52.5 -38 -74.5s-36.5 -39.833 -60.5 -53.5s-51 -20.5 -81 -20.5c-40 0 -71.167 11.5 -93.5 34.5s-33.5 56.833 -33.5 101.5zM760 210
c0 22.667 -3.83301 41.167 -11.5 55.5s-23.167 21.5 -46.5 21.5c-19.333 0 -36.166 -5.33301 -50.499 -16s-26.166 -23.834 -35.499 -39.501s-16.333 -32.834 -21 -51.501s-7 -36 -7 -52c0 -22.667 3.83301 -41.167 11.5 -55.5s23.167 -21.5 46.5 -21.5
c19.333 0 36.166 5.33301 50.499 16s26.166 23.834 35.499 39.501s16.333 32.834 21 51.501s7 36 7 52z" />
    <glyph glyph-name="ampersand" unicode="&#x26;" horiz-adv-x="640" 
d="M78 147c0 30 4.83203 57 14.499 81s23 45.5 40 64.5s37.167 36 60.5 51s48.666 28.5 75.999 40.5c-11.333 18.667 -21 38.334 -29 59.001s-12 44.334 -12 71.001c0 30 5 57 15 81s24.167 44.5 42.5 61.5s40.666 30 66.999 39s55.5 13.5 87.5 13.5
c18.667 0 36.667 -2.83301 54 -8.5s32.333 -14.167 45 -25.5s22.834 -25.166 30.501 -41.499s11.5 -35.5 11.5 -57.5c0 -26 -4.66699 -49.5 -14 -70.5s-22.5 -40.167 -39.5 -57.5s-37.167 -33.333 -60.5 -48s-49 -28.334 -77 -41.001l116 -161
c32 40.667 57.667 87.667 77 141l81 -10c-9.33301 -28 -23.166 -59.167 -41.499 -93.5s-41.5 -67.833 -69.5 -100.5c16.667 -23.333 32.167 -46.333 46.5 -69s25.5 -44.667 33.5 -66h-96c-5.33301 12 -11.833 24.167 -19.5 36.5s-16.167 25.166 -25.5 38.499
c-30 -24.667 -63.5 -44.834 -100.5 -60.501s-79.5 -23.5 -127.5 -23.5c-33.333 0 -61.666 3.83301 -84.999 11.5s-42.5 18.5 -57.5 32.5s-26 30.5 -33 49.5s-10.5 39.833 -10.5 62.5zM269.999 68c32 0 63.332 5.83008 93.999 17.4971s58.334 28.834 83.001 51.501l-138 190
c-17.333 -7.33301 -34.333 -16.166 -51 -26.499s-31.5 -22.166 -44.5 -35.499s-23.667 -28.5 -32 -45.5s-12.5 -35.833 -12.5 -56.5c0 -28 7.5 -50.833 22.5 -68.5s41.167 -26.5 78.5 -26.5zM314.998 519.997c0 -18 3.5 -35.6699 10.5 -53.0029s15.833 -34.666 26.5 -51.999
c17.333 6.66699 34.666 14.834 51.999 24.501s32.833 20.834 46.5 33.501s24.667 26.667 33 42s12.5 32 12.5 50c0 22.667 -6.16699 40 -18.5 52s-29.166 18 -50.499 18c-30 0 -56.167 -9.5 -78.5 -28.5s-33.5 -47.833 -33.5 -86.5z" />
    <glyph glyph-name="quotesingle" unicode="'" horiz-adv-x="236" 
d="M348 760l-12.001 -50c-8 -32.667 -18.167 -67.167 -30.5 -103.5s-25.833 -71.5 -40.5 -105.5h-54c2.66699 36 6.33398 71.5 11.001 106.5s11 69.5 19 103.5l12 49h95z" />
    <glyph glyph-name="parenleft" unicode="(" horiz-adv-x="317" 
d="M491 739c-42 -42 -79.999 -86.5 -113.999 -133.5s-62.833 -95.667 -86.5 -146s-42 -102 -55 -155s-19.5 -106.833 -19.5 -161.5c0 -56.667 4 -107.667 12 -153s21.667 -89 41 -131l-71 -40c-22.667 40 -40.334 86.333 -53.001 139s-19 108 -19 166
c0 126.667 25.5 244.667 76.5 354s126.5 211 226.5 305z" />
    <glyph glyph-name="parenright" unicode=")" horiz-adv-x="317" 
d="M-50 -141c42 42 79.999 86.5 113.999 133.5s62.833 95.667 86.5 146s42 102 55 155s19.5 106.833 19.5 161.5c0 56.667 -4 107.667 -12 153s-21.667 89 -41 131l71 40c22.667 -40 40.334 -86.333 53.001 -139s19 -108 19 -166c0 -126.667 -25.5 -244.667 -76.5 -354
s-126.5 -211 -226.5 -305z" />
    <glyph glyph-name="asterisk" unicode="*" horiz-adv-x="470" 
d="M396 685c0 -28 -2.49805 -54.667 -7.49805 -80l-15.5 -80l70.5 39c23 12.667 48.5 23.667 76.5 33l6 2l28 -84l-8 -3c-26.667 -10 -53.334 -16.5 -80.001 -19.5s-54 -5.5 -82 -7.5l62 -54.5c19.333 -17.667 37.333 -38.167 54 -61.5l5 -7l-73 -51l-4 6
c-16 24 -29.833 47.833 -41.5 71.5l-35.5 73.5l-35.5 -73.5c-11.667 -23.667 -25.5 -47.5 -41.5 -71.5l-4 -6l-73 51l5 7c16.667 23.333 34.667 43.833 54 61.5l62 54.5c-28 2 -55.333 4.5 -82 7.5s-53.334 9.5 -80.001 19.5l-8 3l28 84l6 -2
c28 -9.33301 53.5 -20.333 76.5 -33l70.5 -39l-15.5 80c-5 25.333 -7.5 52 -7.5 80v8h90v-8z" />
    <glyph glyph-name="plus" unicode="+" horiz-adv-x="564" 
d="M455 543l-50 -206h182l-19 -79h-182l-50 -207h-84l49 207h-182l19 79h182l50 206h85z" />
    <glyph glyph-name="comma" unicode="," horiz-adv-x="246" 
d="M198 114c-3.33301 -24 -8.99902 -48.3311 -16.999 -72.998s-17.833 -48.834 -29.5 -72.501s-24.834 -46.334 -39.501 -68.001s-30 -41.5 -46 -59.5l-63 26c13.333 18 25.5 37.667 36.5 59s20.5 43 28.5 65s14.667 43.5 20 64.5s9 40.5 11 58.5h99z" />
    <glyph glyph-name="hyphen" unicode="-" horiz-adv-x="293" 
d="M107 343h242l-20 -87h-242z" />
    <glyph glyph-name="period" unicode="." horiz-adv-x="246" 
d="M128 -13c-18.667 0 -33.3311 4.99902 -43.998 14.999s-16 24.667 -16 44c0 24 7.16699 42.5 21.5 55.5s30.833 19.5 49.5 19.5s33.5 -5.16699 44.5 -15.5s16.5 -25.5 16.5 -45.5c0 -11.333 -2.16699 -21.5 -6.5 -30.5s-9.83301 -16.667 -16.5 -23
s-14.334 -11.166 -23.001 -14.499s-17.334 -5 -26.001 -5z" />
    <glyph glyph-name="slash" unicode="/" 
d="M27 -185h-93l559 968h93z" />
    <glyph glyph-name="zero" unicode="0" horiz-adv-x="564" 
d="M609 501c0 -32.667 -2.99707 -68.167 -8.99707 -106.5s-14.833 -76.666 -26.5 -114.999s-26.5 -75.166 -44.5 -110.499s-39.167 -66.666 -63.5 -93.999s-51.833 -49.166 -82.5 -65.499s-64.334 -24.5 -101.001 -24.5c-56.667 0 -98.5 17.5 -125.5 52.5
s-40.5 86.833 -40.5 155.5c0 32.667 3 68.167 9 106.5s14.833 76.666 26.5 114.999s26.5 75.166 44.5 110.499s39.167 66.666 63.5 93.999s51.666 49.166 81.999 65.499s64.166 24.5 101.499 24.5c56.667 0 98.5 -17.5 125.5 -52.5s40.5 -86.833 40.5 -155.5zM514.003 489
c0 50 -6.00098 85.668 -18.001 107.001s-33.333 32 -64 32c-20.667 0 -40.667 -6.33301 -60 -19s-37.166 -29.667 -53.499 -51s-31.166 -46.166 -44.499 -74.499s-24.666 -58.166 -33.999 -89.499s-16.5 -63.333 -21.5 -96s-7.5 -63.667 -7.5 -93c0 -50 6 -85.667 18 -107
s33.333 -32 64 -32c21.333 0 41.5 6.33301 60.5 19s36.667 29.667 53 51s31.166 46.166 44.499 74.499s24.666 58.166 33.999 89.499s16.5 63.166 21.5 95.499s7.5 63.5 7.5 93.5z" />
    <glyph glyph-name="one" unicode="1" horiz-adv-x="564" 
d="M408 555c-9.33301 -7.33301 -20.5 -14.834 -33.5 -22.501s-27 -15.167 -42 -22.5s-30.5 -14.166 -46.5 -20.499s-31.333 -11.833 -46 -16.5l-15 77c40 14.667 80.833 33.5 122.5 56.5s81.5 51.833 119.5 86.5h67l-166 -693h-93z" />
    <glyph glyph-name="two" unicode="2" horiz-adv-x="564" 
d="M589 552c0 -35.333 -5.66602 -66.3311 -16.999 -92.998s-26.666 -51.167 -45.999 -73.5s-41.666 -43.333 -66.999 -63l-81 -61.5l-53 -41c-18.667 -14.667 -36.334 -29.834 -53.001 -45.501s-31.334 -31.667 -44.001 -48s-21.667 -32.5 -27 -48.5h301l-18 -78h-405
c5.33301 35.333 14.833 67.333 28.5 96s30 55 49 79s40 46 63 66s46.833 39.333 71.5 58l75.5 56.5c24.333 18.333 45.833 37 64.5 56s33.667 38.833 45 59.5s17 43.334 17 68.001c0 28 -7.5 49.833 -22.5 65.5s-39.5 23.5 -73.5 23.5
c-18.667 0 -36.334 -2.33301 -53.001 -7s-31.667 -10.334 -45 -17.001s-25.166 -13.834 -35.499 -21.501s-18.5 -14.5 -24.5 -20.5l-32 72c9.33301 8.66699 21 17.334 35 26.001s29.833 16.667 47.5 24s36.667 13.333 57 18s41.166 7 62.499 7c32 0 59.5 -4.5 82.5 -13.5
s41.667 -20.833 56 -35.5s24.833 -31.334 31.5 -50.001s10 -38 10 -58z" />
    <glyph glyph-name="three" unicode="3" horiz-adv-x="564" 
d="M249 67c26.667 0 51.498 3.16406 74.498 9.49707s43 15.833 60 28.5s30.167 28.5 39.5 47.5s14 41.167 14 66.5c0 40 -14.5 68.667 -43.5 86s-67.5 26 -115.5 26h-21l18 76h31c22 0 43.5 2.83301 64.5 8.5s40 14.334 57 26.001s30.667 26 41 43s15.5 36.833 15.5 59.5
c0 28 -8.5 49.167 -25.5 63.5s-41.5 21.5 -73.5 21.5c-28.667 0 -54.5 -4.5 -77.5 -13.5s-42.833 -18.833 -59.5 -29.5l-22 72c8.66699 6 19.334 12 32.001 18s26.667 11.5 42 16.5s31.5 9 48.5 12s34.167 4.5 51.5 4.5c31.333 0 58.166 -4 80.499 -12s40.833 -19 55.5 -33
s25.334 -30.5 32.001 -49.5s10 -39.167 10 -60.5c0 -44 -12.833 -81.5 -38.5 -112.5s-60.5 -55.167 -104.5 -72.5c11.333 -4.66699 22.833 -11.167 34.5 -19.5s22 -18.666 31 -30.999s16.333 -26.666 22 -42.999s8.5 -34.5 8.5 -54.5c0 -35.333 -6.16699 -67.5 -18.5 -96.5
s-30.5 -53.833 -54.5 -74.5s-53.667 -36.667 -89 -48s-76.333 -17 -123 -17c-23.333 0 -44.833 1.66699 -64.5 5s-37.167 7.16602 -52.5 11.499s-28.166 8.83301 -38.499 13.5s-17.5 8.33398 -21.5 11.001l35 79c4.66699 -2.66699 11.167 -6.16699 19.5 -10.5
s18.5 -8.5 30.5 -12.5s25.833 -7.5 41.5 -10.5s33.5 -4.5 53.5 -4.5z" />
    <glyph glyph-name="four" unicode="4" horiz-adv-x="564" 
d="M481 177l-42 -177h-90l42 177h-304l15 63c18.667 31.333 43.167 67 73.5 107s64 80.667 101 122s75.833 81.5 116.5 120.5s81 73.5 121 103.5h91l-106 -440h81l-18 -76h-81zM488 577c-24 -20 -49.001 -42.5 -75.001 -67.5s-51.667 -51.5 -77 -79.5
s-49.666 -57 -72.999 -87s-44.333 -60 -63 -90h210z" />
    <glyph glyph-name="five" unicode="5" horiz-adv-x="564" 
d="M368 615c-4 -13.333 -8.83105 -28.666 -14.498 -45.999l-17.5 -52.5l-17 -50.5l-13 -40c76 -10 133.167 -30.667 171.5 -62s57.5 -76 57.5 -134c0 -34 -5.66699 -66 -17 -96s-29 -56 -53 -78s-54.5 -39.333 -91.5 -52s-80.833 -19 -131.5 -19
c-21.333 0 -41.5 1.66699 -60.5 5s-36 7.16602 -51 11.499s-27.5 8.66602 -37.5 12.999s-16.667 7.5 -20 9.5l36 78c9.33301 -5.33301 25.5 -12.5 48.5 -21.5s52.833 -13.5 89.5 -13.5c27.333 0 52.833 3.5 76.5 10.5s44.167 17 61.5 30s31 29.167 41 48.5s15 41 15 65
c0 30.667 -8.33301 54.834 -25 72.501s-37.334 31 -62.001 40s-51.334 14.833 -80.001 17.5s-55 4.66699 -79 6l31 88l28.5 82.5c9 27 17.5 54 25.5 81s15.667 55.167 23 84.5h324l-18 -78h-241z" />
    <glyph glyph-name="six" unicode="6" horiz-adv-x="564" 
d="M236 318c-6.66699 -21.333 -11.667 -43.168 -15 -65.501s-5 -42.166 -5 -59.499c0 -42 7.5 -74.5 22.5 -97.5s41.5 -34.5 79.5 -34.5c26 0 49 5.5 69 16.5s36.833 25.5 50.5 43.5s24 38.167 31 60.5s10.5 45.166 10.5 68.499c0 32 -7.83301 56.333 -23.5 73
s-41.5 25 -77.5 25c-23.333 0 -46.833 -2.16699 -70.5 -6.5s-47.5 -12.166 -71.5 -23.499zM124 184.998c0 70 11.8311 135.997 35.498 197.997s57 116.167 100 162.5s95 83 156 110s129.167 40.5 204.5 40.5h13l-11 -79h-5c-47.333 0 -90.166 -6.16699 -128.499 -18.5
s-72.5 -28.666 -102.5 -48.999s-55.5 -44.166 -76.5 -71.499s-37.5 -56 -49.5 -86c21.333 10.667 44.333 18.834 69 24.501s48.334 8.5 71.001 8.5c30 0 55.833 -4.5 77.5 -13.5s39.5 -21 53.5 -36s24.167 -32.5 30.5 -52.5s9.5 -41 9.5 -63
c0 -33.333 -5.16699 -66.5 -15.5 -99.5s-26.166 -62.5 -47.499 -88.5s-48.833 -47 -82.5 -63s-73.834 -24 -120.501 -24c-58.667 0 -103.5 17.833 -134.5 53.5s-46.5 84.5 -46.5 146.5z" />
    <glyph glyph-name="seven" unicode="7" horiz-adv-x="564" 
d="M158 0c10 35.333 23.165 72.167 39.498 110.5s34.833 76.833 55.5 115.5s42.834 76.667 66.501 114s47.834 72.833 72.501 106.5s49.5 64.667 74.5 93s48.833 52.5 71.5 72.5h-329l19 81h435l-19 -80c-28.667 -24.667 -61.667 -59 -99 -103s-74.333 -93.5 -111 -148.5
s-71 -113.5 -103 -175.5s-57 -124 -75 -186h-98z" />
    <glyph glyph-name="eight" unicode="8" horiz-adv-x="564" 
d="M469 349c22.667 -15.333 41.832 -34.1709 57.499 -56.5039s23.5 -51.166 23.5 -86.499c0 -29.333 -5.5 -57.333 -16.5 -84s-27.5 -50.167 -49.5 -70.5s-49.667 -36.5 -83 -48.5s-72 -18 -116 -18c-33.333 0 -61.666 4.66699 -84.999 14s-42.333 21.333 -57 36
s-25.334 31.334 -32.001 50.001s-10 37.334 -10 56.001c0 48 14.167 90.667 42.5 128s67.5 68.333 117.5 93c-40.667 32 -61 73.333 -61 124c0 30 5.5 58.333 16.5 85s26.833 50.334 47.5 71.001s45.834 37 75.501 49s63.167 18 100.5 18c30.667 0 57.167 -4.33301 79.5 -13
s40.5 -20.334 54.5 -35.001s24.333 -31.167 31 -49.5s10 -37.166 10 -56.499c0 -46 -12.833 -86.167 -38.5 -120.5s-61.5 -62.833 -107.5 -85.5zM329.998 326.995c-18 -8 -35.333 -18.001 -52 -30.001s-31.334 -25.333 -44.001 -40s-22.667 -30.5 -30 -47.5
s-11 -34.5 -11 -52.5c0 -13.333 1.66699 -25.666 5 -36.999s9 -21.5 17 -30.5s18.667 -16 32 -21s30 -7.5 50 -7.5c22 0 42.833 3.33301 62.5 10s36.834 16 51.501 28s26.167 26.333 34.5 43s12.5 35 12.5 55c0 32.667 -11.333 59 -34 79s-54 37 -94 51zM395.998 380.994
c16.667 8 32.666 17.333 47.999 28s28.833 22.834 40.5 36.501s21 28.667 28 45s10.5 34.5 10.5 54.5c0 10 -1.33301 20.333 -4 31s-7.5 20.167 -14.5 28.5s-16.667 15.166 -29 20.499s-27.833 8 -46.5 8c-20 0 -38.333 -3.5 -55 -10.5s-31.167 -16.5 -43.5 -28.5
s-22 -26.5 -29 -43.5s-10.5 -35.5 -10.5 -55.5c0 -28 8.33301 -51 25 -69s43.334 -33 80.001 -45z" />
    <glyph glyph-name="nine" unicode="9" horiz-adv-x="564" 
d="M326 272c-30 0 -55.8311 4.33008 -77.498 12.9971s-39.5 20.5 -53.5 35.5s-24.333 32.5 -31 52.5s-10 41 -10 63c0 33.333 5.16699 66.333 15.5 99s26.333 61.834 48 87.501s48.834 46.334 81.501 62.001s71 23.5 115 23.5c62 0 108.667 -17.833 140 -53.5
s47 -84.5 47 -146.5c0 -71.333 -11.167 -138 -33.5 -200s-54.5 -116 -96.5 -162s-93.333 -82.167 -154 -108.5s-129.334 -39.5 -206.001 -39.5h-10.5c-3.66699 0 -8.83398 0.333008 -15.501 1l17 79c2 -0.666992 5.16699 -1 9.5 -1h8.5c46.667 0 88.5 5.83301 125.5 17.5
s69.667 27.834 98 48.501s52.5 44.667 72.5 72s36.667 57 50 89c-21.333 -10.667 -44.333 -18.667 -69 -24s-48.334 -8 -71.001 -8zM348.002 348.997c23.333 0 46.833 2.16602 70.5 6.49902s47.5 12.166 71.5 23.499c6 20 10.667 41.167 14 63.5s5 44.5 5 66.5
c0 36.667 -8 66.334 -24 89.001s-42 34 -78 34c-26 0 -49 -5.5 -69 -16.5s-36.833 -25.167 -50.5 -42.5s-24 -37.166 -31 -59.499s-10.5 -44.833 -10.5 -67.5c0 -32 8 -56.167 24 -72.5s42 -24.5 78 -24.5z" />
    <glyph glyph-name="colon" unicode=":" horiz-adv-x="246" 
d="M223 386c-18.667 0 -33.3311 4.99902 -43.998 14.999s-16 24.667 -16 44c0 24 7.16699 42.5 21.5 55.5s30.833 19.5 49.5 19.5s33.5 -5.16699 44.5 -15.5s16.5 -25.5 16.5 -45.5c0 -11.333 -2.16699 -21.5 -6.5 -30.5s-9.83301 -16.667 -16.5 -23
s-14.334 -11.166 -23.001 -14.499s-17.334 -5 -26.001 -5zM128.003 -13.001c-18.667 0 -33.3311 4.99902 -43.998 14.999s-16 24.667 -16 44c0 24 7.16699 42.5 21.5 55.5s30.833 19.5 49.5 19.5s33.5 -5.16699 44.5 -15.5s16.5 -25.5 16.5 -45.5
c0 -11.333 -2.16699 -21.5 -6.5 -30.5s-9.83301 -16.667 -16.5 -23s-14.334 -11.166 -23.001 -14.499s-17.334 -5 -26.001 -5z" />
    <glyph glyph-name="semicolon" unicode=";" horiz-adv-x="246" 
d="M198 114c-3.33301 -24 -8.99902 -48.3311 -16.999 -72.998s-17.833 -48.834 -29.5 -72.501s-24.834 -46.334 -39.501 -68.001s-30 -41.5 -46 -59.5l-63 26c13.333 18 25.5 37.667 36.5 59s20.5 43 28.5 65s14.667 43.5 20 64.5s9 40.5 11 58.5h99zM223.001 386.002
c-18.667 0 -33.3311 4.99902 -43.998 14.999s-16 24.667 -16 44c0 24 7.16699 42.5 21.5 55.5s30.833 19.5 49.5 19.5s33.5 -5.16699 44.5 -15.5s16.5 -25.5 16.5 -45.5c0 -11.333 -2.16699 -21.5 -6.5 -30.5s-9.83301 -16.667 -16.5 -23s-14.334 -11.166 -23.001 -14.499
s-17.334 -5 -26.001 -5z" />
    <glyph glyph-name="less" unicode="&#x3c;" horiz-adv-x="564" 
d="M499 74l-380 183l19 80l468 183l6 -82l-382 -146l311 -145z" />
    <glyph glyph-name="equal" unicode="=" horiz-adv-x="564" 
d="M164 443h449l-19 -79h-449zM113 230h449l-19 -79h-449z" />
    <glyph glyph-name="greater" unicode="&#x3e;" horiz-adv-x="564" 
d="M207 520l380 -183l-19 -80l-468 -183l-6 82l382 146l-311 145z" />
    <glyph glyph-name="question" unicode="?" horiz-adv-x="384" 
d="M488 567c0 -22 -4.00391 -42.3301 -12.0039 -60.9971s-18.5 -35.834 -31.5 -51.501s-27.5 -30.334 -43.5 -44.001s-32.333 -26.834 -49 -39.501c-24.667 -19.333 -47.167 -39.5 -67.5 -60.5s-34.166 -46.167 -41.499 -75.5c-1.33301 -4 -2.16602 -7.83301 -2.49902 -11.5
s-0.5 -6.16699 -0.5 -7.5h-81c0.666992 8 1.33398 15.333 2.00098 22s1.66699 13.334 3 20.001c8 34 23.667 63.167 47 87.5s50 48.166 80 71.499l39 32c12.667 10.667 23.834 21.667 33.501 33s17.334 23.5 23.001 36.5s8.5 27.167 8.5 42.5c0 7.33301 -1 15.333 -3 24
s-6.16699 16.5 -12.5 23.5s-15.166 12.833 -26.499 17.5s-26.333 7 -45 7c-32 0 -58.667 -3.66699 -80 -11s-38 -14 -50 -20l-10 72c16 9.33301 37.833 17.5 65.5 24.5s56.5 10.5 86.5 10.5c31.333 0 57.666 -3.66699 78.999 -11s38.666 -17.333 51.999 -30
s22.833 -27.667 28.5 -45s8.5 -36 8.5 -56zM175.996 -12.9971c-18.667 0 -33.3311 4.99902 -43.998 14.999s-16 24.667 -16 44c0 24 7.16699 42.5 21.5 55.5s30.833 19.5 49.5 19.5s33.5 -5.16699 44.5 -15.5s16.5 -25.5 16.5 -45.5c0 -11.333 -2.16699 -21.5 -6.5 -30.5
s-9.83301 -16.667 -16.5 -23s-14.334 -11.166 -23.001 -14.499s-17.334 -5 -26.001 -5z" />
    <glyph glyph-name="at" unicode="@" horiz-adv-x="931" 
d="M694 43c-42 0 -71.6641 11.6631 -88.9971 34.9961c-15.333 -9.33301 -33.333 -16.833 -54 -22.5s-42.667 -8.5 -66 -8.5c-50 0 -90 14.167 -120 42.5s-45 70.833 -45 127.5c0 38 6.5 74.833 19.5 110.5s31.833 67 56.5 94s54.667 48.667 90 65s75.666 24.5 120.999 24.5
c34.667 0 64.834 -3 90.501 -9s45.167 -11.667 58.5 -17l-73 -304c-3.33301 -10 -5 -19.667 -5 -29c0 -8 2.16699 -15 6.5 -21s13.166 -9 26.499 -9c28 0 52 8.16699 72 24.5s36.667 37.333 50 63s23.166 53.834 29.499 84.501s9.5 60.334 9.5 89.001
c0 36.667 -4.66699 70.334 -14 101.001s-24.5 57 -45.5 79s-48.5 39.167 -82.5 51.5s-75.667 18.5 -125 18.5c-58 0 -112 -12.5 -162 -37.5s-93.333 -58.333 -130 -100s-65.334 -90 -86.001 -145s-31 -112.5 -31 -172.5c0 -44.667 6.5 -83 19.5 -115
s31.167 -58.333 54.5 -79s51.333 -36 84 -46s68.667 -15 108 -15c38.667 0 71.167 2.5 97.5 7.5s43.166 8.83301 50.499 11.5l-7 -74c-6 -2 -14.667 -4.16699 -26 -6.5s-24.166 -4.66602 -38.499 -6.99902s-29.666 -4.16602 -45.999 -5.49902s-32.5 -2 -48.5 -2
c-48 0 -92.333 6.83301 -133 20.5s-75.834 34 -105.501 61s-52.834 60.5 -69.501 100.5s-25 86.333 -25 139c0 66.667 11.167 132.5 33.5 197.5s55.166 122.833 98.499 173.5s96.333 91.667 159 123s134.667 47 216 47c108.667 0 192.334 -27 251.001 -81
s88 -133.667 88 -239c0 -31.333 -3.5 -66.833 -10.5 -106.5s-20.167 -77.334 -39.5 -113.001s-46.166 -65.667 -80.499 -90s-78.5 -36.5 -132.5 -36.5zM498.003 121.996c36 0 66.666 6.66504 91.999 19.998c0 11.333 0.666992 20.833 2 28.5s3 15.167 5 22.5l57 235
c-3.33301 1.33301 -10.666 2.66602 -21.999 3.99902s-23.666 2 -36.999 2c-28.667 0 -54.334 -5.66699 -77.001 -17s-42 -26.666 -58 -45.999s-28.333 -41.666 -37 -66.999s-13 -51.666 -13 -78.999c0 -36 7.5 -62.167 22.5 -78.5s36.833 -24.5 65.5 -24.5z" />
    <glyph glyph-name="A" unicode="A" horiz-adv-x="636" 
d="M214 178l-98 -178h-106c74.667 134.667 147.5 258.667 218.5 372l210.5 321h95c10 -50 19.167 -100.5 27.5 -151.5s16.5 -104.5 24.5 -160.5s15.667 -115.333 23 -178l23 -203h-98c-3.33301 30 -6.33301 60.167 -9 90.5s-5.66699 59.5 -9 87.5h-302zM507 256
c-5.33301 54 -11.5 107.667 -18.5 161s-15.167 108.333 -24.5 165l-87 -131.5c-34.667 -53.667 -74 -118.5 -118 -194.5h248z" />
    <glyph glyph-name="B" unicode="B" horiz-adv-x="618" 
d="M263 -7c-13.333 0 -27.832 0.334961 -43.499 1.00195s-31.5 1.66699 -47.5 3s-31.667 3.16602 -47 5.49902s-29 5.16602 -41 8.49902l161 672c28 6.66699 59.167 11.167 93.5 13.5s65.166 3.5 92.499 3.5c34 0 65.167 -2.83301 93.5 -8.5s52.666 -14.667 72.999 -27
s36.333 -28.5 48 -48.5s17.5 -44 17.5 -72c0 -40.667 -12.167 -76.5 -36.5 -107.5s-57.833 -54.167 -100.5 -69.5c28.667 -10.667 51.834 -27 69.501 -49s26.5 -49 26.5 -81c0 -46 -9.33301 -84.667 -28 -116s-44.167 -56.5 -76.5 -75.5s-70.333 -32.5 -114 -40.5
s-90.5 -12 -140.5 -12zM254.001 324.002l-58.001 -246c7.33301 -1.33301 18.333 -2.5 33 -3.5s33.334 -1.5 56.001 -1.5c24.667 0 51 1.83301 79 5.5s53.667 11 77 22s42.833 26.5 58.5 46.5s23.5 46.667 23.5 80c0 32.667 -11.667 57 -35 73s-61 24 -113 24h-121z
M273 400.002l95 -0.00292969c22 0 44.5 1.83301 67.5 5.5s44 10.334 63 20.001s34.667 22.834 47 39.501s18.5 38 18.5 64c0 34 -12.667 57.667 -38 71s-64 20 -116 20c-17.333 0 -34.333 -0.666992 -51 -2s-28 -2.66602 -34 -3.99902z" />
    <glyph glyph-name="C" unicode="C" horiz-adv-x="600" 
d="M387 -15c-43.333 0 -81.5029 6.33496 -114.503 19.002s-60.5 30.667 -82.5 54s-38.5 51.5 -49.5 84.5s-16.5 70.167 -16.5 111.5c0 60 9.5 117.333 28.5 172s46 103 81 145s77.167 75.5 126.5 100.5s104.333 37.5 165 37.5c52 0 93.5 -5.33301 124.5 -16
s53.167 -20.667 66.5 -30l-40 -80c-15.333 10 -36.166 19.5 -62.499 28.5s-57.5 13.5 -93.5 13.5c-46 0 -87.333 -10.833 -124 -32.5s-67.667 -49.667 -93 -84s-44.666 -73 -57.999 -116s-20 -85.5 -20 -127.5c0 -130 56.333 -195 169 -195c24 0 45.5 1.66699 64.5 5
s35.833 7.16602 50.5 11.499s27.667 9.16602 39 14.499l30 14l12 -84c-8 -4.66699 -18.5 -9.66699 -31.5 -15s-28.167 -10.333 -45.5 -15s-36.666 -8.5 -57.999 -11.5s-44 -4.5 -68 -4.5z" />
    <glyph glyph-name="D" unicode="D" horiz-adv-x="691" 
d="M415 618c-50 0 -80 -1.33594 -90 -4.00293l-128 -534c5.33301 -1.33301 14.333 -2.5 27 -3.5s33.334 -1.5 62.001 -1.5c52.667 0 100.167 8.83301 142.5 26.5s78.166 42.334 107.499 74.001s52 69.334 68 113.001s24 91.5 24 143.5c0 58.667 -17 104.334 -51 137.001
s-88 49 -162 49zM423 699.997c102.667 0 179.334 -24.168 230.001 -72.501s76 -113.5 76 -195.5c0 -57.333 -9 -112.5 -27 -165.5s-46 -99.833 -84 -140.5s-86.5 -73 -145.5 -97s-129.5 -36 -211.5 -36c-28 0 -58.333 1.33301 -91 4s-61.334 7.33398 -86.001 14.001l161 673
c28 6.66699 57.667 11 89 13s61 3 89 3z" />
    <glyph glyph-name="E" unicode="E" horiz-adv-x="557" 
d="M81 0l166 693h409l-19 -81h-313l-50 -209h278l-19 -79h-277l-59 -243h336l-19 -81h-433z" />
    <glyph glyph-name="F" unicode="F" horiz-adv-x="524" 
d="M81 0l166 693h405l-19 -81h-309l-51 -212h274l-19 -79h-273l-77 -321h-97z" />
    <glyph glyph-name="G" unicode="G" horiz-adv-x="651" 
d="M380 -14c-84 0 -147.669 24.168 -191.002 72.501s-65 113.5 -65 195.5c0 60 9.5 117.333 28.5 172s46.167 103 81.5 145s77.833 75.5 127.5 100.5s105.5 37.5 167.5 37.5c30.667 0 57.167 -2 79.5 -6s41.5 -8.66699 57.5 -14s29 -10.833 39 -16.5s18 -10.5 24 -14.5
l-43 -79c-5.33301 3.33301 -12.666 7.66602 -21.999 12.999s-20.666 10.5 -33.999 15.5s-28.666 9.16699 -45.999 12.5s-37 5 -59 5c-47.333 0 -89.666 -10.833 -126.999 -32.5s-68.833 -49.667 -94.5 -84s-45.167 -73 -58.5 -116s-20 -85.5 -20 -127.5
c0 -66 14 -115.167 42 -147.5s72.333 -48.5 133 -48.5c24.667 0 47 1.66699 67 5s34.333 6.66602 43 9.99902l60 254h95l-76 -316c-8 -4.66699 -19 -9.16699 -33 -13.5s-30.333 -8.16602 -49 -11.499s-38.834 -6 -60.501 -8s-43.834 -3 -66.501 -3z" />
    <glyph glyph-name="H" unicode="H" horiz-adv-x="681" 
d="M596 0h-97l77 322h-321l-77 -322h-97l166 693h97l-70 -290h321l70 290h97z" />
    <glyph glyph-name="I" unicode="I" horiz-adv-x="263" 
d="M247 693h97l-166 -693h-97z" />
    <glyph glyph-name="J" unicode="J" horiz-adv-x="482" 
d="M455 223c-8 -32 -16.999 -62.499 -26.999 -91.499s-24.167 -54.333 -42.5 -76s-42.333 -38.834 -72 -51.501s-67.834 -19 -114.501 -19c-23.333 0 -44.5 2.16699 -63.5 6.5s-35.833 9.83301 -50.5 16.5s-27.167 13.5 -37.5 20.5s-18.166 13.5 -23.499 19.5l48 73
c10.667 -10.667 26.667 -22 48 -34s48.333 -18 81 -18c24 0 44.333 3 61 9s31 15.5 43 28.5s22.167 29.833 30.5 50.5s16.166 45.667 23.499 75l111 461h97z" />
    <glyph glyph-name="K" unicode="K" horiz-adv-x="614" 
d="M750 693l-85.498 -76.499l-99 -86.5l-103.5 -88l-99 -81c20.667 -19.333 42.5 -43.333 65.5 -72s45.667 -59.334 68 -92.001s43.666 -66 63.999 -100s38.166 -66.333 53.499 -97h-108c-17.333 30.667 -36 62 -56 94s-40.5 62.667 -61.5 92s-42.5 56.833 -64.5 82.5
s-44 47.5 -66 65.5l-80 -334h-97l166 693h97l-73 -303l95 75l100 84l91.5 80l70.5 64h122z" />
    <glyph glyph-name="L" unicode="L" horiz-adv-x="507" 
d="M504 81l-19 -81h-404l166 693h97l-147 -612h307z" />
    <glyph glyph-name="M" unicode="M" horiz-adv-x="847" 
d="M783 544l-40.001 -57.001l-52 -77l-58 -87.5l-58 -88l-52 -79l-39 -59.5h-78l-10.5 60.5l-14.5 79l-16.5 88l-17 87.5l-15.5 76.5c-4.66699 23 -8.66699 41.833 -12 56.5c-28 -86 -55.333 -174.667 -82 -266l-78 -278h-96l50.5 181.5l54 180l55 172.5l53.5 159h95
c8 -29.333 16.5 -64 25.5 -104l27 -125.5c9 -43.667 17.333 -87.167 25 -130.5s14.167 -82.666 19.5 -117.999l79.5 119l87.5 130.5l85.5 125l74.5 103.5h93c-11.333 -112.667 -26.5 -227.167 -45.5 -343.5s-39.833 -232.833 -62.5 -349.5h-97
c20 96 38.333 189.167 55 279.5s31.334 178.5 44.001 264.5z" />
    <glyph glyph-name="N" unicode="N" horiz-adv-x="698" 
d="M528 0l-42.9941 131.999c-16.667 49.333 -34.834 99.333 -54.501 150s-39.834 99.834 -60.501 147.501s-41 89.167 -61 124.5l-133 -554h-95l166 693h83c21.333 -36 43.166 -76.833 65.499 -122.5s43.666 -92.5 63.999 -140.5s39.166 -95 56.499 -141
s31.666 -87.333 42.999 -124l124 528h95l-165 -693h-85z" />
    <glyph glyph-name="O" unicode="O" horiz-adv-x="739" 
d="M525 709c36.667 0 70.499 -5.49902 101.499 -16.499s57.667 -27.5 80 -49.5s39.666 -49.5 51.999 -82.5s18.5 -71.5 18.5 -115.5c0 -55.333 -8.5 -110.333 -25.5 -165s-42.167 -103.834 -75.5 -147.501s-75 -79.167 -125 -106.5s-108.333 -41 -175 -41
c-37.333 0 -71.333 5.5 -102 16.5s-57.167 27.5 -79.5 49.5s-39.666 49.5 -51.999 82.5s-18.5 71.5 -18.5 115.5c0 54.667 8.33301 109.5 25 164.5s41.834 104.333 75.501 148s75.5 79.167 125.5 106.5s108.333 41 175 41zM385.999 69.001c44.667 0 85 10.833 121 32.5
s66.5 49.834 91.5 84.501s44.167 73.667 57.5 117s20 86.666 20 129.999c0 59.333 -12.833 106.166 -38.5 140.499s-66.5 51.5 -122.5 51.5c-45.333 0 -85.833 -10.833 -121.5 -32.5s-66 -49.834 -91 -84.501s-44.167 -73.667 -57.5 -117s-20 -86.666 -20 -129.999
c0 -59.333 12.833 -106.166 38.5 -140.499s66.5 -51.5 122.5 -51.5z" />
    <glyph glyph-name="P" unicode="P" horiz-adv-x="590" 
d="M423 700c80.667 0 141.5 -15.333 182.5 -46s61.5 -75.334 61.5 -134.001c0 -45.333 -8.5 -84.5 -25.5 -117.5s-41.167 -60.167 -72.5 -81.5s-69 -37.166 -113 -47.499s-93 -15.5 -147 -15.5h-69l-62 -258h-97l164 684c28 6.66699 57.667 11 89 13s61 3 89 3zM411 618
c-47.333 0 -75.999 -1.33203 -85.999 -3.99902l-66 -275h63c28 0 56.667 2.5 86 7.5s55.666 13.833 78.999 26.5s42.5 30.167 57.5 52.5s22.5 51.166 22.5 86.499c0 38 -14 65.167 -42 81.5s-66 24.5 -114 24.5z" />
    <glyph glyph-name="Q" unicode="Q" horiz-adv-x="739" 
d="M433 -11c-0.666992 -2 -1 -4.33496 -1 -7.00195v-6c0 -13.333 5.16699 -24.666 15.5 -33.999s24 -17.333 41 -24s36.667 -12.167 59 -16.5s45.5 -7.83301 69.5 -10.5l-34 -76c-23.333 2.66699 -49.333 6.66699 -78 12s-55.5 13.833 -80.5 25.5s-45.833 27.167 -62.5 46.5
s-25 44.333 -25 75v5c0 2 0.333008 4.66699 1 8c-64 6.66699 -115.667 32 -155 76s-59 106 -59 186c0 54.667 8.33301 109.5 25 164.5s41.834 104.333 75.501 148s75.5 79.167 125.5 106.5s108.333 41 175 41c36.667 0 70.5 -5.5 101.5 -16.5s57.667 -27.5 80 -49.5
s39.666 -49.5 51.999 -82.5s18.5 -71.5 18.5 -115.5c0 -51.333 -7.16699 -102.333 -21.5 -153s-36 -97.167 -65 -139.5s-65 -78.166 -108 -107.499s-92.833 -48 -149.5 -56zM386 68.998c44.667 0 85 10.833 121 32.5s66.5 49.834 91.5 84.501s44.167 73.667 57.5 117
s20 86.666 20 129.999c0 59.333 -12.833 106.166 -38.5 140.499s-66.5 51.5 -122.5 51.5c-45.333 0 -85.833 -10.833 -121.5 -32.5s-66 -49.834 -91 -84.501s-44.167 -73.667 -57.5 -117s-20 -86.666 -20 -129.999c0 -59.333 12.833 -106.166 38.5 -140.499
s66.5 -51.5 122.5 -51.5z" />
    <glyph glyph-name="R" unicode="R" horiz-adv-x="609" 
d="M423 700c74 0 132.668 -15 176.001 -45s65 -74 65 -132c0 -58.667 -17.167 -107.834 -51.5 -147.501s-82.5 -68.167 -144.5 -85.5c8 -14 17.333 -31.833 28 -53.5s21.667 -45.667 33 -72s22.333 -53.666 33 -81.999s20 -55.833 28 -82.5h-99l-29 77
c-10 26 -20.167 51 -30.5 75s-20.666 46.5 -30.999 67.5s-19.833 39.5 -28.5 55.5c-8.66699 -0.666992 -17.334 -1.16699 -26.001 -1.5s-17.334 -0.5 -26.001 -0.5h-77l-65 -273h-97l164 684c28 6.66699 57.667 11 89 13s61 3 89 3zM411.001 618
c-47.333 0 -76.002 -1.33301 -86.002 -4l-63 -262h59c27.333 0 55.333 2 84 6s54.834 11.833 78.501 23.5s43 28 58 49s22.5 48.833 22.5 83.5c0 37.333 -14.167 64 -42.5 80s-65.166 24 -110.499 24z" />
    <glyph glyph-name="S" unicode="S" horiz-adv-x="517" 
d="M246 69c20.667 0 41.166 2.16504 61.499 6.49805s38.5 11.5 54.5 21.5s29 23.167 39 39.5s15 36.5 15 60.5c0 16.667 -3.16699 31.167 -9.5 43.5s-15 23.333 -26 33s-24 18.667 -39 27l-49.5 26.5c-15.333 8 -30.833 16.667 -46.5 26s-29.667 20.833 -42 34.5
s-22.333 29.834 -30 48.501s-11.5 41 -11.5 67c0 30 5.83301 57.667 17.5 83s28.834 47.166 51.501 65.499s50.5 32.5 83.5 42.5s70.833 15 113.5 15c20 0 39 -1.5 57 -4.5s34.5 -6.83301 49.5 -11.5s28.167 -9.5 39.5 -14.5s19.666 -9.5 24.999 -13.5l-45 -76
c-11.333 9.33301 -29.5 17.833 -54.5 25.5s-54.5 11.5 -88.5 11.5c-21.333 0 -41.166 -2.16699 -59.499 -6.5s-34.166 -11.166 -47.499 -20.499s-24 -21.166 -32 -35.499s-12 -31.5 -12 -51.5c0 -17.333 2.66699 -31.833 8 -43.5s12.666 -22 21.999 -31
s20.833 -17.167 34.5 -24.5l44.5 -23c20 -10 38.833 -20.167 56.5 -30.5s33.167 -22.5 46.5 -36.5s23.833 -30.333 31.5 -49s11.5 -41.334 11.5 -68.001c0 -36.667 -7.16699 -68.834 -21.5 -96.501s-34 -50.667 -59 -69s-54.667 -32.166 -89 -41.499s-71.5 -14 -111.5 -14
c-26.667 0 -50.834 1.83301 -72.501 5.5s-40.667 8.16699 -57 13.5s-30.166 10.833 -41.499 16.5s-20 10.834 -26 15.501l45 79c12.667 -8.66699 32.667 -18.5 60 -29.5s62 -16.5 104 -16.5z" />
    <glyph glyph-name="T" unicode="T" horiz-adv-x="555" 
d="M699 693l-19 -81h-209l-147 -612h-97l147 612h-209l19 81h515z" />
    <glyph glyph-name="U" unicode="U" horiz-adv-x="666" 
d="M334 -15c-34.667 0 -64.668 5.16406 -90.001 15.4971s-46.333 24.333 -63 42s-29 38.667 -37 63s-12 50.5 -12 78.5c0 14.667 1.33301 31 4 49s5.66699 34.667 9 50l98 410h97l-100 -416c-3.33301 -12.667 -6 -26.667 -8 -42s-3 -29.666 -3 -42.999
c0 -17.333 2 -33.333 6 -48s10.833 -27.5 20.5 -38.5s22.167 -19.667 37.5 -26s34 -9.5 56 -9.5c56.667 0 100.667 15.833 132 47.5s55 82.167 71 151.5l102 424h97l-104 -435c-9.33301 -38 -20.166 -73.667 -32.499 -107s-29.833 -62.166 -52.5 -86.499
s-52.167 -43.666 -88.5 -57.999s-82.833 -21.5 -139.5 -21.5z" />
    <glyph glyph-name="V" unicode="V" horiz-adv-x="623" 
d="M331 115c28 40 56.499 83 85.499 129l87 143.5l85 151.5l79.5 154h107l-107.5 -197.5l-104 -179l-103 -164c-34.333 -52.333 -69.5 -103.166 -105.5 -152.499h-95c-10 50 -19.333 100.5 -28 151.5s-16.667 104.5 -24 160.5s-14.5 115.167 -21.5 177.5
s-13.833 130.166 -20.5 203.499h100c10.667 -118.667 20.834 -225 30.501 -319s21.167 -180.333 34.5 -259z" />
    <glyph glyph-name="W" unicode="W" horiz-adv-x="916" 
d="M637 609c5.33301 -89.333 12.835 -176 22.502 -260s19.167 -159 28.5 -225c20 37.333 40.833 78.333 62.5 123l65 140.5l65 151l62.5 154.5h103c-53.333 -132 -106.5 -255 -159.5 -369s-108.833 -222 -167.5 -324h-98c-11.333 70.667 -22.333 143.5 -33 218.5
s-19.334 156.833 -26.001 245.5l-133.5 -236.5c-43.667 -75 -90.167 -150.833 -139.5 -227.5h-98c-5.33301 54 -9 108 -11 162s-3 110 -3 168s1 116.5 3 175.5s5 121.5 9 187.5h96c-4.66699 -70 -8.33398 -139.167 -11.001 -207.5s-4 -137.833 -4 -208.5
c0 -51.333 1 -102.333 3 -153c46 70.667 91.833 147 137.5 229l137.5 256h89z" />
    <glyph glyph-name="X" unicode="X" horiz-adv-x="605" 
d="M484 0c-15.333 46.667 -32.167 94.166 -50.5 142.499s-38.833 97.5 -61.5 147.5l-245 -290h-114l319 370l-141 323h107l105 -255l106 127c34.667 42.667 67 85.334 97 128.001h111c-40 -54.667 -84 -110.167 -132 -166.5l-142 -162.5l75.5 -183
c25 -62 47.167 -122.333 66.5 -181h-101z" />
    <glyph glyph-name="Y" unicode="Y" horiz-adv-x="572" 
d="M232 0l65.999 278c-26 70 -50.167 140.167 -72.5 210.5s-42.833 138.5 -61.5 204.5h105c12.667 -54 26.834 -109 42.501 -165s33.167 -110 52.5 -162l133.5 162c45 56.667 84.833 111.667 119.5 165h111l-157 -204.5l-176 -210.5l-66 -278h-97z" />
    <glyph glyph-name="Z" unicode="Z" horiz-adv-x="561" 
d="M666 616l-65.999 -62l-82 -81.5l-90.5 -94l-92.5 -101l-88 -101.5c-28 -33.333 -53.333 -65 -76 -95h374l-19 -81h-491l15 65c19.333 26 41.666 54.5 66.999 85.5l81 97l89 101.5l91 99l87 90l77 74h-343l19 81h466z" />
    <glyph glyph-name="bracketleft" unicode="[" horiz-adv-x="322" 
d="M281 783h221l-17 -73h-134l-198 -822h134l-18 -73h-221z" />
    <glyph glyph-name="backslash" unicode="\" 
d="M165 783h85l106 -968h-87z" />
    <glyph glyph-name="bracketright" unicode="]" horiz-adv-x="322" 
d="M180 -185h-221l17 73h134l198 822h-134l18 73h221z" />
    <glyph glyph-name="asciicircum" unicode="^" horiz-adv-x="564" 
d="M421 600l-223 -279l-68 41l268 334h79l109 -343l-76 -33z" />
    <glyph glyph-name="underscore" unicode="_" horiz-adv-x="496" 
d="M-27 -106h500l-19 -79h-500z" />
    <glyph glyph-name="grave" unicode="`" 
d="M298 779l127 -160l-49 -43l-146 146z" />
    <glyph glyph-name="a" unicode="a" horiz-adv-x="544" 
d="M432 -6c-3.33301 7.33301 -6.66895 15.4971 -10.002 24.4971s-6 18.5 -8 28.5c-14.667 -13.333 -34.334 -26.666 -59.001 -39.999s-55 -20 -91 -20c-29.333 0 -54.5 4.66699 -75.5 14s-38.167 22.333 -51.5 39s-23.166 36.334 -29.499 59.001s-9.5 47.667 -9.5 75
c0 44.667 7.5 88.334 22.5 131.001s37.5 80.667 67.5 114s67.667 60.333 113 81s98.333 31 159 31c18 0 39 -2 63 -6s44.667 -10.667 62 -20l-77 -314c-3.33301 -15.333 -6.16602 -30 -8.49902 -44s-3.5 -28.667 -3.5 -44s1.33301 -30.833 4 -46.5
s7.33398 -32.5 14.001 -50.5zM282.997 65.9971c28 0 51.999 5.99902 71.999 17.999s37.333 26 52 42c0.666992 11.333 1.83398 23.166 3.50098 35.499s3.83398 24.833 6.50098 37.5l60 248c-3.33301 1.33301 -8.83301 2.33301 -16.5 3s-14.5 1 -20.5 1
c-38 0 -72.333 -7.33301 -103 -22s-56.834 -34.167 -78.501 -58.5s-38.334 -52.666 -50.001 -84.999s-17.5 -66.166 -17.5 -101.499c0 -14 1.33301 -28.167 4 -42.5s7.5 -27 14.5 -38s16.333 -20 28 -27s26.834 -10.5 45.501 -10.5z" />
    <glyph glyph-name="b" unicode="b" horiz-adv-x="555" 
d="M289 499c15.333 9.33301 33 17.332 53 23.999s41.333 10 64 10c28.667 0 53.834 -4.66699 75.501 -14s39.5 -22.166 53.5 -38.499s24.5 -35.833 31.5 -58.5s10.5 -47 10.5 -73c0 -46 -7.33301 -90.5 -22 -133.5s-37 -81.333 -67 -115s-67.5 -60.667 -112.5 -81
s-97.833 -30.5 -158.5 -30.5c-10 0 -21 0.5 -33 1.5s-24.167 2.83301 -36.5 5.5s-24.333 6 -36 10s-21.834 8.66699 -30.501 14l177 740l97 16zM383 453.999c-20 0 -39.835 -3.5 -59.502 -10.5s-38.167 -16.833 -55.5 -29.5l-81 -339
c6.66699 -1.33301 14.334 -2.66602 23.001 -3.99902s17.334 -2 26.001 -2c38 0 72.333 7.5 103 22.5s56.667 35 78 60s37.833 53.667 49.5 86s17.5 66.166 17.5 101.499c0 14.667 -1.5 29 -4.5 43s-8.33301 26.333 -16 37s-18 19.167 -31 25.5s-29.5 9.5 -49.5 9.5z" />
    <glyph glyph-name="c" unicode="c" horiz-adv-x="451" 
d="M100 186c0 45.333 6.83496 89.001 20.502 131.001s33.834 79 60.501 111s59.334 57.5 98.001 76.5s83 28.5 133 28.5c22 0 43 -1.5 63 -4.5s39 -8.83301 57 -17.5l-35 -78c-10.667 6 -23.167 10.667 -37.5 14s-32.833 5 -55.5 5c-32.667 0 -62 -7.16699 -88 -21.5
s-48.167 -33.333 -66.5 -57s-32.333 -51 -42 -82s-14.5 -63.167 -14.5 -96.5c0 -17.333 1.83301 -33.666 5.5 -48.999s10.167 -28.833 19.5 -40.5s21.833 -20.834 37.5 -27.501s35.5 -10 59.5 -10c12 0 24.667 1.16699 38 3.5s25.666 5.16602 36.999 8.49902
s21.5 6.83301 30.5 10.5s15.5 7.16699 19.5 10.5l8 -79c-12.667 -8 -32.334 -15.833 -59.001 -23.5s-57 -11.5 -91 -11.5c-32 0 -60.333 4.83301 -85 14.5s-45.334 23.334 -62.001 41.001s-29.334 38.667 -38.001 63s-13 51.166 -13 80.499z" />
    <glyph glyph-name="d" unicode="d" horiz-adv-x="547" 
d="M499 103c0 -15.333 1.33203 -30.835 3.99902 -46.502s7.33398 -32.5 14.001 -50.5l-82 -12c-7.33301 14.667 -13 32.334 -17 53.001c-14.667 -13.333 -34.334 -26.666 -59.001 -39.999s-55 -20 -91 -20c-29.333 0 -54.666 4.5 -75.999 13.5s-39 21.833 -53 38.5
s-24.333 36.5 -31 59.5s-10 48.167 -10 75.5c0 44.667 7.5 88.334 22.5 131.001s37.333 80.667 67 114s66.834 60.166 111.501 80.499s96.667 30.5 156 30.5c7.33301 0 14.666 -0.333008 21.999 -1s15 -1.66699 23 -3l56 234l97 16l-141 -585
c-3.33301 -15.333 -6.33301 -30 -9 -44s-4 -28.667 -4 -44zM286.999 65.998c28 0 51.835 5.83398 71.502 17.501s36.834 25.167 51.501 40.5c0.666992 10.667 1.83398 22.167 3.50098 34.5s4.16699 25.833 7.5 40.5l60 250c-6 1.33301 -12.667 2.16602 -20 2.49902
s-14.333 0.5 -21 0.5c-38 0 -72.333 -7.33301 -103 -22s-56.834 -34.334 -78.501 -59.001s-38.334 -53.167 -50.001 -85.5s-17.5 -66.166 -17.5 -101.499c0 -15.333 1.66699 -30 5 -44s8.66602 -26.5 15.999 -37.5s17.166 -19.833 29.499 -26.5s27.5 -10 45.5 -10z" />
    <glyph glyph-name="e" unicode="e" horiz-adv-x="518" 
d="M204 273c38.667 1.33301 73.999 3.83105 105.999 7.49805s59.667 10 83 19s41.5 21.167 54.5 36.5s19.5 35.333 19.5 60c0 6 -1.16699 12.333 -3.5 19s-6.33301 12.834 -12 18.501s-13.5 10.334 -23.5 14.001s-22.333 5.5 -37 5.5c-23.333 0 -45.166 -5 -65.499 -15
s-38.5 -23.167 -54.5 -39.5s-29.667 -35.333 -41 -57s-20 -44.5 -26 -68.5zM298.999 -13.002c-34 0 -63.332 4.83398 -87.999 14.501s-45.334 23 -62.001 40s-29 36.833 -37 59.5s-12 46.667 -12 72c0 46.667 7 91.667 21 135s34 81.666 60 114.999s57.667 59.833 95 79.5
s79.666 29.5 126.999 29.5c27.333 0 50.833 -3.5 70.5 -10.5s35.667 -16.5 48 -28.5s21.5 -25.833 27.5 -41.5s9 -31.834 9 -48.501c0 -31.333 -5.66699 -57.833 -17 -79.5s-26.333 -39.834 -45 -54.501s-40.5 -26 -65.5 -34s-51 -14.333 -78 -19
s-54.333 -7.83398 -82 -9.50098s-53.834 -3.16699 -78.501 -4.5c-0.666992 -5.33301 -1 -9.66602 -1 -12.999v-8c0 -15.333 1.83301 -29.833 5.5 -43.5s10.5 -25.667 20.5 -36s23.833 -18.5 41.5 -24.5s40.834 -9 69.501 -9c12.667 0 25.834 1.16699 39.501 3.5
s26.667 5.33301 39 9s23.333 7.33398 33 11.001s16.5 7.16699 20.5 10.5l8 -79c-13.333 -7.33301 -34.833 -15.166 -64.5 -23.499s-64.5 -12.5 -104.5 -12.5z" />
    <glyph glyph-name="f" unicode="f" horiz-adv-x="368" 
d="M294 520l173.999 -0.000976562l-18 -78h-174l-80 -330l-21 -91c-6 -26.667 -13.167 -51.667 -21.5 -75s-19.333 -45.833 -33 -67.5s-32.167 -44.167 -55.5 -67.5l-82 12c20 26 35.667 48 47 66s20.833 36.333 28.5 55s14.334 40.167 20.001 64.5l22.5 94.5l111 464
c8 33.333 18.167 63 30.5 89s28 47.833 47 65.5s41.5 31.167 67.5 40.5s57 14 93 14c23.333 0 45.5 -2.33301 66.5 -7s36.833 -9.66699 47.5 -15l-37 -74c-5.33301 2.66699 -14.5 6 -27.5 10s-32.167 6 -57.5 6c-22 0 -40.667 -3.16699 -56 -9.5
s-28.333 -15.166 -39 -26.499s-19.167 -25 -25.5 -41s-11.833 -34 -16.5 -54z" />
    <glyph glyph-name="g" unicode="g" horiz-adv-x="550" 
d="M202 -108c27.333 0 51.335 3.33008 72.002 9.99707s38.5 16.334 53.5 29.001s27.167 27.667 36.5 45s16.666 37 21.999 59l4 19c-13.333 -7.33301 -31.333 -14.666 -54 -21.999s-46 -11 -70 -11c-54 0 -95.5 13.5 -124.5 40.5s-43.5 64.833 -43.5 113.5
c0 44.667 7.33301 88.334 22 131.001s37 80.667 67 114s67.333 60.166 112 80.499s97 30.5 157 30.5c9.33301 0 19.833 -0.666992 31.5 -2s23.667 -3.16602 36 -5.49902s24.333 -5.5 36 -9.5s21.834 -8.66699 30.501 -14l-109 -455
c-8.66699 -36 -19.334 -68.333 -32.001 -97s-30 -53 -52 -73s-50.333 -35.5 -85 -46.5s-78 -16.5 -130 -16.5c-28.667 0 -57 3.83301 -85 11.5s-51.667 17.167 -71 28.5l35 78c15.333 -11.333 35.666 -20.5 60.999 -27.5s52 -10.5 80 -10.5zM286.002 98.9971
c26.667 0 51.168 4.83301 73.501 14.5s39.5 18.834 51.5 27.501l73 304c-6.66699 1.33301 -14.334 2.66602 -23.001 3.99902s-17 2 -25 2c-36 0 -69 -6.83301 -99 -20.5s-55.833 -32 -77.5 -55s-38.5 -49.667 -50.5 -80s-18 -61.833 -18 -94.5c0 -36 7.83301 -62 23.5 -78
s39.5 -24 71.5 -24z" />
    <glyph glyph-name="h" unicode="h" horiz-adv-x="552" 
d="M76 0l183.001 759.998l97 16l-64 -263c15.333 5.33301 31.5 9.66602 48.5 12.999s34.167 5 51.5 5c30 0 55.833 -4.16699 77.5 -12.5s39.167 -19.666 52.5 -33.999s23.166 -31.666 29.499 -51.999s9.5 -42.5 9.5 -66.5c0 -29.333 -4.66699 -62.666 -14 -99.999l-64 -266
h-93l59 246c4.66699 18.667 9.16699 37.667 13.5 57s6.5 37.666 6.5 54.999c0 26.667 -7.33301 48.834 -22 66.501s-42 26.5 -82 26.5c-16 0 -32.5 -1.5 -49.5 -4.5s-31.167 -7.16699 -42.5 -12.5l-104 -434h-93z" />
    <glyph glyph-name="i" unicode="i" horiz-adv-x="249" 
d="M169 0h-93l125 520h93zM277 614c-15.333 0 -28.167 4.66797 -38.5 14.001s-15.5 22.333 -15.5 39c0 21.333 6.66699 38.166 20 50.499s28.333 18.5 45 18.5c15.333 0 28.333 -4.83301 39 -14.5s16 -23.167 16 -40.5c0 -20 -7 -36.167 -21 -48.5s-29 -18.5 -45 -18.5z" />
    <glyph glyph-name="j" unicode="j" horiz-adv-x="249" 
d="M174 20c-9.33301 -37.333 -19.498 -69.1641 -30.498 -95.4971s-24.667 -47.833 -41 -64.5s-35.833 -28.834 -58.5 -36.501s-50.334 -11.5 -83.001 -11.5c-11.333 0 -24.166 1.66699 -38.499 5s-25.5 7.66602 -33.5 12.999l21 77
c7.33301 -4.66699 16.666 -8.33398 27.999 -11.001s23.666 -4 36.999 -4c30 0 52.833 11.667 68.5 35s28.167 54 37.5 92l120 501h93zM278.002 614.002c-15.333 0 -28.167 4.66797 -38.5 14.001s-15.5 22.333 -15.5 39c0 21.333 6.66699 38.166 20 50.499
s28.333 18.5 45 18.5c15.333 0 28.333 -4.83301 39 -14.5s16 -23.167 16 -40.5c0 -20 -7 -36.167 -21 -48.5s-29 -18.5 -45 -18.5z" />
    <glyph glyph-name="k" unicode="k" horiz-adv-x="517" 
d="M76 0l182.998 759.999l97 16l-112 -463c22 16 44.667 33.5 68 52.5l66.5 56.5l58 53.5c17.667 17 32.167 31.833 43.5 44.5h110c-14 -17.333 -31.833 -36.666 -53.5 -57.999l-68.5 -64.5l-72.5 -62.5c-24.333 -20 -46.166 -37 -65.499 -51
c18 -16.667 36.167 -36.5 54.5 -59.5s36 -47.333 53 -73s32.5 -51.667 46.5 -78s25.667 -50.833 35 -73.5h-101c-23.333 54 -51.166 103.667 -83.499 149s-66.5 82.333 -102.5 111l-63 -260h-93z" />
    <glyph glyph-name="l" unicode="l" horiz-adv-x="276" 
d="M215 229l-10.001 -43.0029c-3.33301 -14 -5 -27.333 -5 -40c0 -22.667 5.5 -40.667 16.5 -54s31.5 -21.666 61.5 -24.999l-21 -76c-27.333 0.666992 -50.5 4.83398 -69.5 12.501s-34.333 17.834 -46 30.501s-20.167 27.667 -25.5 45s-8 36.333 -8 57
c0 15.333 1.33301 31.333 4 48s6.33398 34 11.001 52l126 524l97 16z" />
    <glyph glyph-name="m" unicode="m" horiz-adv-x="828" 
d="M678 531c29.333 0 54.1709 -4.50195 74.5039 -13.502s36.666 -21.167 48.999 -36.5s21.166 -33.166 26.499 -53.499s8 -41.833 8 -64.5c0 -14.667 -1.16699 -30.5 -3.5 -47.5s-5.5 -33.5 -9.5 -49.5l-64 -266h-93l59 246l11.5 51.5c4.33301 19 6.5 37.833 6.5 56.5
c0 12.667 -1.5 25 -4.5 37s-8 22.333 -15 31s-16.833 15.667 -29.5 21s-28.334 8 -47.001 8c-21.333 0 -42 -4.16699 -62 -12.5s-36.667 -16.833 -50 -25.5c1.33301 -9.33301 2.5 -18.5 3.5 -27.5s1.5 -17.833 1.5 -26.5c0 -15.333 -1.16699 -30.833 -3.5 -46.5
s-5.16602 -31.167 -8.49902 -46.5l-64 -266h-93l59 246l11 52c4 19.333 6 38.666 6 57.999c0 12.667 -1.33301 24.834 -4 36.501s-7.16699 21.834 -13.5 30.501s-14.833 15.5 -25.5 20.5s-24.334 7.5 -41.001 7.5s-32.834 -1 -48.501 -3s-28.834 -4.66699 -39.501 -8
l-106 -440h-93l120 500c30 9.33301 62.833 16.833 98.5 22.5s67.5 8.5 95.5 8.5s51.667 -4.83301 71 -14.5s34.666 -22.5 45.999 -38.5c6.66699 4.66699 15.834 10 27.501 16s25 11.667 40 17s31.333 10 49 14s35.834 6 54.501 6z" />
    <glyph glyph-name="n" unicode="n" horiz-adv-x="551" 
d="M169 0l-93 -0.00195312l120 500c30.667 9.33301 63.834 16.833 99.501 22.5s67.5 8.5 95.5 8.5c30 0 55.833 -4.16699 77.5 -12.5s39.167 -19.666 52.5 -33.999s23.166 -31.666 29.499 -51.999s9.5 -42.5 9.5 -66.5c0 -15.333 -1.33301 -31.5 -4 -48.5
s-6 -34.167 -10 -51.5l-64 -266h-93l59 246c4.66699 18.667 9.16699 37.667 13.5 57s6.5 37.666 6.5 54.999c0 26.667 -7.33301 48.834 -22 66.501s-42 26.5 -82 26.5c-16.667 0 -33 -1 -49 -3s-29.333 -4.66699 -40 -8z" />
    <glyph glyph-name="o" unicode="o" horiz-adv-x="555" 
d="M275 -13c-54.667 0 -97.5 16.167 -128.5 48.5s-46.5 76.833 -46.5 133.5c0 38.667 5.5 79.334 16.5 122.001s28.5 82 52.5 118s55 65.667 93 89s84 35 138 35c54.667 0 97.5 -16.167 128.5 -48.5s46.5 -76.833 46.5 -133.5c0 -38.667 -5.5 -79.334 -16.5 -122.001
s-28.5 -82 -52.5 -118s-55 -65.667 -93 -89s-84 -35 -138 -35zM291 66c30 0 56.833 8.66699 80.5 26s43.667 39.5 60 66.5s28.833 56.833 37.5 89.5s13 64.334 13 95.001c0 34 -7.33301 61 -22 81s-40 30 -76 30c-30 0 -56.833 -8.66699 -80.5 -26s-43.667 -39.5 -60 -66.5
s-28.833 -56.833 -37.5 -89.5s-13 -64.334 -13 -95.001c0 -34 7.33301 -61 22 -81s40 -30 76 -30z" />
    <glyph glyph-name="p" unicode="p" horiz-adv-x="546" 
d="M379 533c32.667 0 60.834 -4.66895 84.501 -14.002s43.167 -22.166 58.5 -38.499s26.833 -35.666 34.5 -57.999s11.5 -46.833 11.5 -73.5c0 -46 -7 -90.5 -21 -133.5s-35.5 -81.167 -64.5 -114.5s-65.667 -60 -110 -80s-96.833 -30 -157.5 -30
c-7.33301 0 -15.333 0.333008 -24 1s-16.334 1.66699 -23.001 3l-43 -180h-93l164 683c28 11.333 58.5 20 91.5 26s63.5 9 91.5 9zM187 72.998c6.66699 -1.33301 13.833 -2.16602 21.5 -2.49902s15.167 -0.5 22.5 -0.5c38 0 72 7.33301 102 22s55.5 34.5 76.5 59.5
s37.167 53.667 48.5 86s17 66.166 17 101.499c0 14.667 -1.66699 29 -5 43s-9.5 26.333 -18.5 37s-21.167 19.167 -36.5 25.5s-35 9.5 -59 9.5c-16.667 0 -32 -1.5 -46 -4.5s-25.667 -5.83301 -35 -8.5z" />
    <glyph glyph-name="q" unicode="q" horiz-adv-x="551" 
d="M333 -185l47.9971 200.999c-15.333 -8 -32.666 -14.833 -51.999 -20.5s-39.666 -8.5 -60.999 -8.5c-29.333 0 -54.666 4.5 -75.999 13.5s-39 21.833 -53 38.5s-24.333 36.5 -31 59.5s-10 48.167 -10 75.5c0 44.667 7.5 88.334 22.5 131.001s37.5 80.667 67.5 114
s67.667 60.333 113 81s98.333 31 159 31c18.667 0 40.167 -2.16699 64.5 -6.5s46.5 -11.833 66.5 -22.5l-165 -687h-93zM290.997 65.999c19.333 0 38.6689 3.16504 58.002 9.49805s37 15.5 53 27.5l83 343c-18.667 3.33301 -33.667 5 -45 5c-38 0 -72.333 -7.33301 -103 -22
s-56.834 -34.167 -78.501 -58.5s-38.334 -52.666 -50.001 -84.999s-17.5 -66.166 -17.5 -101.499c0 -15.333 1.5 -30 4.5 -44s8.16699 -26.5 15.5 -37.5s17.5 -19.833 30.5 -26.5s29.5 -10 49.5 -10z" />
    <glyph glyph-name="r" unicode="r" horiz-adv-x="372" 
d="M374 531c8 0 16.9971 -0.331055 26.9971 -0.998047s19.833 -1.83398 29.5 -3.50098s18.5 -3.33398 26.5 -5.00098s14 -3.5 18 -5.5l-27 -81c-13.333 5.33301 -28.666 9.33301 -45.999 12s-34 4 -50 4c-14 0 -27.833 -1 -41.5 -3s-25.5 -4.66699 -35.5 -8l-106 -440h-93
l120 500c26.667 9.33301 55.334 16.833 86.001 22.5s61.334 8.5 92.001 8.5z" />
    <glyph glyph-name="s" unicode="s" horiz-adv-x="412" 
d="M206 65c14 0 28.167 1.33203 42.5 3.99902s27 7 38 13s20 14.167 27 24.5s10.5 23.166 10.5 38.499c0 10 -1.66699 18.833 -5 26.5s-8.66602 14.834 -15.999 21.501s-16.5 13.167 -27.5 19.5s-24.167 13.5 -39.5 21.5c-15.333 7.33301 -29.333 14.666 -42 21.999
s-23.834 16 -33.501 26s-17.167 21.833 -22.5 35.5s-8 30.167 -8 49.5c0 50 18 90.167 54 120.5s88.333 45.5 157 45.5c32 0 60.167 -3.16699 84.5 -9.5s41.166 -12.166 50.499 -17.499l-35 -76c-9.33301 5.33301 -24.333 11 -45 17s-43.667 9 -69 9
c-12.667 0 -25.334 -1.33301 -38.001 -4s-24.167 -7.16699 -34.5 -13.5s-18.666 -14.666 -24.999 -24.999s-9.5 -22.833 -9.5 -37.5c0 -18 7 -32.833 21 -44.5s35 -23.834 63 -36.501c17.333 -8 32.833 -16.167 46.5 -24.5s25.334 -17.666 35.001 -27.999s17 -22.5 22 -36.5
s7.5 -30.667 7.5 -50c0 -28 -5.33301 -52.667 -16 -74s-25.5 -39 -44.5 -53s-41.5 -24.5 -67.5 -31.5s-54.333 -10.5 -85 -10.5c-22.667 0 -43.167 1.5 -61.5 4.5s-34.333 6.5 -48 10.5s-25 8.16699 -34 12.5s-15.833 7.83301 -20.5 10.5l36 76
c4.66699 -2.66699 11.167 -6 19.5 -10s18.333 -8 30 -12s24.5 -7.33301 38.5 -10s28.667 -4 44 -4z" />
    <glyph glyph-name="t" unicode="t" horiz-adv-x="389" 
d="M254 -14c-50 0 -86.667 11 -110 33s-35 54 -35 96c0 27.333 4.66699 62.333 14 105l107 445l97 16l-39 -161h177l-19 -78h-177l-55 -230c-8 -31.333 -12 -58.666 -12 -81.999c0 -22 6 -37.833 18 -47.5s32 -14.5 60 -14.5c19.333 0 38.333 3.16699 57 9.5
s33 12.166 43 17.499l7 -79c-10 -6 -27 -12.5 -51 -19.5s-51.333 -10.5 -82 -10.5z" />
    <glyph glyph-name="u" unicode="u" horiz-adv-x="550" 
d="M266 -13c-29.333 0 -53.8369 4.33203 -73.5039 12.999s-35.667 20.334 -48 35.001s-21.166 32 -26.499 52s-8 41.333 -8 64c0 17.333 1.5 34.5 4.5 51.5s6.5 34.167 10.5 51.5l64 266h93l-59 -246c-3.33301 -15.333 -7.66602 -33.333 -12.999 -54s-8 -41.334 -8 -62.001
c0 -12 1.16699 -23.5 3.5 -34.5s6.66602 -20.667 12.999 -29s14.833 -15 25.5 -20s24 -7.5 40 -7.5c28.667 0 53.834 6.16699 75.501 18.5s39.834 26.833 54.501 43.5c0.666992 10.667 1.66699 21.667 3 33s3.66602 23.666 6.99902 36.999l77 321h93l-79 -329
c-3.33301 -15.333 -6.16602 -30.166 -8.49902 -44.499s-3.5 -29.166 -3.5 -44.499s1.33301 -30.666 4 -45.999s7.33398 -32 14.001 -50l-82 -12c-3.33301 7.33301 -6.66602 15.666 -9.99902 24.999s-6 19.333 -8 30c-7.33301 -6.66699 -16 -13.667 -26 -21
s-21.5 -14 -34.5 -20s-27.333 -11 -43 -15s-32.834 -6 -51.501 -6z" />
    <glyph glyph-name="v" unicode="v" horiz-adv-x="481" 
d="M193 0c-8 34 -15.665 71.335 -22.998 112.002s-14 83.167 -20 127.5s-11 90.166 -15 137.499s-6.66699 95 -8 143h94c0.666992 -32.667 2.16699 -67.5 4.5 -104.5s5.16602 -74 8.49902 -111s7.33301 -72.667 12 -107s9.66699 -65.5 15 -93.5
c20 25.333 40.833 55.166 62.5 89.499s42.5 70.333 62.5 108s38.333 75.5 55 113.5s30 73 40 105h94c-14.667 -44 -33.334 -89.667 -56.001 -137s-47.167 -93.833 -73.5 -139.5s-54 -89.5 -83 -131.5s-57.167 -79.333 -84.5 -112h-85z" />
    <glyph glyph-name="w" unicode="w" horiz-adv-x="787" 
d="M573 108c16.667 20.667 35.3359 47.835 56.0029 81.502s41 69.667 61 108s38.667 77 56 116s30.666 74.5 39.999 106.5h95c-14.667 -46 -33.334 -93.333 -56.001 -142s-47.167 -95.834 -73.5 -141.501s-53.666 -88.834 -81.999 -129.501s-55.5 -76.334 -81.5 -107.001
h-83c-7.33301 58 -13.833 116.333 -19.5 175s-9.16699 118.334 -10.5 179.001c-13.333 -30 -28.333 -61 -45 -93s-34.334 -63.5 -53.001 -94.5l-56 -89.5c-18.667 -28.667 -36.667 -54.334 -54 -77.001h-83c-14 68.667 -25.333 146.834 -34 234.501
s-13.667 182.834 -15 285.501h93c0.666992 -31.333 1.66699 -65.333 3 -102s3 -73.5 5 -110.5s4.33301 -72.833 7 -107.5s6 -65.334 10 -92.001c20.667 28.667 41.167 60.334 61.5 95.001s39.666 70 57.999 106s35.333 72 51 108s29.167 70.333 40.5 103h84
c0 -30 0.5 -62.167 1.5 -96.5s2.66699 -69.5 5 -105.5s5 -71.833 8 -107.5s6.5 -69.834 10.5 -102.501z" />
    <glyph glyph-name="x" unicode="x" horiz-adv-x="473" 
d="M316 333l77.501 98c23.667 31.333 44.167 61 61.5 89h101c-28.667 -42 -60.167 -84.5 -94.5 -127.5l-105.5 -127.5l64 -130.5c21.333 -45 39.666 -89.833 54.999 -134.5h-97c-10 30 -22.833 62.333 -38.5 97l-46.5 100l-173 -197h-108l240 268l-129 252h103z" />
    <glyph glyph-name="y" unicode="y" horiz-adv-x="478" 
d="M281 84c25.333 40 48.3262 81.501 68.9932 124.501s38.834 84.167 54.501 123.5s28.834 75.5 39.501 108.5s18.334 59.5 23.001 79.5h97c-7.33301 -25.333 -17.666 -56.833 -30.999 -94.5s-29.5 -78.334 -48.5 -122.001s-40.333 -88.334 -64 -134.001
s-49.5 -89.5 -77.5 -131.5c-21.333 -31.333 -42.666 -60.833 -63.999 -88.5s-44.166 -51.667 -68.499 -72s-51.166 -36.333 -80.499 -48s-62.333 -17.5 -99 -17.5c-18.667 0 -36 2.33301 -52 7s-27.667 9.66699 -35 15l32 76c6.66699 -5.33301 15.667 -9.83301 27 -13.5
s24 -5.5 38 -5.5c38.667 0 71.5 9.33301 98.5 28s52.5 43.334 76.5 74.001c-24.667 80.667 -44.834 165.667 -60.501 255s-25.167 180 -28.5 272h95c0.666992 -30 2.33398 -62.833 5.00098 -98.5s6.5 -72.667 11.5 -111s11 -76.833 18 -115.5s15.167 -75.667 24.5 -111z" />
    <glyph glyph-name="z" unicode="z" horiz-adv-x="454" 
d="M524 453l-78.5 -73.5l-103.5 -102l-103.5 -108c-33 -35.667 -59.167 -66.167 -78.5 -91.5h279l-18 -78h-388l14 60c20 29.333 45.333 61.833 76 97.5l95.5 106.5l97.5 100c32 31.333 60 57.333 84 78h-249l18 78h371z" />
    <glyph glyph-name="braceleft" unicode="{" horiz-adv-x="326" 
d="M120 335c14.667 0 28.3301 2.82617 40.9971 8.49316s23.834 13 33.501 22s17.667 19.333 24 31s10.833 23.5 13.5 35.5l43 180c7.33301 30.667 16.5 56.834 27.5 78.501s25.333 39.334 43 53.001s39.334 23.667 65.001 30s56.5 9.5 92.5 9.5h4l-18 -73
c-18 0 -34 -1.16699 -48 -3.5s-26.167 -7.16602 -36.5 -14.499s-19.166 -17.5 -26.499 -30.5s-13.333 -29.833 -18 -50.5l-37 -154c-10.667 -44 -23.5 -78.333 -38.5 -103s-36.5 -43 -64.5 -55c14 -11.333 23.833 -24.833 29.5 -40.5s8.5 -32.167 8.5 -49.5
c0 -11.333 -1 -22.666 -3 -33.999s-4.33301 -22.666 -7 -33.999l-37 -154c-2 -9.33301 -3.66699 -17.666 -5 -24.999s-2 -14 -2 -20c0 -21.333 7 -35.333 21 -42s36 -10.667 66 -12l-19 -73h-4c-48 0 -85 8.5 -111 25.5s-39 45.5 -39 85.5c0 15.333 2.66699 35.333 8 60
l43 180c2.66699 10 4 19.667 4 29c0 18.667 -5.5 34.334 -16.5 47.001s-29.167 19.667 -54.5 21z" />
    <glyph glyph-name="bar" unicode="|" horiz-adv-x="275" 
d="M281 783h85l-233 -968h-85z" />
    <glyph glyph-name="braceright" unicode="}" horiz-adv-x="326" 
d="M345 263c-15.333 0 -29.334 -2.82617 -42.001 -8.49316s-23.667 -13 -33 -22s-17.166 -19.333 -23.499 -31s-10.833 -23.5 -13.5 -35.5l-43 -180c-7.33301 -30.667 -16.5 -56.834 -27.5 -78.501s-25.333 -39.334 -43 -53.001s-39.334 -23.667 -65.001 -30
s-56.5 -9.5 -92.5 -9.5h-4l18 73c18.667 0 34.834 1.16699 48.501 3.5s25.667 7.16602 36 14.499s19 17.333 26 30s13.167 29.667 18.5 51l37 154c10.667 44 23.5 78.333 38.5 103s36.5 43 64.5 55c-14 11.333 -23.833 24.833 -29.5 40.5s-8.5 32.167 -8.5 49.5
c0 11.333 1 22.666 3 33.999s4.33301 22.666 7 33.999l37 154c2 9.33301 3.66699 17.666 5 24.999s2 14 2 20c0 21.333 -7 35.333 -21 42s-36 10.667 -66 12l19 73h4c48 0 85 -8.5 111 -25.5s39 -45.5 39 -85.5c0 -15.333 -2.66699 -35.333 -8 -60l-43 -180
c-2.66699 -10 -4 -19.667 -4 -29c0 -18.667 5.5 -34.334 16.5 -47.001s29.167 -19.667 54.5 -21z" />
    <glyph glyph-name="asciitilde" unicode="~" horiz-adv-x="564" 
d="M367 339l41 -29.5c12 -9 27 -13.5 45 -13.5c10.667 0 20.5 2.66699 29.5 8s16.833 11.833 23.5 19.5s12.667 16.167 18 25.5s10 18 14 26l64 -20c-5.33301 -14.667 -12.5 -30.167 -21.5 -46.5s-20.167 -31.5 -33.5 -45.5s-28.833 -25.5 -46.5 -34.5
s-37.834 -13.5 -60.501 -13.5c-23.333 0 -42.5 4.5 -57.5 13.5s-28.833 18.167 -41.5 27.5l-41 29.5c-12 9 -27 13.5 -45 13.5c-11.333 0 -21.333 -2.66699 -30 -8s-16.5 -11.833 -23.5 -19.5s-13 -16.167 -18 -25.5l-13.5 -26l-64 20c5.33301 14.667 12.5 30.167 21.5 46.5
s20.167 31.5 33.5 45.5s28.833 25.5 46.5 34.5s37.834 13.5 60.501 13.5c23.333 0 42.5 -4.5 57.5 -13.5s28.833 -18.167 41.5 -27.5z" />
    <glyph glyph-name="uni00A0" unicode="&#xa0;" horiz-adv-x="231" 
 />
    <glyph glyph-name="exclamdown" unicode="&#xa1;" horiz-adv-x="250" 
d="M29 -185l45 188.002c4 16 9.5 36.833 16.5 62.5s14.667 52.167 23 79.5s17 54.166 26 80.499s17.167 48.166 24.5 65.499h57c-5.33301 -45.333 -11.5 -90.833 -18.5 -136.5s-17.167 -96.5 -30.5 -152.5l-45 -187h-98zM222 386.002
c-18.667 0 -33.3311 4.99902 -43.998 14.999s-16 24.667 -16 44c0 24 7.16699 42.5 21.5 55.5s30.833 19.5 49.5 19.5s33.5 -5.16699 44.5 -15.5s16.5 -25.5 16.5 -45.5c0 -11.333 -2.16699 -21.5 -6.5 -30.5s-9.83301 -16.667 -16.5 -23s-14.334 -11.166 -23.001 -14.499
s-17.334 -5 -26.001 -5z" />
    <glyph glyph-name="cent" unicode="&#xa2;" horiz-adv-x="564" 
d="M458 475c-31.333 0 -59.8301 -7.16797 -85.4971 -21.501s-47.5 -33.166 -65.5 -56.499s-32 -49.666 -42 -78.999s-15 -59.333 -15 -90c0 -16 1.83301 -31.167 5.5 -45.5s10 -26.833 19 -37.5s21 -19.167 36 -25.5s34.167 -9.5 57.5 -9.5c12 0 24.5 1 37.5 3
s25.167 4.66699 36.5 8s21.333 6.83301 30 10.5s15 7.16699 19 10.5l7 -77c-10.667 -7.33301 -27.834 -14.5 -51.501 -21.5s-50.5 -11.167 -80.5 -12.5l-33 -140h-81l34 145c-84.667 18.667 -127 81.667 -127 189c0 36 5.33301 71.667 16 107s26.667 67.833 48 97.5
s47.666 55.167 78.999 76.5s67.666 35.666 108.999 42.999l34 144h81l-33 -139c16 -1.33301 31.667 -3.83301 47 -7.5s30 -9.16699 44 -16.5l-34 -74c-10.667 6 -23.167 10.667 -37.5 14s-32.5 5 -54.5 5z" />
    <glyph glyph-name="sterling" unicode="&#xa3;" horiz-adv-x="564" 
d="M337 373h189l-18 -75h-189l-2 -8c-8 -34 -17.833 -69 -29.5 -105s-24.167 -71 -37.5 -105h290l-19 -80h-394l53 141.5c16.667 46.333 30.667 93.5 42 141.5l4 15h-93l18 75h93l20 83c12 50 26 91.167 42 123.5s34.833 57.833 56.5 76.5s46.167 31.667 73.5 39
s58 11 92 11c34.667 0 61.667 -3.16699 81 -9.5s36.666 -13.833 51.999 -22.5l-42 -75c-15.333 8 -31.166 14.333 -47.499 19s-34.833 7 -55.5 7c-19.333 0 -37 -2.66699 -53 -8s-30.5 -14.5 -43.5 -27.5s-24.667 -30.167 -35 -51.5s-19.5 -48 -27.5 -80z" />
    <glyph glyph-name="currency" unicode="&#xa4;" horiz-adv-x="564" 
d="M166 347c0 41.333 9.33398 76.665 28.001 105.998l-73 74l58 58l74 -75c31.333 19.333 66.666 29 105.999 29c38.667 0 73.667 -9.66699 105 -29l75 75l58 -58l-74 -74c19.333 -29.333 29 -64.666 29 -105.999s-9.66699 -76.666 -29 -105.999l74 -74l-58 -58l-75 74
c-31.333 -18.667 -66.333 -28 -105 -28c-40 0 -75.333 9.33301 -106 28l-74 -74l-58 58l73 73c-18.667 29.333 -28 65 -28 107zM477.001 346.999c0 18.667 -3.16699 35.667 -9.5 51s-14.833 28.5 -25.5 39.5s-23.167 19.333 -37.5 25s-29.5 8.5 -45.5 8.5
s-31.167 -2.83301 -45.5 -8.5s-26.833 -14 -37.5 -25s-19.167 -24.167 -25.5 -39.5s-9.5 -32.333 -9.5 -51c0 -19.333 3.16699 -36.5 9.5 -51.5s14.833 -28 25.5 -39s23.167 -19.333 37.5 -25s29.5 -8.5 45.5 -8.5s31.167 2.83301 45.5 8.5s26.833 14 37.5 25
s19.167 24 25.5 39s9.5 32.167 9.5 51.5z" />
    <glyph glyph-name="yen" unicode="&#xa5;" horiz-adv-x="564" 
d="M514 106l-163.002 -0.000976562l-25 -106h-90l25 106h-162l17 71h162l24 102h-161l17 71h136c-47.333 117.333 -84.333 231.666 -111 342.999h96c4.66699 -23.333 10.334 -48 17.001 -74s13.834 -52.333 21.501 -79s16 -53.167 25 -79.5s18.5 -51.166 28.5 -74.499
l59 71.5l61.5 78.5l59 80c19 26.667 36.167 52.334 51.5 77.001h105c-40 -58 -83.667 -116.833 -131 -176.5s-94 -115.167 -140 -166.5h136l-17 -71h-163l-24 -102h163z" />
    <glyph glyph-name="brokenbar" unicode="&#xa6;" horiz-adv-x="275" 
d="M189 400l92 383h85l-92 -383h-85zM225 198l-92 -383h-85l92 383h85z" />
    <glyph glyph-name="section" unicode="&#xa7;" horiz-adv-x="486" 
d="M249 135c-18.667 6.66699 -36.167 13.6631 -52.5 20.9961s-30.666 16.5 -42.999 27.5s-22.166 24.667 -29.499 41s-11 36.5 -11 60.5c0 36 11.833 68.833 35.5 98.5s52.5 53.834 86.5 72.501c-19.333 19.333 -29 46.333 -29 81c0 27.333 5.33301 51.666 16 72.999
s25.667 39.333 45 54s42.5 25.834 69.5 33.501s56.5 11.5 88.5 11.5c34 0 63.167 -3.5 87.5 -10.5s44.166 -14.167 59.499 -21.5l-35 -72c-11.333 5.33301 -26.5 11.5 -45.5 18.5s-43.5 10.5 -73.5 10.5c-35.333 0 -64.333 -6.5 -87 -19.5s-34 -34.167 -34 -63.5
c0 -19.333 6.33301 -34.333 19 -45s34 -21.334 64 -32.001c18.667 -7.33301 36.167 -14.666 52.5 -21.999s30.5 -16.333 42.5 -27s21.5 -24 28.5 -40s10.5 -36.333 10.5 -61c0 -38 -11.667 -71.167 -35 -99.5s-52.333 -52.166 -87 -71.499
c9.33301 -8.66699 18.166 -20.167 26.499 -34.5s12.5 -34.166 12.5 -59.499c0 -24 -5 -46.333 -15 -67s-24.833 -38.5 -44.5 -53.5s-43.834 -26.667 -72.501 -35s-61.667 -12.5 -99 -12.5c-36 0 -68.167 3.16699 -96.5 9.5s-52.166 14.833 -71.499 25.5l36 73
c12.667 -7.33301 31 -14.666 55 -21.999s52 -11 84 -11c44 0 77.167 7.66699 99.5 23s33.5 35.666 33.5 60.999c0 12.667 -2.16699 23.334 -6.5 32.001s-10.333 16 -18 22s-17.167 11.333 -28.5 16zM335 190.996c11.333 5.33301 22.501 11.9922 33.501 19.9922
s20.833 17.333 29.5 28s15.667 22.167 21 34.5s8 25.5 8 39.5c0 12.667 -3 23.834 -9 33.501s-14.167 18.167 -24.5 25.5s-22.666 14 -36.999 20s-29.5 12 -45.5 18c-8.66699 3.33301 -14.334 6 -17.001 8c-11.333 -5.33301 -22.5 -12.166 -33.5 -20.499
s-21 -17.666 -30 -27.999s-16.333 -21.666 -22 -33.999s-8.5 -25.5 -8.5 -39.5c0 -13.333 3.16699 -24.666 9.5 -33.999s14.666 -17.666 24.999 -24.999s22.5 -14 36.5 -20s29 -12 45 -18c4 -1.33301 7.5 -2.66602 10.5 -3.99902s5.83301 -2.66602 8.5 -3.99902z" />
    <glyph glyph-name="dieresis" unicode="&#xa8;" 
d="M249 616c-14.667 0 -26.999 4.66797 -36.999 14.001s-15 21.666 -15 36.999c0 20 6.66699 36.167 20 48.5s27.666 18.5 42.999 18.5c14.667 0 27.167 -4.83301 37.5 -14.5s15.5 -22.5 15.5 -38.5c0 -19.333 -6.83301 -35 -20.5 -47s-28.167 -18 -43.5 -18z
M439.001 616.001c-14.667 0 -26.999 4.66797 -36.999 14.001s-15 21.666 -15 36.999c0 20 6.66699 36.167 20 48.5s27.666 18.5 42.999 18.5c14.667 0 27.167 -4.83301 37.5 -14.5s15.5 -22.5 15.5 -38.5c0 -19.333 -6.83301 -35 -20.5 -47s-28.167 -18 -43.5 -18z" />
    <glyph glyph-name="copyright" unicode="&#xa9;" horiz-adv-x="814" 
d="M826 347c0 -57.333 -9.33301 -108.333 -28 -153s-43.667 -82.5 -75 -113.5s-67.666 -54.667 -108.999 -71s-84.666 -24.5 -129.999 -24.5s-88.666 8.16699 -129.999 24.5s-77.666 40 -108.999 71s-56.333 68.833 -75 113.5s-28 95.667 -28 153
c0 56.667 9.33301 107.5 28 152.5s43.667 83 75 114s67.666 54.667 108.999 71s84.666 24.5 129.999 24.5s88.666 -8.16699 129.999 -24.5s77.666 -40 108.999 -71s56.333 -69 75 -114s28 -95.833 28 -152.5zM753 347c0 44 -6.66699 84.167 -20 120.5
s-31.833 67.5 -55.5 93.5s-52 46 -85 60s-69.167 21 -108.5 21s-75.5 -7 -108.5 -21s-61.333 -34 -85 -60s-42.167 -57.167 -55.5 -93.5s-20 -76.5 -20 -120.5s6.66699 -84.167 20 -120.5s31.833 -67.5 55.5 -93.5s52 -46 85 -60s69.167 -21 108.5 -21s75.5 7 108.5 21
s61.333 34 85 60s42.167 57.167 55.5 93.5s20 76.5 20 120.5zM496 140c-28.667 0 -54.6641 4.66895 -77.9971 14.002s-43.5 22.666 -60.5 39.999s-30.167 38.833 -39.5 64.5s-14 55.167 -14 88.5c0 32.667 5.16699 61.667 15.5 87s24.166 46.833 41.499 64.5
s37.666 31.167 60.999 40.5s48 14 74 14c17.333 0 33.166 -1.33301 47.499 -4s26.833 -5.83398 37.5 -9.50098s19.5 -7.33398 26.5 -11.001s11.833 -6.5 14.5 -8.5l-23 -60c-8 4.66699 -20.833 10.167 -38.5 16.5s-38.167 9.5 -61.5 9.5c-34 0 -62.333 -11.667 -85 -35
s-34 -58 -34 -104c0 -42 10.333 -76 31 -102s51 -39 91 -39c26 0 47.5 2.83301 64.5 8.5s30.167 10.834 39.5 15.501l19 -60c-7.33301 -4 -22.5 -10 -45.5 -18s-50.833 -12 -83.5 -12z" />
    <glyph glyph-name="ordfeminine" unicode="&#xaa;" horiz-adv-x="415" 
d="M281 330c-43.333 0 -74.668 12.168 -94.001 36.501s-29 56.166 -29 95.499c0 30.667 5.33301 60.667 16 90s26.667 55.5 48 78.5s48 41.667 80 56s69.667 21.5 113 21.5c12 0 26.833 -1.5 44.5 -4.5s33.834 -7.5 48.501 -13.5l-55 -203c-6 -21.333 -9 -42 -9 -62
c0 -16.667 1.66699 -30.834 5 -42.501s7.66602 -24.5 12.999 -38.5l-69 -12c-2.66699 3.33301 -5.5 8.33301 -8.5 15s-5.16699 13.334 -6.5 20.001c-9.33301 -9.33301 -22.166 -17.833 -38.499 -25.5s-35.833 -11.5 -58.5 -11.5zM421.998 644.001
c-1.33301 0.666992 -3.83398 1.33008 -7.50098 1.99707s-8.16699 1 -13.5 1c-25.333 0 -48.5 -4.83301 -69.5 -14.5s-39 -22.834 -54 -39.501s-26.5 -35.667 -34.5 -57s-12 -43.666 -12 -66.999c0 -10 0.833008 -19.667 2.5 -29s5 -17.666 10 -24.999
s11.833 -13.166 20.5 -17.499s19.667 -6.5 33 -6.5c14.667 0 28.334 3.66699 41.001 11s24 16.333 34 27c0 10 1.16699 20.833 3.5 32.5s4.5 21.834 6.5 30.501z" />
    <glyph glyph-name="guillemotleft" unicode="&#xab;" horiz-adv-x="499" 
d="M276 92l-62 -29l-118 227l203 215l58 -35l-157 -190zM484 92l-62 -29l-118 227l203 215l58 -35l-157 -190z" />
    <glyph glyph-name="logicalnot" unicode="&#xac;" horiz-adv-x="564" 
d="M600 392l-82 -341h-84l63 262h-365l19 79h449z" />
    <glyph glyph-name="uni00AD" unicode="&#xad;" horiz-adv-x="293" 
d="M107 343h242l-20 -87h-242z" />
    <glyph glyph-name="registered" unicode="&#xae;" horiz-adv-x="814" 
d="M826 347c0 -57.333 -9.33301 -108.333 -28 -153s-43.667 -82.5 -75 -113.5s-67.666 -54.667 -108.999 -71s-84.666 -24.5 -129.999 -24.5s-88.666 8.16699 -129.999 24.5s-77.666 40 -108.999 71s-56.333 68.833 -75 113.5s-28 95.667 -28 153
c0 56.667 9.33301 107.5 28 152.5s43.667 83 75 114s67.666 54.667 108.999 71s84.666 24.5 129.999 24.5s88.666 -8.16699 129.999 -24.5s77.666 -40 108.999 -71s56.333 -69 75 -114s28 -95.833 28 -152.5zM753 347c0 44 -6.66699 84.167 -20 120.5
s-31.833 67.5 -55.5 93.5s-52 46 -85 60s-69.167 21 -108.5 21s-75.5 -7 -108.5 -21s-61.333 -34 -85 -60s-42.167 -57.167 -55.5 -93.5s-20 -76.5 -20 -120.5s6.66699 -84.167 20 -120.5s31.833 -67.5 55.5 -93.5s52 -46 85 -60s69.167 -21 108.5 -21s75.5 7 108.5 21
s61.333 34 85 60s42.167 57.167 55.5 93.5s20 76.5 20 120.5zM583 148c-15.333 30 -32.501 58.499 -51.501 85.499s-35.5 48.5 -49.5 64.5h-67v-150h-71v388c18 4 37 7 57 9s38.333 3 55 3c58 0 101.833 -10.5 131.5 -31.5s44.5 -53.5 44.5 -97.5
c0 -24.667 -6.5 -46.167 -19.5 -64.5s-31.5 -32.5 -55.5 -42.5c6.66699 -8 14.334 -18 23.001 -30l27.5 -39.5c9.66699 -14.333 19 -29.666 28 -45.999s17.167 -32.5 24.5 -48.5h-77zM414.999 355.999l38 -0.000976562c30 0 55 4.16699 75 12.5s30 25.5 30 51.5
c0 24.667 -9.5 41.834 -28.5 51.501s-41.833 14.5 -68.5 14.5c-7.33301 0 -15 -0.166992 -23 -0.5s-15.667 -0.833008 -23 -1.5v-128z" />
    <glyph glyph-name="macron" unicode="&#xaf;" 
d="M218 711h280l-17 -72h-280z" />
    <glyph glyph-name="degree" unicode="&#xb0;" horiz-adv-x="332" 
d="M432 637c0 -21.333 -3.83301 -40.666 -11.5 -57.999s-17.834 -32 -30.501 -44s-27.5 -21.167 -44.5 -27.5s-34.833 -9.5 -53.5 -9.5s-36.5 3.16699 -53.5 9.5s-31.833 15.5 -44.5 27.5s-22.834 26.667 -30.501 44s-11.5 36.666 -11.5 57.999s3.83301 40.666 11.5 57.999
s17.834 32 30.501 44s27.5 21.167 44.5 27.5s34.833 9.5 53.5 9.5s36.5 -3.16699 53.5 -9.5s31.833 -15.5 44.5 -27.5s22.834 -26.667 30.501 -44s11.5 -36.666 11.5 -57.999zM365 637c0 23.333 -7.16699 41.833 -21.5 55.5s-31.5 20.5 -51.5 20.5
s-37.167 -6.83301 -51.5 -20.5s-21.5 -32.167 -21.5 -55.5s7.16699 -41.833 21.5 -55.5s31.5 -20.5 51.5 -20.5s37.167 6.83301 51.5 20.5s21.5 32.167 21.5 55.5z" />
    <glyph glyph-name="plusminus" unicode="&#xb1;" horiz-adv-x="564" 
d="M472 620l-50 -206h182l-19 -79h-182l-47 -196h-84l46 196h-182l19 79h182l50 206h85zM523 79l-19 -79h-449l19 79h449z" />
    <glyph glyph-name="twosuperior" unicode="&#xb2;" horiz-adv-x="359" 
d="M402 378l-14.998 -63h-263c2.66699 24 8 44.833 16 62.5s18 33.5 30 47.5s25.667 26.667 41 38s31.666 22.333 48.999 33l45.5 29c13 8.66699 23.833 17 32.5 25s15.167 16.5 19.5 25.5s6.5 19.167 6.5 30.5c0 14 -4.83301 24.333 -14.5 31s-21.167 10 -34.5 10
c-28 0 -50.167 -4.83301 -66.5 -14.5s-28.833 -18.167 -37.5 -25.5l-24 49c13.333 12.667 31.666 24.667 54.999 36s50.333 17 81 17c38 0 66.167 -8.83301 84.5 -26.5s27.5 -41.5 27.5 -71.5c0 -19.333 -4.5 -37 -13.5 -53s-20.5 -30.667 -34.5 -44
s-29.333 -25.5 -46 -36.5l-48 -30.5l-46 -30c-16.667 -10.667 -28 -23.667 -34 -39h189z" />
    <glyph glyph-name="threesuperior" unicode="&#xb3;" horiz-adv-x="359" 
d="M232 368c14 0 27.502 1.00195 40.502 3.00195s24.5 5.83301 34.5 11.5s18.167 13.167 24.5 22.5s9.5 21 9.5 35c0 18.667 -8.66699 32 -26 40s-40.333 12 -69 12h-21l14 56h25c9.33301 0 19.833 1 31.5 3s22.5 5.33301 32.5 10s18.5 10.667 25.5 18
s10.5 16.666 10.5 27.999c0 15.333 -4.5 26 -13.5 32s-23.167 9 -42.5 9c-18 0 -35.5 -2.66699 -52.5 -8s-30.833 -10.666 -41.5 -15.999l-14 52c6 4 13.833 7.83301 23.5 11.5s20.334 7.16699 32.001 10.5s23.5 6 35.5 8s23.333 3 34 3c39.333 0 67.166 -8 83.499 -24
s24.5 -35.333 24.5 -58c0 -26.667 -6.83301 -48 -20.5 -64s-32.5 -29.667 -56.5 -41c16 -6.66699 29.167 -16.334 39.5 -29.001s15.5 -29.667 15.5 -51c0 -44 -16.667 -77.5 -50 -100.5s-77 -34.5 -131 -34.5c-26.667 0 -49.5 2.66699 -68.5 8s-35.167 11.666 -48.5 18.999
l27 56c11.333 -5.33301 25.166 -10.333 41.499 -15s33.166 -7 50.499 -7z" />
    <glyph glyph-name="acute" unicode="&#xb4;" 
d="M471 708l-169 -128l-40 49l158 151z" />
    <glyph glyph-name="mu" unicode="&#xb5;" horiz-adv-x="572" 
d="M427 115c0 17.333 0.830078 34.333 2.49707 51s4.83398 34.334 9.50098 53.001l72 301h93l-74 -309l-9 -43c-2.66699 -13.333 -4 -25.666 -4 -36.999c0 -17.333 4.16699 -31.666 12.5 -42.999s23.166 -18.666 44.499 -21.999l-21 -75c-28 0.666992 -50.333 5.5 -67 14.5
s-30 21.833 -40 38.5c-24 -18.667 -50.667 -32.334 -80 -41.001s-60.333 -13 -93 -13c-20.667 0 -40 4.16699 -58 12.5s-31.667 20.166 -41 35.499c-2.66699 -17.333 -6.16699 -36.5 -10.5 -57.5s-9.16602 -41.833 -14.499 -62.5l-25 -103h-92l169 705h93l-59 -246
c-3.33301 -15.333 -7.66602 -33.333 -12.999 -54s-8 -41.334 -8 -62.001c0 -12 1.16699 -23.5 3.5 -34.5s6.83301 -20.667 13.5 -29s15.334 -15 26.001 -20s24.667 -7.5 42 -7.5c25.333 0 48.5 4.16699 69.5 12.5s40.5 20.166 58.5 35.499z" />
    <glyph glyph-name="paragraph" unicode="&#xb6;" horiz-adv-x="650" 
d="M538 623h-17.4961c-6.33301 0 -11.5 -0.333008 -15.5 -1l-194 -807h-78l107 447c-67.333 4.66699 -115.333 21 -144 49s-43 65.667 -43 113c0 50 11.333 92.5 34 127.5s52.167 63.5 88.5 85.5s77.166 38 122.499 48s90.666 15 135.999 15c28 0 57.667 -1.16699 89 -3.5
s59.666 -6.83301 84.999 -13.5l-208 -868h-78l193 803c-16.667 3.33301 -42.334 5 -77.001 5z" />
    <glyph glyph-name="periodcentered" unicode="&#xb7;" horiz-adv-x="246" 
d="M185 227c-18.667 0 -33.3311 4.99902 -43.998 14.999s-16 24.667 -16 44c0 24 7.16699 42.5 21.5 55.5s30.833 19.5 49.5 19.5s33.5 -5.16699 44.5 -15.5s16.5 -25.5 16.5 -45.5c0 -11.333 -2.16699 -21.5 -6.5 -30.5s-9.83301 -16.667 -16.5 -23
s-14.334 -11.166 -23.001 -14.499s-17.334 -5 -26.001 -5z" />
    <glyph glyph-name="cedilla" unicode="&#xb8;" 
d="M189 -38c13.333 -7.33301 23.333 -15.333 30 -24s10 -20.667 10 -36c0 -30 -10.333 -52.667 -31 -68s-49 -23 -85 -23c-19.333 0 -35.5 1.5 -48.5 4.5s-23.833 6.5 -32.5 10.5l23 55c5.33301 -2.66699 12.333 -5.16699 21 -7.5s19.334 -3.5 32.001 -3.5
c11.333 0 20.666 1.83301 27.999 5.5s11 10.167 11 19.5c0 8 -2.66699 14 -8 18s-14.333 9 -27 15l-6 3c4 6.66699 9 14.5 15 23.5l18 26.5c6 8.66699 11.667 16.5 17 23.5l12 15.5h64l-21.5 -28.5c-9 -11.667 -16.167 -21.5 -21.5 -29.5z" />
    <glyph glyph-name="onesuperior" unicode="&#xb9;" horiz-adv-x="359" 
d="M199 621c30.667 9.33301 59.5 20.832 86.5 34.499s50.833 28.834 71.5 45.501h50l-93 -386h-71l70 290c-17.333 -9.33301 -35.833 -17.5 -55.5 -24.5s-36.167 -12.5 -49.5 -16.5z" />
    <glyph glyph-name="ordmasculine" unicode="&#xba;" horiz-adv-x="446" 
d="M386 709c40 0 71.5 -11.167 94.5 -33.5s34.5 -53.833 34.5 -94.5c0 -26.667 -4 -54.834 -12 -84.501s-20.833 -57 -38.5 -82s-40.667 -45.667 -69 -62s-62.833 -24.5 -103.5 -24.5c-40 0 -71.5 11.167 -94.5 33.5s-34.5 53.833 -34.5 94.5c0 26.667 4 54.834 12 84.501
s20.833 57 38.5 82s40.667 45.667 69 62s62.833 24.5 103.5 24.5zM305 390c21.333 0 40.333 5.83301 57 17.5s30.834 26.5 42.501 44.5s20.5 38 26.5 60s9 43 9 63c0 21.333 -5.33301 38.666 -16 51.999s-27.667 20 -51 20c-21.333 0 -40.333 -5.83301 -57 -17.5
s-30.834 -26.5 -42.501 -44.5s-20.5 -38 -26.5 -60s-9 -43 -9 -63c0 -21.333 5.33301 -38.666 16 -51.999s27.667 -20 51 -20z" />
    <glyph glyph-name="guillemotright" unicode="&#xbb;" horiz-adv-x="499" 
d="M151 476l62 29l118 -227l-203 -215l-58 35l157 190zM359 476l62 29l118 -227l-203 -215l-58 35l157 190z" />
    <glyph glyph-name="onequarter" unicode="&#xbc;" horiz-adv-x="874" 
d="M199 621c30.667 9.33301 59.5 20.832 86.5 34.499s50.833 28.834 71.5 45.501h50l-93 -386h-71l70 290c-17.333 -9.33301 -35.833 -17.5 -55.5 -24.5s-36.167 -12.5 -49.5 -16.5zM291 -0.000976562h-95l549 693h95zM885 150.999l-14.001 -56.001h-50l-22 -93h-68l22 93
h-185l11 46c10.667 18 25.167 37.833 43.5 59.5s38.833 43.834 61.5 66.501s46.334 44.5 71.001 65.5s48.667 39.5 72 55.5h65l-57 -237h50zM766.999 150.998l38 158l-40.5 -35c-14.333 -12.667 -28.5 -26 -42.5 -40s-27.333 -28 -40 -42s-23.667 -27.667 -33 -41h118z" />
    <glyph glyph-name="onehalf" unicode="&#xbd;" horiz-adv-x="874" 
d="M199 621c30.667 9.33301 59.5 20.832 86.5 34.499s50.833 28.834 71.5 45.501h50l-93 -386h-71l70 290c-17.333 -9.33301 -35.833 -17.5 -55.5 -24.5s-36.167 -12.5 -49.5 -16.5zM270 -0.000976562h-95l549 693h95zM841 64.999l-14.998 -63h-263
c2.66699 24 8 44.833 16 62.5s18 33.5 30 47.5s25.667 26.667 41 38s31.666 22.333 48.999 33l45.5 29c13 8.66699 23.833 17 32.5 25s15.167 16.5 19.5 25.5s6.5 19.167 6.5 30.5c0 14 -4.83301 24.333 -14.5 31s-21.167 10 -34.5 10c-28 0 -50.167 -4.83301 -66.5 -14.5
s-28.833 -18.167 -37.5 -25.5l-24 49c13.333 12.667 31.666 24.667 54.999 36s50.333 17 81 17c38 0 66.167 -8.83301 84.5 -26.5s27.5 -41.5 27.5 -71.5c0 -19.333 -4.5 -37 -13.5 -53s-20.5 -30.667 -34.5 -44s-29.333 -25.5 -46 -36.5l-48 -30.5l-46 -30
c-16.667 -10.667 -28 -23.667 -34 -39h189z" />
    <glyph glyph-name="threequarters" unicode="&#xbe;" horiz-adv-x="874" 
d="M232 368c14 0 27.502 1.00195 40.502 3.00195s24.5 5.83301 34.5 11.5s18.167 13.167 24.5 22.5s9.5 21 9.5 35c0 18.667 -8.66699 32 -26 40s-40.333 12 -69 12h-21l14 56h25c9.33301 0 19.833 1 31.5 3s22.5 5.33301 32.5 10s18.5 10.667 25.5 18
s10.5 16.666 10.5 27.999c0 15.333 -4.5 26 -13.5 32s-23.167 9 -42.5 9c-18 0 -35.5 -2.66699 -52.5 -8s-30.833 -10.666 -41.5 -15.999l-14 52c6 4 13.833 7.83301 23.5 11.5s20.334 7.16699 32.001 10.5s23.5 6 35.5 8s23.333 3 34 3c39.333 0 67.166 -8 83.499 -24
s24.5 -35.333 24.5 -58c0 -26.667 -6.83301 -48 -20.5 -64s-32.5 -29.667 -56.5 -41c16 -6.66699 29.167 -16.334 39.5 -29.001s15.5 -29.667 15.5 -51c0 -44 -16.667 -77.5 -50 -100.5s-77 -34.5 -131 -34.5c-26.667 0 -49.5 2.66699 -68.5 8s-35.167 11.666 -48.5 18.999
l27 56c11.333 -5.33301 25.166 -10.333 41.499 -15s33.166 -7 50.499 -7zM302.002 0.00195312h-95l549 693h95zM885.002 151.002l-14.001 -56.001h-50l-22 -93h-68l22 93h-185l11 46c10.667 18 25.167 37.833 43.5 59.5s38.833 43.834 61.5 66.501s46.334 44.5 71.001 65.5
s48.667 39.5 72 55.5h65l-57 -237h50zM767.001 151.001l38 158l-40.5 -35c-14.333 -12.667 -28.5 -26 -42.5 -40s-27.333 -28 -40 -42s-23.667 -27.667 -33 -41h118z" />
    <glyph glyph-name="questiondown" unicode="&#xbf;" horiz-adv-x="384" 
d="M207 -188c-31.333 0 -57.6641 3.66797 -78.9971 11.001s-38.666 17.166 -51.999 29.499s-22.833 26.833 -28.5 43.5s-8.5 34 -8.5 52c0 22 3.16699 41.833 9.5 59.5s15.166 34 26.499 49s24.666 29.333 39.999 43s32 27.5 50 41.5c22 17.333 43 36.333 63 57
s33.667 45.667 41 75c1.33301 4 2.16602 7.66699 2.49902 11s0.5 5.66602 0.5 6.99902h81c-0.666992 -8 -1.33398 -15.167 -2.00098 -21.5s-1.66699 -12.833 -3 -19.5c-8 -34 -23.5 -63.167 -46.5 -87.5s-47.167 -46.166 -72.5 -65.499l-35 -28.5
c-11.333 -9.66699 -21.666 -20 -30.999 -31s-16.833 -22.833 -22.5 -35.5s-8.5 -26.667 -8.5 -42c0 -7.33301 1 -15.333 3 -24s6.16699 -16.5 12.5 -23.5s15.166 -12.833 26.499 -17.5s26.333 -7 45 -7c32 0 58.667 3.66699 80 11s38 14 50 20l10 -72
c-16 -9.33301 -37.833 -17.5 -65.5 -24.5s-56.5 -10.5 -86.5 -10.5zM323.002 386.001c-18.667 0 -33.3311 4.99902 -43.998 14.999s-16 24.667 -16 44c0 24 7.16699 42.5 21.5 55.5s30.833 19.5 49.5 19.5s33.5 -5.16699 44.5 -15.5s16.5 -25.5 16.5 -45.5
c0 -11.333 -2.16699 -21.5 -6.5 -30.5s-9.83301 -16.667 -16.5 -23s-14.334 -11.166 -23.001 -14.499s-17.334 -5 -26.001 -5z" />
    <glyph glyph-name="Agrave" unicode="&#xc0;" horiz-adv-x="636" 
d="M214 178l-98 -178h-106c74.667 134.667 147.5 258.667 218.5 372l210.5 321h95c10 -50 19.167 -100.5 27.5 -151.5s16.5 -104.5 24.5 -160.5s15.667 -115.333 23 -178l23 -203h-98c-3.33301 30 -6.33301 60.167 -9 90.5s-5.66699 59.5 -9 87.5h-302zM507 256
c-5.33301 54 -11.5 107.667 -18.5 161s-15.167 108.333 -24.5 165l-87 -131.5c-34.667 -53.667 -74 -118.5 -118 -194.5h248zM458 935l127 -160l-49 -43l-146 146z" />
    <glyph glyph-name="Aacute" unicode="&#xc1;" horiz-adv-x="636" 
d="M214 178l-98 -178h-106c74.667 134.667 147.5 258.667 218.5 372l210.5 321h95c10 -50 19.167 -100.5 27.5 -151.5s16.5 -104.5 24.5 -160.5s15.667 -115.333 23 -178l23 -203h-98c-3.33301 30 -6.33301 60.167 -9 90.5s-5.66699 59.5 -9 87.5h-302zM507 256
c-5.33301 54 -11.5 107.667 -18.5 161s-15.167 108.333 -24.5 165l-87 -131.5c-34.667 -53.667 -74 -118.5 -118 -194.5h248zM630 864l-169 -128l-40 49l158 151z" />
    <glyph glyph-name="Acircumflex" unicode="&#xc2;" horiz-adv-x="636" 
d="M214 178l-98 -178h-106c74.667 134.667 147.5 258.667 218.5 372l210.5 321h95c10 -50 19.167 -100.5 27.5 -151.5s16.5 -104.5 24.5 -160.5s15.667 -115.333 23 -178l23 -203h-98c-3.33301 30 -6.33301 60.167 -9 90.5s-5.66699 59.5 -9 87.5h-302zM507 256
c-5.33301 54 -11.5 107.667 -18.5 161s-15.167 108.333 -24.5 165l-87 -131.5c-34.667 -53.667 -74 -118.5 -118 -194.5h248zM515 823l-112 -82l-33 45l162 139l106 -148l-44 -41z" />
    <glyph glyph-name="Atilde" unicode="&#xc3;" horiz-adv-x="636" 
d="M214 178l-98 -178h-106c74.667 134.667 147.5 258.667 218.5 372l210.5 321h95c10 -50 19.167 -100.5 27.5 -151.5s16.5 -104.5 24.5 -160.5s15.667 -115.333 23 -178l23 -203h-98c-3.33301 30 -6.33301 60.167 -9 90.5s-5.66699 59.5 -9 87.5h-302zM507 256
c-5.33301 54 -11.5 107.667 -18.5 161s-15.167 108.333 -24.5 165l-87 -131.5c-34.667 -53.667 -74 -118.5 -118 -194.5h248zM530 863c10 -5.33301 19 -9.66602 27 -12.999s16 -5 24 -5c14 0 25.667 5.16699 35 15.5s17.666 21.166 24.999 32.499l47 -29
c-13.333 -28 -29.166 -49.5 -47.499 -64.5s-42.5 -22.5 -72.5 -22.5c-13.333 0 -25.166 2.33301 -35.499 7s-20.166 9.66699 -29.499 15c-10 5.33301 -19 9.66602 -27 12.999s-16 5 -24 5c-14 0 -25.667 -5.16699 -35 -15.5s-17.666 -21.166 -24.999 -32.499l-47 29
c13.333 28 29.166 49.5 47.499 64.5s42.5 22.5 72.5 22.5c13.333 0 25.166 -2.33301 35.499 -7s20.166 -9.66699 29.499 -15z" />
    <glyph glyph-name="Adieresis" unicode="&#xc4;" horiz-adv-x="636" 
d="M214 178l-98 -178h-106c74.667 134.667 147.5 258.667 218.5 372l210.5 321h95c10 -50 19.167 -100.5 27.5 -151.5s16.5 -104.5 24.5 -160.5s15.667 -115.333 23 -178l23 -203h-98c-3.33301 30 -6.33301 60.167 -9 90.5s-5.66699 59.5 -9 87.5h-302zM507 256
c-5.33301 54 -11.5 107.667 -18.5 161s-15.167 108.333 -24.5 165l-87 -131.5c-34.667 -53.667 -74 -118.5 -118 -194.5h248zM416 772c-14.667 0 -26.999 4.66797 -36.999 14.001s-15 21.666 -15 36.999c0 20 6.66699 36.167 20 48.5s27.666 18.5 42.999 18.5
c14.667 0 27.167 -4.83301 37.5 -14.5s15.5 -22.5 15.5 -38.5c0 -19.333 -6.83301 -35 -20.5 -47s-28.167 -18 -43.5 -18zM606.001 772.001c-14.667 0 -26.999 4.66797 -36.999 14.001s-15 21.666 -15 36.999c0 20 6.66699 36.167 20 48.5s27.666 18.5 42.999 18.5
c14.667 0 27.167 -4.83301 37.5 -14.5s15.5 -22.5 15.5 -38.5c0 -19.333 -6.83301 -35 -20.5 -47s-28.167 -18 -43.5 -18z" />
    <glyph glyph-name="Aring" unicode="&#xc5;" horiz-adv-x="636" 
d="M534 0c-3.33301 30 -6.33105 60.168 -8.99805 90.501s-5.66699 59.5 -9 87.5h-302l-98 -178h-106c70.667 127.333 139.667 245.333 207 354l200 308c-9.33301 8.66699 -16.833 19.334 -22.5 32.001s-8.5 27 -8.5 43s2.83301 30.167 8.5 42.5s13.167 23 22.5 32
s20.166 15.833 32.499 20.5s25.5 7 39.5 7s27.167 -2.33301 39.5 -7s23.166 -11.5 32.499 -20.5s16.833 -19.667 22.5 -32s8.5 -26.5 8.5 -42.5c0 -20.667 -4.5 -38.5 -13.5 -53.5s-20.833 -26.833 -35.5 -35.5c8.66699 -46.667 16.667 -93.834 24 -141.501
s14.5 -97.834 21.5 -150.501s14 -108.167 21 -166.5l22.5 -189.5h-98zM542.002 737.001c0 17.333 -5.16699 30.833 -15.5 40.5s-22.833 14.5 -37.5 14.5s-27.167 -4.83301 -37.5 -14.5s-15.5 -23.167 -15.5 -40.5s5.16699 -30.833 15.5 -40.5s22.833 -14.5 37.5 -14.5
s27.167 4.83301 37.5 14.5s15.5 23.167 15.5 40.5zM464.002 582.001l-87 -131.5c-34.667 -53.667 -74 -118.5 -118 -194.5h248c-5.33301 54 -11.5 107.667 -18.5 161s-15.167 108.333 -24.5 165z" />
    <glyph glyph-name="AE" unicode="&#xc6;" horiz-adv-x="928" 
d="M510 178h-265l-66.5 -89l-64.5 -89h-111l153.5 203.5l146 180.5l141 161.5l138.5 147.5h445l-19 -81h-298l-50 -209h263l-19 -79h-262l-59 -243h321l-19 -81h-417zM615 613l-156 -171.5c-52 -59.667 -103 -121.5 -153 -185.5h223z" />
    <glyph glyph-name="Ccedilla" unicode="&#xc7;" horiz-adv-x="600" 
d="M382 -15c-3.33301 -3.33301 -6.16895 -6.99805 -8.50195 -10.998s-4.83301 -8 -7.5 -12c13.333 -7.33301 23.333 -15.333 30 -24s10 -20.667 10 -36c0 -30 -10.333 -52.667 -31 -68s-49 -23 -85 -23c-19.333 0 -35.5 1.5 -48.5 4.5s-23.833 6.5 -32.5 10.5l23 55
c5.33301 -2.66699 12.333 -5.16699 21 -7.5s19.334 -3.5 32.001 -3.5c11.333 0 20.666 1.83301 27.999 5.5s11 10.167 11 19.5c0 8 -2.66699 14 -8 18s-14.333 9 -27 15l-6 3c4.66699 8 10.667 17.667 18 29s14.666 21.666 21.999 30.999
c-66.667 11.333 -116.5 39.833 -149.5 85.5s-49.5 104.834 -49.5 177.501c0 60 9.5 117.333 28.5 172s46 103 81 145s77.167 75.5 126.5 100.5s104.333 37.5 165 37.5c52 0 93.5 -5.33301 124.5 -16s53.167 -20.667 66.5 -30l-40 -80c-15.333 10 -36.166 19.5 -62.499 28.5
s-57.5 13.5 -93.5 13.5c-46 0 -87.333 -10.833 -124 -32.5s-67.667 -49.667 -93 -84s-44.666 -73 -57.999 -116s-20 -85.5 -20 -127.5c0 -130 56.333 -195 169 -195c24 0 45.5 1.66699 64.5 5s35.833 7.16602 50.5 11.499s27.667 9.16602 39 14.499l30 14l12 -84
c-8 -4.66699 -18.5 -9.66699 -31.5 -15s-28.167 -10.333 -45.5 -15s-36.666 -8.5 -57.999 -11.5s-44 -4.5 -68 -4.5h-5z" />
    <glyph glyph-name="Egrave" unicode="&#xc8;" horiz-adv-x="557" 
d="M81 0l166 693h409l-19 -81h-313l-50 -209h278l-19 -79h-277l-59 -243h336l-19 -81h-433zM426 935l127 -160l-49 -43l-146 146z" />
    <glyph glyph-name="Eacute" unicode="&#xc9;" horiz-adv-x="557" 
d="M81 0l166 693h409l-19 -81h-313l-50 -209h278l-19 -79h-277l-59 -243h336l-19 -81h-433zM598 864l-169 -128l-40 49l158 151z" />
    <glyph glyph-name="Ecircumflex" unicode="&#xca;" horiz-adv-x="557" 
d="M81 0l166 693h409l-19 -81h-313l-50 -209h278l-19 -79h-277l-59 -243h336l-19 -81h-433zM484 823l-112 -82l-33 45l162 139l106 -148l-44 -41z" />
    <glyph glyph-name="Edieresis" unicode="&#xcb;" horiz-adv-x="557" 
d="M81 0l166 693h409l-19 -81h-313l-50 -209h278l-19 -79h-277l-59 -243h336l-19 -81h-433zM384 772c-14.667 0 -26.999 4.66797 -36.999 14.001s-15 21.666 -15 36.999c0 20 6.66699 36.167 20 48.5s27.666 18.5 42.999 18.5c14.667 0 27.167 -4.83301 37.5 -14.5
s15.5 -22.5 15.5 -38.5c0 -19.333 -6.83301 -35 -20.5 -47s-28.167 -18 -43.5 -18zM574.001 772.001c-14.667 0 -26.999 4.66797 -36.999 14.001s-15 21.666 -15 36.999c0 20 6.66699 36.167 20 48.5s27.666 18.5 42.999 18.5c14.667 0 27.167 -4.83301 37.5 -14.5
s15.5 -22.5 15.5 -38.5c0 -19.333 -6.83301 -35 -20.5 -47s-28.167 -18 -43.5 -18z" />
    <glyph glyph-name="Igrave" unicode="&#xcc;" horiz-adv-x="263" 
d="M247 693h97l-166 -693h-97zM272 935l127 -160l-49 -43l-146 146z" />
    <glyph glyph-name="Iacute" unicode="&#xcd;" horiz-adv-x="263" 
d="M247 693h97l-166 -693h-97zM444 864l-169 -128l-40 49l158 151z" />
    <glyph glyph-name="Icircumflex" unicode="&#xce;" horiz-adv-x="263" 
d="M247 693h97l-166 -693h-97zM329 823l-112 -82l-33 45l162 139l106 -148l-44 -41z" />
    <glyph glyph-name="Idieresis" unicode="&#xcf;" horiz-adv-x="263" 
d="M247 693h97l-166 -693h-97zM230 772c-14.667 0 -26.999 4.66797 -36.999 14.001s-15 21.666 -15 36.999c0 20 6.66699 36.167 20 48.5s27.666 18.5 42.999 18.5c14.667 0 27.167 -4.83301 37.5 -14.5s15.5 -22.5 15.5 -38.5c0 -19.333 -6.83301 -35 -20.5 -47
s-28.167 -18 -43.5 -18zM420.001 772.001c-14.667 0 -26.999 4.66797 -36.999 14.001s-15 21.666 -15 36.999c0 20 6.66699 36.167 20 48.5s27.666 18.5 42.999 18.5c14.667 0 27.167 -4.83301 37.5 -14.5s15.5 -22.5 15.5 -38.5c0 -19.333 -6.83301 -35 -20.5 -47
s-28.167 -18 -43.5 -18z" />
    <glyph glyph-name="Eth" unicode="&#xd0;" horiz-adv-x="710" 
d="M442 700c102.667 0 179.334 -24.168 230.001 -72.501s76 -113.5 76 -195.5c0 -57.333 -9 -112.5 -27 -165.5s-46 -99.833 -84 -140.5s-86.5 -73 -145.5 -97s-129.5 -36 -211.5 -36c-28 0 -58.333 1.33301 -91 4s-61.334 7.33398 -86.001 14.001l75 313h-81l18 75h81
l68 285c28 6.66699 57.667 11 89 13s61 3 89 3zM434 617.999c-50 0 -80 -1.33594 -90 -4.00293l-52 -215h130l-18 -75h-130l-58 -244c5.33301 -1.33301 14.333 -2.5 27 -3.5s33.334 -1.5 62.001 -1.5c52.667 0 100.167 8.83301 142.5 26.5s78.166 42.334 107.499 74.001
s52 69.334 68 113.001s24 91.5 24 143.5c0 58.667 -17 104.334 -51 137.001s-88 49 -162 49z" />
    <glyph glyph-name="Ntilde" unicode="&#xd1;" horiz-adv-x="698" 
d="M528 0l-42.9941 131.999c-16.667 49.333 -34.834 99.333 -54.501 150s-39.834 99.834 -60.501 147.501s-41 89.167 -61 124.5l-133 -554h-95l166 693h83c21.333 -36 43.166 -76.833 65.499 -122.5s43.666 -92.5 63.999 -140.5s39.166 -95 56.499 -141
s31.666 -87.333 42.999 -124l124 528h95l-165 -693h-85zM560.006 862.999c10 -5.33301 19 -9.66602 27 -12.999s16 -5 24 -5c14 0 25.667 5.16699 35 15.5s17.666 21.166 24.999 32.499l47 -29c-13.333 -28 -29.166 -49.5 -47.499 -64.5s-42.5 -22.5 -72.5 -22.5
c-13.333 0 -25.166 2.33301 -35.499 7s-20.166 9.66699 -29.499 15c-10 5.33301 -19 9.66602 -27 12.999s-16 5 -24 5c-14 0 -25.667 -5.16699 -35 -15.5s-17.666 -21.166 -24.999 -32.499l-47 29c13.333 28 29.166 49.5 47.499 64.5s42.5 22.5 72.5 22.5
c13.333 0 25.166 -2.33301 35.499 -7s20.166 -9.66699 29.499 -15z" />
    <glyph glyph-name="Ograve" unicode="&#xd2;" horiz-adv-x="739" 
d="M525 709c36.667 0 70.499 -5.49902 101.499 -16.499s57.667 -27.5 80 -49.5s39.666 -49.5 51.999 -82.5s18.5 -71.5 18.5 -115.5c0 -55.333 -8.5 -110.333 -25.5 -165s-42.167 -103.834 -75.5 -147.501s-75 -79.167 -125 -106.5s-108.333 -41 -175 -41
c-37.333 0 -71.333 5.5 -102 16.5s-57.167 27.5 -79.5 49.5s-39.666 49.5 -51.999 82.5s-18.5 71.5 -18.5 115.5c0 54.667 8.33301 109.5 25 164.5s41.834 104.333 75.501 148s75.5 79.167 125.5 106.5s108.333 41 175 41zM385.999 69.001c44.667 0 85 10.833 121 32.5
s66.5 49.834 91.5 84.501s44.167 73.667 57.5 117s20 86.666 20 129.999c0 59.333 -12.833 106.166 -38.5 140.499s-66.5 51.5 -122.5 51.5c-45.333 0 -85.833 -10.833 -121.5 -32.5s-66 -49.834 -91 -84.501s-44.167 -73.667 -57.5 -117s-20 -86.666 -20 -129.999
c0 -59.333 12.833 -106.166 38.5 -140.499s66.5 -51.5 122.5 -51.5zM507.999 935.001l127 -160l-49 -43l-146 146z" />
    <glyph glyph-name="Oacute" unicode="&#xd3;" horiz-adv-x="739" 
d="M525 709c36.667 0 70.499 -5.49902 101.499 -16.499s57.667 -27.5 80 -49.5s39.666 -49.5 51.999 -82.5s18.5 -71.5 18.5 -115.5c0 -55.333 -8.5 -110.333 -25.5 -165s-42.167 -103.834 -75.5 -147.501s-75 -79.167 -125 -106.5s-108.333 -41 -175 -41
c-37.333 0 -71.333 5.5 -102 16.5s-57.167 27.5 -79.5 49.5s-39.666 49.5 -51.999 82.5s-18.5 71.5 -18.5 115.5c0 54.667 8.33301 109.5 25 164.5s41.834 104.333 75.501 148s75.5 79.167 125.5 106.5s108.333 41 175 41zM385.999 69.001c44.667 0 85 10.833 121 32.5
s66.5 49.834 91.5 84.501s44.167 73.667 57.5 117s20 86.666 20 129.999c0 59.333 -12.833 106.166 -38.5 140.499s-66.5 51.5 -122.5 51.5c-45.333 0 -85.833 -10.833 -121.5 -32.5s-66 -49.834 -91 -84.501s-44.167 -73.667 -57.5 -117s-20 -86.666 -20 -129.999
c0 -59.333 12.833 -106.166 38.5 -140.499s66.5 -51.5 122.5 -51.5zM679.999 864.001l-169 -128l-40 49l158 151z" />
    <glyph glyph-name="Ocircumflex" unicode="&#xd4;" horiz-adv-x="739" 
d="M525 709c36.667 0 70.499 -5.49902 101.499 -16.499s57.667 -27.5 80 -49.5s39.666 -49.5 51.999 -82.5s18.5 -71.5 18.5 -115.5c0 -55.333 -8.5 -110.333 -25.5 -165s-42.167 -103.834 -75.5 -147.501s-75 -79.167 -125 -106.5s-108.333 -41 -175 -41
c-37.333 0 -71.333 5.5 -102 16.5s-57.167 27.5 -79.5 49.5s-39.666 49.5 -51.999 82.5s-18.5 71.5 -18.5 115.5c0 54.667 8.33301 109.5 25 164.5s41.834 104.333 75.501 148s75.5 79.167 125.5 106.5s108.333 41 175 41zM385.999 69.001c44.667 0 85 10.833 121 32.5
s66.5 49.834 91.5 84.501s44.167 73.667 57.5 117s20 86.666 20 129.999c0 59.333 -12.833 106.166 -38.5 140.499s-66.5 51.5 -122.5 51.5c-45.333 0 -85.833 -10.833 -121.5 -32.5s-66 -49.834 -91 -84.501s-44.167 -73.667 -57.5 -117s-20 -86.666 -20 -129.999
c0 -59.333 12.833 -106.166 38.5 -140.499s66.5 -51.5 122.5 -51.5zM564.999 823.001l-112 -82l-33 45l162 139l106 -148l-44 -41z" />
    <glyph glyph-name="Otilde" unicode="&#xd5;" horiz-adv-x="739" 
d="M525 709c36.667 0 70.499 -5.49902 101.499 -16.499s57.667 -27.5 80 -49.5s39.666 -49.5 51.999 -82.5s18.5 -71.5 18.5 -115.5c0 -55.333 -8.5 -110.333 -25.5 -165s-42.167 -103.834 -75.5 -147.501s-75 -79.167 -125 -106.5s-108.333 -41 -175 -41
c-37.333 0 -71.333 5.5 -102 16.5s-57.167 27.5 -79.5 49.5s-39.666 49.5 -51.999 82.5s-18.5 71.5 -18.5 115.5c0 54.667 8.33301 109.5 25 164.5s41.834 104.333 75.501 148s75.5 79.167 125.5 106.5s108.333 41 175 41zM385.999 69.001c44.667 0 85 10.833 121 32.5
s66.5 49.834 91.5 84.501s44.167 73.667 57.5 117s20 86.666 20 129.999c0 59.333 -12.833 106.166 -38.5 140.499s-66.5 51.5 -122.5 51.5c-45.333 0 -85.833 -10.833 -121.5 -32.5s-66 -49.834 -91 -84.501s-44.167 -73.667 -57.5 -117s-20 -86.666 -20 -129.999
c0 -59.333 12.833 -106.166 38.5 -140.499s66.5 -51.5 122.5 -51.5zM579.999 863.001c10 -5.33301 19 -9.66602 27 -12.999s16 -5 24 -5c14 0 25.667 5.16699 35 15.5s17.666 21.166 24.999 32.499l47 -29c-13.333 -28 -29.166 -49.5 -47.499 -64.5s-42.5 -22.5 -72.5 -22.5
c-13.333 0 -25.166 2.33301 -35.499 7s-20.166 9.66699 -29.499 15c-10 5.33301 -19 9.66602 -27 12.999s-16 5 -24 5c-14 0 -25.667 -5.16699 -35 -15.5s-17.666 -21.166 -24.999 -32.499l-47 29c13.333 28 29.166 49.5 47.499 64.5s42.5 22.5 72.5 22.5
c13.333 0 25.166 -2.33301 35.499 -7s20.166 -9.66699 29.499 -15z" />
    <glyph glyph-name="Odieresis" unicode="&#xd6;" horiz-adv-x="739" 
d="M525 709c36.667 0 70.499 -5.49902 101.499 -16.499s57.667 -27.5 80 -49.5s39.666 -49.5 51.999 -82.5s18.5 -71.5 18.5 -115.5c0 -55.333 -8.5 -110.333 -25.5 -165s-42.167 -103.834 -75.5 -147.501s-75 -79.167 -125 -106.5s-108.333 -41 -175 -41
c-37.333 0 -71.333 5.5 -102 16.5s-57.167 27.5 -79.5 49.5s-39.666 49.5 -51.999 82.5s-18.5 71.5 -18.5 115.5c0 54.667 8.33301 109.5 25 164.5s41.834 104.333 75.501 148s75.5 79.167 125.5 106.5s108.333 41 175 41zM385.999 69.001c44.667 0 85 10.833 121 32.5
s66.5 49.834 91.5 84.501s44.167 73.667 57.5 117s20 86.666 20 129.999c0 59.333 -12.833 106.166 -38.5 140.499s-66.5 51.5 -122.5 51.5c-45.333 0 -85.833 -10.833 -121.5 -32.5s-66 -49.834 -91 -84.501s-44.167 -73.667 -57.5 -117s-20 -86.666 -20 -129.999
c0 -59.333 12.833 -106.166 38.5 -140.499s66.5 -51.5 122.5 -51.5zM465.999 772.001c-14.667 0 -26.999 4.66797 -36.999 14.001s-15 21.666 -15 36.999c0 20 6.66699 36.167 20 48.5s27.666 18.5 42.999 18.5c14.667 0 27.167 -4.83301 37.5 -14.5s15.5 -22.5 15.5 -38.5
c0 -19.333 -6.83301 -35 -20.5 -47s-28.167 -18 -43.5 -18zM656 772.002c-14.667 0 -26.999 4.66797 -36.999 14.001s-15 21.666 -15 36.999c0 20 6.66699 36.167 20 48.5s27.666 18.5 42.999 18.5c14.667 0 27.167 -4.83301 37.5 -14.5s15.5 -22.5 15.5 -38.5
c0 -19.333 -6.83301 -35 -20.5 -47s-28.167 -18 -43.5 -18z" />
    <glyph glyph-name="multiply" unicode="&#xd7;" horiz-adv-x="564" 
d="M343 242l-180 -147l-47 60l182 147l-109 144l63 51l109 -144l180 147l47 -60l-182 -147l109 -144l-63 -51z" />
    <glyph glyph-name="Oslash" unicode="&#xd8;" horiz-adv-x="739" 
d="M525 709c61.333 0 113.332 -15.333 155.999 -46l59 67l56 -43l-65 -74c14.667 -21.333 26 -45.666 34 -72.999s12 -59 12 -95c0 -55.333 -8.5 -110.333 -25.5 -165s-42.167 -103.834 -75.5 -147.501s-75 -79.167 -125 -106.5s-108.333 -41 -175 -41
c-62.667 0 -115 15 -157 45l-58 -66l-57 43l65 74c-30 42.667 -45 98.667 -45 168c0 54.667 8.33301 109.5 25 164.5s41.834 104.333 75.501 148s75.5 79.167 125.5 106.5s108.333 41 175 41zM385.999 69c44.667 0 84.999 10.832 120.999 32.499s66.5 49.834 91.5 84.501
s44.167 73.667 57.5 117s20 86.666 20 129.999c0 19.333 -1 37.333 -3 54s-5.66699 32.334 -11 47.001l-381 -433c12.667 -11.333 27.834 -19.5 45.501 -24.5s37.5 -7.5 59.5 -7.5zM224.998 260.999c0 -19.333 1 -37.668 3 -55.001s5.66699 -32.666 11 -45.999l380 433
c-25.333 21.333 -60 32 -104 32c-45.333 0 -85.833 -10.833 -121.5 -32.5s-66 -49.834 -91 -84.501s-44.167 -73.667 -57.5 -117s-20 -86.666 -20 -129.999z" />
    <glyph glyph-name="Ugrave" unicode="&#xd9;" horiz-adv-x="666" 
d="M334 -15c-34.667 0 -64.668 5.16406 -90.001 15.4971s-46.333 24.333 -63 42s-29 38.667 -37 63s-12 50.5 -12 78.5c0 14.667 1.33301 31 4 49s5.66699 34.667 9 50l98 410h97l-100 -416c-3.33301 -12.667 -6 -26.667 -8 -42s-3 -29.666 -3 -42.999
c0 -17.333 2 -33.333 6 -48s10.833 -27.5 20.5 -38.5s22.167 -19.667 37.5 -26s34 -9.5 56 -9.5c56.667 0 100.667 15.833 132 47.5s55 82.167 71 151.5l102 424h97l-104 -435c-9.33301 -38 -20.166 -73.667 -32.499 -107s-29.833 -62.166 -52.5 -86.499
s-52.167 -43.666 -88.5 -57.999s-82.833 -21.5 -139.5 -21.5zM466.999 934.997l127 -160l-49 -43l-146 146z" />
    <glyph glyph-name="Uacute" unicode="&#xda;" horiz-adv-x="666" 
d="M334 -15c-34.667 0 -64.668 5.16406 -90.001 15.4971s-46.333 24.333 -63 42s-29 38.667 -37 63s-12 50.5 -12 78.5c0 14.667 1.33301 31 4 49s5.66699 34.667 9 50l98 410h97l-100 -416c-3.33301 -12.667 -6 -26.667 -8 -42s-3 -29.666 -3 -42.999
c0 -17.333 2 -33.333 6 -48s10.833 -27.5 20.5 -38.5s22.167 -19.667 37.5 -26s34 -9.5 56 -9.5c56.667 0 100.667 15.833 132 47.5s55 82.167 71 151.5l102 424h97l-104 -435c-9.33301 -38 -20.166 -73.667 -32.499 -107s-29.833 -62.166 -52.5 -86.499
s-52.167 -43.666 -88.5 -57.999s-82.833 -21.5 -139.5 -21.5zM638.999 863.997l-169 -128l-40 49l158 151z" />
    <glyph glyph-name="Ucircumflex" unicode="&#xdb;" horiz-adv-x="666" 
d="M334 -15c-34.667 0 -64.668 5.16406 -90.001 15.4971s-46.333 24.333 -63 42s-29 38.667 -37 63s-12 50.5 -12 78.5c0 14.667 1.33301 31 4 49s5.66699 34.667 9 50l98 410h97l-100 -416c-3.33301 -12.667 -6 -26.667 -8 -42s-3 -29.666 -3 -42.999
c0 -17.333 2 -33.333 6 -48s10.833 -27.5 20.5 -38.5s22.167 -19.667 37.5 -26s34 -9.5 56 -9.5c56.667 0 100.667 15.833 132 47.5s55 82.167 71 151.5l102 424h97l-104 -435c-9.33301 -38 -20.166 -73.667 -32.499 -107s-29.833 -62.166 -52.5 -86.499
s-52.167 -43.666 -88.5 -57.999s-82.833 -21.5 -139.5 -21.5zM523.999 822.997l-112 -82l-33 45l162 139l106 -148l-44 -41z" />
    <glyph glyph-name="Udieresis" unicode="&#xdc;" horiz-adv-x="666" 
d="M334 -15c-34.667 0 -64.668 5.16406 -90.001 15.4971s-46.333 24.333 -63 42s-29 38.667 -37 63s-12 50.5 -12 78.5c0 14.667 1.33301 31 4 49s5.66699 34.667 9 50l98 410h97l-100 -416c-3.33301 -12.667 -6 -26.667 -8 -42s-3 -29.666 -3 -42.999
c0 -17.333 2 -33.333 6 -48s10.833 -27.5 20.5 -38.5s22.167 -19.667 37.5 -26s34 -9.5 56 -9.5c56.667 0 100.667 15.833 132 47.5s55 82.167 71 151.5l102 424h97l-104 -435c-9.33301 -38 -20.166 -73.667 -32.499 -107s-29.833 -62.166 -52.5 -86.499
s-52.167 -43.666 -88.5 -57.999s-82.833 -21.5 -139.5 -21.5zM424.999 771.997c-14.667 0 -26.999 4.66797 -36.999 14.001s-15 21.666 -15 36.999c0 20 6.66699 36.167 20 48.5s27.666 18.5 42.999 18.5c14.667 0 27.167 -4.83301 37.5 -14.5s15.5 -22.5 15.5 -38.5
c0 -19.333 -6.83301 -35 -20.5 -47s-28.167 -18 -43.5 -18zM615 771.998c-14.667 0 -26.999 4.66797 -36.999 14.001s-15 21.666 -15 36.999c0 20 6.66699 36.167 20 48.5s27.666 18.5 42.999 18.5c14.667 0 27.167 -4.83301 37.5 -14.5s15.5 -22.5 15.5 -38.5
c0 -19.333 -6.83301 -35 -20.5 -47s-28.167 -18 -43.5 -18z" />
    <glyph glyph-name="Yacute" unicode="&#xdd;" horiz-adv-x="572" 
d="M232 0l65.999 278c-26 70 -50.167 140.167 -72.5 210.5s-42.833 138.5 -61.5 204.5h105c12.667 -54 26.834 -109 42.501 -165s33.167 -110 52.5 -162l133.5 162c45 56.667 84.833 111.667 119.5 165h111l-157 -204.5l-176 -210.5l-66 -278h-97zM589.999 864l-169 -128
l-40 49l158 151z" />
    <glyph glyph-name="Thorn" unicode="&#xde;" horiz-adv-x="594" 
d="M344 693l-27.002 -114c12.667 1.33301 25.834 2.16602 39.501 2.49902s26.834 0.5 39.501 0.5c80.667 0 141.167 -15 181.5 -45s60.5 -74.333 60.5 -133c0 -45.333 -8.5 -84.5 -25.5 -117.5s-41.167 -60.167 -72.5 -81.5s-69 -37.166 -113 -47.499s-93 -15.5 -147 -15.5
h-69l-34 -142h-97l167 693h97zM381.998 500c-24.667 0 -43.999 -0.499023 -57.999 -1.49902s-23.333 -1.83301 -28 -2.5l-65 -273h62c28 0 56.667 2.5 86 7.5s55.666 13.833 78.999 26.5s42.5 30.167 57.5 52.5s22.5 51.166 22.5 86.499c0 38 -14 64.833 -42 80.5
s-66 23.5 -114 23.5z" />
    <glyph glyph-name="germandbls" unicode="&#xdf;" horiz-adv-x="600" 
d="M194 112l-21.002 -91.0029c-6 -26.667 -13.167 -51.667 -21.5 -75s-19.333 -45.833 -33 -67.5s-32.167 -44.167 -55.5 -67.5l-82 12c20 26 35.667 48 47 66s20.833 36.333 28.5 55s14.334 40.167 20.001 64.5l22.5 94.5l108 451c18.667 78.667 49.667 135.334 93 170.001
s100.333 52 171 52c26.667 0 50 -3.66699 70 -11s36.667 -17.166 50 -29.499s23.333 -26.666 30 -42.999s10 -33.5 10 -51.5c0 -19.333 -2.16699 -36.166 -6.5 -50.499s-11 -27.833 -20 -40.5s-20 -25.167 -33 -37.5l-45.5 -42.5l-29.5 -26
c-8.33301 -7.33301 -15.166 -14.333 -20.499 -21s-9.33301 -13.834 -12 -21.501s-4 -16.5 -4 -26.5c0 -14 5.5 -25.667 16.5 -35s26.167 -20.666 45.5 -33.999c12.667 -8.66699 24.334 -17.334 35.001 -26.001s20 -18.334 28 -29.001s14.333 -22.667 19 -36s7 -29 7 -47
c0 -30 -5.5 -56.333 -16.5 -79s-26 -41.5 -45 -56.5s-41.833 -26.167 -68.5 -33.5s-55.334 -11 -86.001 -11c-38 0 -69.833 4.33301 -95.5 13s-41.834 15.667 -48.501 21l35 75c7.33301 -4.66699 20.833 -11 40.5 -19s44.834 -12 75.501 -12c34 0 61.833 8 83.5 24
s32.5 40 32.5 72c0 20 -5.5 36.833 -16.5 50.5s-30.5 29.167 -58.5 46.5c-17.333 10.667 -31 20.5 -41 29.5s-17.667 17.833 -23 26.5s-8.66602 17.334 -9.99902 26.001s-2 18 -2 28c0 28.667 9.16699 54 27.5 76s40.166 43.667 65.499 65l32.5 28
c9.66699 8.66699 18 17.5 25 26.5s12.333 18.833 16 29.5s5.5 22.667 5.5 36c0 20 -6.66699 36 -20 48s-33.333 18 -60 18c-83.333 0 -136.333 -48 -159 -144z" />
    <glyph glyph-name="agrave" unicode="&#xe0;" horiz-adv-x="544" 
d="M432 -6c-3.33301 7.33301 -6.66895 15.4971 -10.002 24.4971s-6 18.5 -8 28.5c-14.667 -13.333 -34.334 -26.666 -59.001 -39.999s-55 -20 -91 -20c-29.333 0 -54.5 4.66699 -75.5 14s-38.167 22.333 -51.5 39s-23.166 36.334 -29.499 59.001s-9.5 47.667 -9.5 75
c0 44.667 7.5 88.334 22.5 131.001s37.5 80.667 67.5 114s67.667 60.333 113 81s98.333 31 159 31c18 0 39 -2 63 -6s44.667 -10.667 62 -20l-77 -314c-3.33301 -15.333 -6.16602 -30 -8.49902 -44s-3.5 -28.667 -3.5 -44s1.33301 -30.833 4 -46.5
s7.33398 -32.5 14.001 -50.5zM282.997 65.9971c28 0 51.999 5.99902 71.999 17.999s37.333 26 52 42c0.666992 11.333 1.83398 23.166 3.50098 35.499s3.83398 24.833 6.50098 37.5l60 248c-3.33301 1.33301 -8.83301 2.33301 -16.5 3s-14.5 1 -20.5 1
c-38 0 -72.333 -7.33301 -103 -22s-56.834 -34.167 -78.501 -58.5s-38.334 -52.666 -50.001 -84.999s-17.5 -66.166 -17.5 -101.499c0 -14 1.33301 -28.167 4 -42.5s7.5 -27 14.5 -38s16.333 -20 28 -27s26.834 -10.5 45.501 -10.5zM382.996 778.996l127 -160l-49 -43
l-146 146z" />
    <glyph glyph-name="aacute" unicode="&#xe1;" horiz-adv-x="544" 
d="M432 -6c-3.33301 7.33301 -6.66895 15.4971 -10.002 24.4971s-6 18.5 -8 28.5c-14.667 -13.333 -34.334 -26.666 -59.001 -39.999s-55 -20 -91 -20c-29.333 0 -54.5 4.66699 -75.5 14s-38.167 22.333 -51.5 39s-23.166 36.334 -29.499 59.001s-9.5 47.667 -9.5 75
c0 44.667 7.5 88.334 22.5 131.001s37.5 80.667 67.5 114s67.667 60.333 113 81s98.333 31 159 31c18 0 39 -2 63 -6s44.667 -10.667 62 -20l-77 -314c-3.33301 -15.333 -6.16602 -30 -8.49902 -44s-3.5 -28.667 -3.5 -44s1.33301 -30.833 4 -46.5
s7.33398 -32.5 14.001 -50.5zM282.997 65.9971c28 0 51.999 5.99902 71.999 17.999s37.333 26 52 42c0.666992 11.333 1.83398 23.166 3.50098 35.499s3.83398 24.833 6.50098 37.5l60 248c-3.33301 1.33301 -8.83301 2.33301 -16.5 3s-14.5 1 -20.5 1
c-38 0 -72.333 -7.33301 -103 -22s-56.834 -34.167 -78.501 -58.5s-38.334 -52.666 -50.001 -84.999s-17.5 -66.166 -17.5 -101.499c0 -14 1.33301 -28.167 4 -42.5s7.5 -27 14.5 -38s16.333 -20 28 -27s26.834 -10.5 45.501 -10.5zM553.996 707.996l-169 -128l-40 49
l158 151z" />
    <glyph glyph-name="acircumflex" unicode="&#xe2;" horiz-adv-x="544" 
d="M432 -6c-3.33301 7.33301 -6.66895 15.4971 -10.002 24.4971s-6 18.5 -8 28.5c-14.667 -13.333 -34.334 -26.666 -59.001 -39.999s-55 -20 -91 -20c-29.333 0 -54.5 4.66699 -75.5 14s-38.167 22.333 -51.5 39s-23.166 36.334 -29.499 59.001s-9.5 47.667 -9.5 75
c0 44.667 7.5 88.334 22.5 131.001s37.5 80.667 67.5 114s67.667 60.333 113 81s98.333 31 159 31c18 0 39 -2 63 -6s44.667 -10.667 62 -20l-77 -314c-3.33301 -15.333 -6.16602 -30 -8.49902 -44s-3.5 -28.667 -3.5 -44s1.33301 -30.833 4 -46.5
s7.33398 -32.5 14.001 -50.5zM282.997 65.9971c28 0 51.999 5.99902 71.999 17.999s37.333 26 52 42c0.666992 11.333 1.83398 23.166 3.50098 35.499s3.83398 24.833 6.50098 37.5l60 248c-3.33301 1.33301 -8.83301 2.33301 -16.5 3s-14.5 1 -20.5 1
c-38 0 -72.333 -7.33301 -103 -22s-56.834 -34.167 -78.501 -58.5s-38.334 -52.666 -50.001 -84.999s-17.5 -66.166 -17.5 -101.499c0 -14 1.33301 -28.167 4 -42.5s7.5 -27 14.5 -38s16.333 -20 28 -27s26.834 -10.5 45.501 -10.5zM439.996 666.996l-112 -82l-33 45
l162 139l106 -148l-44 -41z" />
    <glyph glyph-name="atilde" unicode="&#xe3;" horiz-adv-x="544" 
d="M432 -6c-3.33301 7.33301 -6.66895 15.4971 -10.002 24.4971s-6 18.5 -8 28.5c-14.667 -13.333 -34.334 -26.666 -59.001 -39.999s-55 -20 -91 -20c-29.333 0 -54.5 4.66699 -75.5 14s-38.167 22.333 -51.5 39s-23.166 36.334 -29.499 59.001s-9.5 47.667 -9.5 75
c0 44.667 7.5 88.334 22.5 131.001s37.5 80.667 67.5 114s67.667 60.333 113 81s98.333 31 159 31c18 0 39 -2 63 -6s44.667 -10.667 62 -20l-77 -314c-3.33301 -15.333 -6.16602 -30 -8.49902 -44s-3.5 -28.667 -3.5 -44s1.33301 -30.833 4 -46.5
s7.33398 -32.5 14.001 -50.5zM282.997 65.9971c28 0 51.999 5.99902 71.999 17.999s37.333 26 52 42c0.666992 11.333 1.83398 23.166 3.50098 35.499s3.83398 24.833 6.50098 37.5l60 248c-3.33301 1.33301 -8.83301 2.33301 -16.5 3s-14.5 1 -20.5 1
c-38 0 -72.333 -7.33301 -103 -22s-56.834 -34.167 -78.501 -58.5s-38.334 -52.666 -50.001 -84.999s-17.5 -66.166 -17.5 -101.499c0 -14 1.33301 -28.167 4 -42.5s7.5 -27 14.5 -38s16.333 -20 28 -27s26.834 -10.5 45.501 -10.5zM454.996 706.996
c10 -5.33301 19 -9.66602 27 -12.999s16 -5 24 -5c14 0 25.667 5.16699 35 15.5s17.666 21.166 24.999 32.499l47 -29c-13.333 -28 -29.166 -49.5 -47.499 -64.5s-42.5 -22.5 -72.5 -22.5c-13.333 0 -25.166 2.33301 -35.499 7s-20.166 9.66699 -29.499 15
c-10 5.33301 -19 9.66602 -27 12.999s-16 5 -24 5c-14 0 -25.667 -5.16699 -35 -15.5s-17.666 -21.166 -24.999 -32.499l-47 29c13.333 28 29.166 49.5 47.499 64.5s42.5 22.5 72.5 22.5c13.333 0 25.166 -2.33301 35.499 -7s20.166 -9.66699 29.499 -15z" />
    <glyph glyph-name="adieresis" unicode="&#xe4;" horiz-adv-x="544" 
d="M432 -6c-3.33301 7.33301 -6.66895 15.4971 -10.002 24.4971s-6 18.5 -8 28.5c-14.667 -13.333 -34.334 -26.666 -59.001 -39.999s-55 -20 -91 -20c-29.333 0 -54.5 4.66699 -75.5 14s-38.167 22.333 -51.5 39s-23.166 36.334 -29.499 59.001s-9.5 47.667 -9.5 75
c0 44.667 7.5 88.334 22.5 131.001s37.5 80.667 67.5 114s67.667 60.333 113 81s98.333 31 159 31c18 0 39 -2 63 -6s44.667 -10.667 62 -20l-77 -314c-3.33301 -15.333 -6.16602 -30 -8.49902 -44s-3.5 -28.667 -3.5 -44s1.33301 -30.833 4 -46.5
s7.33398 -32.5 14.001 -50.5zM282.997 65.9971c28 0 51.999 5.99902 71.999 17.999s37.333 26 52 42c0.666992 11.333 1.83398 23.166 3.50098 35.499s3.83398 24.833 6.50098 37.5l60 248c-3.33301 1.33301 -8.83301 2.33301 -16.5 3s-14.5 1 -20.5 1
c-38 0 -72.333 -7.33301 -103 -22s-56.834 -34.167 -78.501 -58.5s-38.334 -52.666 -50.001 -84.999s-17.5 -66.166 -17.5 -101.499c0 -14 1.33301 -28.167 4 -42.5s7.5 -27 14.5 -38s16.333 -20 28 -27s26.834 -10.5 45.501 -10.5zM339.996 615.996
c-14.667 0 -26.999 4.66797 -36.999 14.001s-15 21.666 -15 36.999c0 20 6.66699 36.167 20 48.5s27.666 18.5 42.999 18.5c14.667 0 27.167 -4.83301 37.5 -14.5s15.5 -22.5 15.5 -38.5c0 -19.333 -6.83301 -35 -20.5 -47s-28.167 -18 -43.5 -18zM529.997 615.997
c-14.667 0 -26.999 4.66797 -36.999 14.001s-15 21.666 -15 36.999c0 20 6.66699 36.167 20 48.5s27.666 18.5 42.999 18.5c14.667 0 27.167 -4.83301 37.5 -14.5s15.5 -22.5 15.5 -38.5c0 -19.333 -6.83301 -35 -20.5 -47s-28.167 -18 -43.5 -18z" />
    <glyph glyph-name="aring" unicode="&#xe5;" horiz-adv-x="544" 
d="M432 -6c-3.33301 7.33301 -6.66895 15.4971 -10.002 24.4971s-6 18.5 -8 28.5c-14.667 -13.333 -34.334 -26.666 -59.001 -39.999s-55 -20 -91 -20c-29.333 0 -54.5 4.66699 -75.5 14s-38.167 22.333 -51.5 39s-23.166 36.334 -29.499 59.001s-9.5 47.667 -9.5 75
c0 44.667 7.5 88.334 22.5 131.001s37.5 80.667 67.5 114s67.667 60.333 113 81s98.333 31 159 31c18 0 39 -2 63 -6s44.667 -10.667 62 -20l-77 -314c-3.33301 -15.333 -6.16602 -30 -8.49902 -44s-3.5 -28.667 -3.5 -44s1.33301 -30.833 4 -46.5
s7.33398 -32.5 14.001 -50.5zM282.997 65.9971c28 0 51.999 5.99902 71.999 17.999s37.333 26 52 42c0.666992 11.333 1.83398 23.166 3.50098 35.499s3.83398 24.833 6.50098 37.5l60 248c-3.33301 1.33301 -8.83301 2.33301 -16.5 3s-14.5 1 -20.5 1
c-38 0 -72.333 -7.33301 -103 -22s-56.834 -34.167 -78.501 -58.5s-38.334 -52.666 -50.001 -84.999s-17.5 -66.166 -17.5 -101.499c0 -14 1.33301 -28.167 4 -42.5s7.5 -27 14.5 -38s16.333 -20 28 -27s26.834 -10.5 45.501 -10.5zM541.996 676.996
c0 -16 -2.83301 -30.167 -8.5 -42.5s-13.167 -23 -22.5 -32s-20.166 -15.833 -32.499 -20.5s-25.5 -7 -39.5 -7s-27.167 2.33301 -39.5 7s-23.166 11.5 -32.499 20.5s-16.833 19.667 -22.5 32s-8.5 26.5 -8.5 42.5s2.83301 30.167 8.5 42.5s13.167 23 22.5 32
s20.166 15.833 32.499 20.5s25.5 7 39.5 7s27.167 -2.33301 39.5 -7s23.166 -11.5 32.499 -20.5s16.833 -19.667 22.5 -32s8.5 -26.5 8.5 -42.5zM491.996 676.996c0 17.333 -5.16699 30.833 -15.5 40.5s-22.833 14.5 -37.5 14.5s-27.167 -4.83301 -37.5 -14.5
s-15.5 -23.167 -15.5 -40.5s5.16699 -30.833 15.5 -40.5s22.833 -14.5 37.5 -14.5s27.167 4.83301 37.5 14.5s15.5 23.167 15.5 40.5z" />
    <glyph glyph-name="ae" unicode="&#xe6;" horiz-adv-x="836" 
d="M786 23c-17.333 -9.33301 -40.5 -17.667 -69.5 -25s-59.5 -11 -91.5 -11c-18 0 -35.833 1.66699 -53.5 5s-34.167 8.83301 -49.5 16.5s-29.166 17.667 -41.499 30s-22.166 27.833 -29.499 46.5c-23.333 -30.667 -53 -54.667 -89 -72s-75 -26 -117 -26
c-19.333 0 -38 2.5 -56 7.5s-33.667 12.667 -47 23s-24 23.5 -32 39.5s-12 35 -12 57c0 46.667 11.5 83.167 34.5 109.5s52 45.833 87 58.5s73.167 20.834 114.5 24.501s80.666 6.5 117.999 8.5c0.666992 5.33301 1.16699 10.5 1.5 15.5s0.5 10.167 0.5 15.5
c0 36 -10 62.167 -30 78.5s-52 24.5 -96 24.5c-13.333 0 -26.666 -1.33301 -39.999 -4s-26 -5.66699 -38 -9s-22.833 -7 -32.5 -11s-16.834 -7.33301 -21.501 -10l-8 79c15.333 8 37.5 16 66.5 24s59.5 12 91.5 12c17.333 0 34.666 -1.66699 51.999 -5
s33.833 -8.66602 49.5 -15.999s30 -17.5 43 -30.5s23.833 -28.833 32.5 -47.5c12.667 16.667 27 31.167 43 43.5s33 22.666 51 30.999s36.333 14.5 55 18.5s37 6 55 6c20 0 39.167 -2.33301 57.5 -7s34.166 -12.167 47.499 -22.5s24 -23.5 32 -39.5s12 -35.333 12 -58
c0 -31.333 -5.33301 -57.833 -16 -79.5s-25 -39.834 -43 -54.501s-38.833 -26 -62.5 -34s-48.667 -14.333 -75 -19s-53 -7.83398 -80 -9.50098s-52.833 -3.16699 -77.5 -4.5c-0.666992 -5.33301 -1.16699 -10.5 -1.5 -15.5s-0.5 -9.83301 -0.5 -14.5
c0 -38 10 -64.833 30 -80.5s52 -23.5 96 -23.5c12.667 0 25.834 1.16699 39.501 3.5s26.667 5.33301 39 9s23.333 7.33398 33 11.001s16.5 7.16699 20.5 10.5zM441 243.999c-47.333 -1.33301 -86.999 -4.66797 -118.999 -10.001s-57.833 -13 -77.5 -23
s-33.834 -22 -42.501 -36s-13 -30 -13 -48c0 -21.333 7 -37.166 21 -47.499s32.333 -15.5 55 -15.5c44 0 81.5 15.5 112.5 46.5s52.167 75.5 63.5 133.5zM533.001 272.997c46.667 0.666992 86.166 3.83398 118.499 9.50098s58.333 13.5 78 23.5s33.834 22 42.501 36
s13 30 13 48c0 21.333 -7 37.166 -21 47.499s-32.333 15.5 -55 15.5c-44 0 -81.5 -15.5 -112.5 -46.5s-52.167 -75.5 -63.5 -133.5z" />
    <glyph glyph-name="ccedilla" unicode="&#xe7;" horiz-adv-x="451" 
d="M100 186c0 45.333 6.83398 89 20.501 131s33.834 79 60.501 111s59.334 57.5 98.001 76.5s83 28.5 133 28.5c22 0 43 -1.5 63 -4.5s39 -8.83301 57 -17.5l-35 -78c-10.667 6 -23.167 10.667 -37.5 14s-32.833 5 -55.5 5c-32.667 0 -62 -7.16699 -88 -21.5
s-48.167 -33.333 -66.5 -57s-32.333 -51 -42 -82s-14.5 -63.167 -14.5 -96.5c0 -17.333 1.83301 -33.666 5.5 -48.999s10.167 -28.833 19.5 -40.5s21.833 -20.834 37.5 -27.501s35.5 -10 59.5 -10c12 0 24.667 1.16699 38 3.5s25.666 5.16602 36.999 8.49902
s21.5 6.83301 30.5 10.5s15.5 7.16699 19.5 10.5l8 -79c-12.667 -8 -32.334 -15.667 -59.001 -23s-56.334 -11.333 -89.001 -12l-9 -13l-8 -12c13.333 -7.33301 23.333 -15.333 30 -24s10 -20.667 10 -36c0 -30 -10.333 -52.667 -31 -68s-49 -23 -85 -23
c-19.333 0 -35.5 1.5 -48.5 4.5s-23.833 6.5 -32.5 10.5l23 55c5.33301 -2.66699 12.333 -5.16699 21 -7.5s19.334 -3.5 32.001 -3.5c11.333 0 20.666 1.83301 27.999 5.5s11 10.167 11 19.5c0 8 -2.66699 14 -8 18s-14.333 9 -27 15l-6 3
c4.66699 8.66699 11 18.834 19 30.501l22 31.5c-46 10.667 -81 33 -105 67s-36 76 -36 126z" />
    <glyph glyph-name="egrave" unicode="&#xe8;" horiz-adv-x="518" 
d="M204 273c38.667 1.33301 73.999 3.83105 105.999 7.49805s59.667 10 83 19s41.5 21.167 54.5 36.5s19.5 35.333 19.5 60c0 6 -1.16699 12.333 -3.5 19s-6.33301 12.834 -12 18.501s-13.5 10.334 -23.5 14.001s-22.333 5.5 -37 5.5c-23.333 0 -45.166 -5 -65.499 -15
s-38.5 -23.167 -54.5 -39.5s-29.667 -35.333 -41 -57s-20 -44.5 -26 -68.5zM298.999 -13.002c-34 0 -63.332 4.83398 -87.999 14.501s-45.334 23 -62.001 40s-29 36.833 -37 59.5s-12 46.667 -12 72c0 46.667 7 91.667 21 135s34 81.666 60 114.999s57.667 59.833 95 79.5
s79.666 29.5 126.999 29.5c27.333 0 50.833 -3.5 70.5 -10.5s35.667 -16.5 48 -28.5s21.5 -25.833 27.5 -41.5s9 -31.834 9 -48.501c0 -31.333 -5.66699 -57.833 -17 -79.5s-26.333 -39.834 -45 -54.501s-40.5 -26 -65.5 -34s-51 -14.333 -78 -19
s-54.333 -7.83398 -82 -9.50098s-53.834 -3.16699 -78.501 -4.5c-0.666992 -5.33301 -1 -9.66602 -1 -12.999v-8c0 -15.333 1.83301 -29.833 5.5 -43.5s10.5 -25.667 20.5 -36s23.833 -18.5 41.5 -24.5s40.834 -9 69.501 -9c12.667 0 25.834 1.16699 39.501 3.5
s26.667 5.33301 39 9s23.333 7.33398 33 11.001s16.5 7.16699 20.5 10.5l8 -79c-13.333 -7.33301 -34.833 -15.166 -64.5 -23.499s-64.5 -12.5 -104.5 -12.5zM374 778.999l127 -160l-49 -43l-146 146z" />
    <glyph glyph-name="eacute" unicode="&#xe9;" horiz-adv-x="518" 
d="M204 273c38.667 1.33301 73.999 3.83105 105.999 7.49805s59.667 10 83 19s41.5 21.167 54.5 36.5s19.5 35.333 19.5 60c0 6 -1.16699 12.333 -3.5 19s-6.33301 12.834 -12 18.501s-13.5 10.334 -23.5 14.001s-22.333 5.5 -37 5.5c-23.333 0 -45.166 -5 -65.499 -15
s-38.5 -23.167 -54.5 -39.5s-29.667 -35.333 -41 -57s-20 -44.5 -26 -68.5zM298.999 -13.002c-34 0 -63.332 4.83398 -87.999 14.501s-45.334 23 -62.001 40s-29 36.833 -37 59.5s-12 46.667 -12 72c0 46.667 7 91.667 21 135s34 81.666 60 114.999s57.667 59.833 95 79.5
s79.666 29.5 126.999 29.5c27.333 0 50.833 -3.5 70.5 -10.5s35.667 -16.5 48 -28.5s21.5 -25.833 27.5 -41.5s9 -31.834 9 -48.501c0 -31.333 -5.66699 -57.833 -17 -79.5s-26.333 -39.834 -45 -54.501s-40.5 -26 -65.5 -34s-51 -14.333 -78 -19
s-54.333 -7.83398 -82 -9.50098s-53.834 -3.16699 -78.501 -4.5c-0.666992 -5.33301 -1 -9.66602 -1 -12.999v-8c0 -15.333 1.83301 -29.833 5.5 -43.5s10.5 -25.667 20.5 -36s23.833 -18.5 41.5 -24.5s40.834 -9 69.501 -9c12.667 0 25.834 1.16699 39.501 3.5
s26.667 5.33301 39 9s23.333 7.33398 33 11.001s16.5 7.16699 20.5 10.5l8 -79c-13.333 -7.33301 -34.833 -15.166 -64.5 -23.499s-64.5 -12.5 -104.5 -12.5zM545 707.999l-169 -128l-40 49l158 151z" />
    <glyph glyph-name="ecircumflex" unicode="&#xea;" horiz-adv-x="518" 
d="M204 273c38.667 1.33301 73.999 3.83105 105.999 7.49805s59.667 10 83 19s41.5 21.167 54.5 36.5s19.5 35.333 19.5 60c0 6 -1.16699 12.333 -3.5 19s-6.33301 12.834 -12 18.501s-13.5 10.334 -23.5 14.001s-22.333 5.5 -37 5.5c-23.333 0 -45.166 -5 -65.499 -15
s-38.5 -23.167 -54.5 -39.5s-29.667 -35.333 -41 -57s-20 -44.5 -26 -68.5zM298.999 -13.002c-34 0 -63.332 4.83398 -87.999 14.501s-45.334 23 -62.001 40s-29 36.833 -37 59.5s-12 46.667 -12 72c0 46.667 7 91.667 21 135s34 81.666 60 114.999s57.667 59.833 95 79.5
s79.666 29.5 126.999 29.5c27.333 0 50.833 -3.5 70.5 -10.5s35.667 -16.5 48 -28.5s21.5 -25.833 27.5 -41.5s9 -31.834 9 -48.501c0 -31.333 -5.66699 -57.833 -17 -79.5s-26.333 -39.834 -45 -54.501s-40.5 -26 -65.5 -34s-51 -14.333 -78 -19
s-54.333 -7.83398 -82 -9.50098s-53.834 -3.16699 -78.501 -4.5c-0.666992 -5.33301 -1 -9.66602 -1 -12.999v-8c0 -15.333 1.83301 -29.833 5.5 -43.5s10.5 -25.667 20.5 -36s23.833 -18.5 41.5 -24.5s40.834 -9 69.501 -9c12.667 0 25.834 1.16699 39.501 3.5
s26.667 5.33301 39 9s23.333 7.33398 33 11.001s16.5 7.16699 20.5 10.5l8 -79c-13.333 -7.33301 -34.833 -15.166 -64.5 -23.499s-64.5 -12.5 -104.5 -12.5zM430 666.999l-112 -82l-33 45l162 139l106 -148l-44 -41z" />
    <glyph glyph-name="edieresis" unicode="&#xeb;" horiz-adv-x="518" 
d="M204 273c38.667 1.33301 73.999 3.83105 105.999 7.49805s59.667 10 83 19s41.5 21.167 54.5 36.5s19.5 35.333 19.5 60c0 6 -1.16699 12.333 -3.5 19s-6.33301 12.834 -12 18.501s-13.5 10.334 -23.5 14.001s-22.333 5.5 -37 5.5c-23.333 0 -45.166 -5 -65.499 -15
s-38.5 -23.167 -54.5 -39.5s-29.667 -35.333 -41 -57s-20 -44.5 -26 -68.5zM298.999 -13.002c-34 0 -63.332 4.83398 -87.999 14.501s-45.334 23 -62.001 40s-29 36.833 -37 59.5s-12 46.667 -12 72c0 46.667 7 91.667 21 135s34 81.666 60 114.999s57.667 59.833 95 79.5
s79.666 29.5 126.999 29.5c27.333 0 50.833 -3.5 70.5 -10.5s35.667 -16.5 48 -28.5s21.5 -25.833 27.5 -41.5s9 -31.834 9 -48.501c0 -31.333 -5.66699 -57.833 -17 -79.5s-26.333 -39.834 -45 -54.501s-40.5 -26 -65.5 -34s-51 -14.333 -78 -19
s-54.333 -7.83398 -82 -9.50098s-53.834 -3.16699 -78.501 -4.5c-0.666992 -5.33301 -1 -9.66602 -1 -12.999v-8c0 -15.333 1.83301 -29.833 5.5 -43.5s10.5 -25.667 20.5 -36s23.833 -18.5 41.5 -24.5s40.834 -9 69.501 -9c12.667 0 25.834 1.16699 39.501 3.5
s26.667 5.33301 39 9s23.333 7.33398 33 11.001s16.5 7.16699 20.5 10.5l8 -79c-13.333 -7.33301 -34.833 -15.166 -64.5 -23.499s-64.5 -12.5 -104.5 -12.5zM331 615.999c-14.667 0 -26.999 4.66797 -36.999 14.001s-15 21.666 -15 36.999c0 20 6.66699 36.167 20 48.5
s27.666 18.5 42.999 18.5c14.667 0 27.167 -4.83301 37.5 -14.5s15.5 -22.5 15.5 -38.5c0 -19.333 -6.83301 -35 -20.5 -47s-28.167 -18 -43.5 -18zM521.001 616c-14.667 0 -26.999 4.66797 -36.999 14.001s-15 21.666 -15 36.999c0 20 6.66699 36.167 20 48.5
s27.666 18.5 42.999 18.5c14.667 0 27.167 -4.83301 37.5 -14.5s15.5 -22.5 15.5 -38.5c0 -19.333 -6.83301 -35 -20.5 -47s-28.167 -18 -43.5 -18z" />
    <glyph glyph-name="igrave" unicode="&#xec;" horiz-adv-x="249" 
d="M169 0h-93l125 520h93zM229 779l127 -160l-49 -43l-146 146z" />
    <glyph glyph-name="iacute" unicode="&#xed;" horiz-adv-x="249" 
d="M169 0h-93l125 520h93zM401 708l-169 -128l-40 49l158 151z" />
    <glyph glyph-name="icircumflex" unicode="&#xee;" horiz-adv-x="249" 
d="M169 0h-93l125 520h93zM286 667l-112 -82l-33 45l162 139l106 -148l-44 -41z" />
    <glyph glyph-name="idieresis" unicode="&#xef;" horiz-adv-x="249" 
d="M169 0h-93l125 520h93zM186 616c-14.667 0 -26.999 4.66797 -36.999 14.001s-15 21.666 -15 36.999c0 20 6.66699 36.167 20 48.5s27.666 18.5 42.999 18.5c14.667 0 27.167 -4.83301 37.5 -14.5s15.5 -22.5 15.5 -38.5c0 -19.333 -6.83301 -35 -20.5 -47
s-28.167 -18 -43.5 -18zM376.001 616.001c-14.667 0 -26.999 4.66797 -36.999 14.001s-15 21.666 -15 36.999c0 20 6.66699 36.167 20 48.5s27.666 18.5 42.999 18.5c14.667 0 27.167 -4.83301 37.5 -14.5s15.5 -22.5 15.5 -38.5c0 -19.333 -6.83301 -35 -20.5 -47
s-28.167 -18 -43.5 -18z" />
    <glyph glyph-name="eth" unicode="&#xf0;" horiz-adv-x="569" 
d="M589 427c0 -20 -1.33398 -44.8311 -4.00098 -74.498s-8 -60.667 -16 -93s-19.167 -64.833 -33.5 -97.5s-32.833 -61.834 -55.5 -87.501s-50.167 -46.667 -82.5 -63s-70.833 -24.5 -115.5 -24.5c-26 0 -50.167 4.16699 -72.5 12.5s-41.5 20.166 -57.5 35.499
s-28.667 34.333 -38 57s-14 48 -14 76c0 46 6.16699 88.667 18.5 128s30.5 73.333 54.5 102s53.833 51.167 89.5 67.5s76.834 24.5 123.501 24.5c24 0 45.333 -3.16699 64 -9.5s34 -13.166 46 -20.499c-1.33301 21.333 -4.33301 43.166 -9 65.499s-11.667 44.5 -21 66.5
l-130 -41l-8 63l110 35c-10.667 17.333 -21.834 31.833 -33.501 43.5l-37.5 36.5l70 47c12.667 -9.33301 26.667 -22.333 42 -39s30.333 -37 45 -61l131 42l8 -63l-110 -35c10.667 -26 19.334 -55 26.001 -87s10 -67.333 10 -106zM294.999 67.002
c30.667 0 57.668 8.83398 81.001 26.501s43.166 40.667 59.499 69s29.333 60.666 39 96.999s16.167 73.166 19.5 110.499c-17.333 14.667 -36 24.834 -56 30.501s-39.667 8.5 -59 8.5c-60.667 0 -106.834 -20.5 -138.501 -61.5s-47.5 -97.833 -47.5 -170.5
c0 -36 8.83301 -63.333 26.5 -82s42.834 -28 75.501 -28z" />
    <glyph glyph-name="ntilde" unicode="&#xf1;" horiz-adv-x="551" 
d="M169 0l-93 -0.00195312l120 500c30.667 9.33301 63.834 16.833 99.501 22.5s67.5 8.5 95.5 8.5c30 0 55.833 -4.16699 77.5 -12.5s39.167 -19.666 52.5 -33.999s23.166 -31.666 29.499 -51.999s9.5 -42.5 9.5 -66.5c0 -15.333 -1.33301 -31.5 -4 -48.5
s-6 -34.167 -10 -51.5l-64 -266h-93l59 246c4.66699 18.667 9.16699 37.667 13.5 57s6.5 37.666 6.5 54.999c0 26.667 -7.33301 48.834 -22 66.501s-42 26.5 -82 26.5c-16.667 0 -33 -1 -49 -3s-29.333 -4.66699 -40 -8zM454 706.998c10 -5.33301 19 -9.66602 27 -12.999
s16 -5 24 -5c14 0 25.667 5.16699 35 15.5s17.666 21.166 24.999 32.499l47 -29c-13.333 -28 -29.166 -49.5 -47.499 -64.5s-42.5 -22.5 -72.5 -22.5c-13.333 0 -25.166 2.33301 -35.499 7s-20.166 9.66699 -29.499 15c-10 5.33301 -19 9.66602 -27 12.999s-16 5 -24 5
c-14 0 -25.667 -5.16699 -35 -15.5s-17.666 -21.166 -24.999 -32.499l-47 29c13.333 28 29.166 49.5 47.499 64.5s42.5 22.5 72.5 22.5c13.333 0 25.166 -2.33301 35.499 -7s20.166 -9.66699 29.499 -15z" />
    <glyph glyph-name="ograve" unicode="&#xf2;" horiz-adv-x="555" 
d="M275 -13c-54.667 0 -97.5 16.167 -128.5 48.5s-46.5 76.833 -46.5 133.5c0 38.667 5.5 79.334 16.5 122.001s28.5 82 52.5 118s55 65.667 93 89s84 35 138 35c54.667 0 97.5 -16.167 128.5 -48.5s46.5 -76.833 46.5 -133.5c0 -38.667 -5.5 -79.334 -16.5 -122.001
s-28.5 -82 -52.5 -118s-55 -65.667 -93 -89s-84 -35 -138 -35zM291 66c30 0 56.833 8.66699 80.5 26s43.667 39.5 60 66.5s28.833 56.833 37.5 89.5s13 64.334 13 95.001c0 34 -7.33301 61 -22 81s-40 30 -76 30c-30 0 -56.833 -8.66699 -80.5 -26s-43.667 -39.5 -60 -66.5
s-28.833 -56.833 -37.5 -89.5s-13 -64.334 -13 -95.001c0 -34 7.33301 -61 22 -81s40 -30 76 -30zM379 779l127 -160l-49 -43l-146 146z" />
    <glyph glyph-name="oacute" unicode="&#xf3;" horiz-adv-x="555" 
d="M275 -13c-54.667 0 -97.5 16.167 -128.5 48.5s-46.5 76.833 -46.5 133.5c0 38.667 5.5 79.334 16.5 122.001s28.5 82 52.5 118s55 65.667 93 89s84 35 138 35c54.667 0 97.5 -16.167 128.5 -48.5s46.5 -76.833 46.5 -133.5c0 -38.667 -5.5 -79.334 -16.5 -122.001
s-28.5 -82 -52.5 -118s-55 -65.667 -93 -89s-84 -35 -138 -35zM291 66c30 0 56.833 8.66699 80.5 26s43.667 39.5 60 66.5s28.833 56.833 37.5 89.5s13 64.334 13 95.001c0 34 -7.33301 61 -22 81s-40 30 -76 30c-30 0 -56.833 -8.66699 -80.5 -26s-43.667 -39.5 -60 -66.5
s-28.833 -56.833 -37.5 -89.5s-13 -64.334 -13 -95.001c0 -34 7.33301 -61 22 -81s40 -30 76 -30zM551 708l-169 -128l-40 49l158 151z" />
    <glyph glyph-name="ocircumflex" unicode="&#xf4;" horiz-adv-x="555" 
d="M275 -13c-54.667 0 -97.5 16.167 -128.5 48.5s-46.5 76.833 -46.5 133.5c0 38.667 5.5 79.334 16.5 122.001s28.5 82 52.5 118s55 65.667 93 89s84 35 138 35c54.667 0 97.5 -16.167 128.5 -48.5s46.5 -76.833 46.5 -133.5c0 -38.667 -5.5 -79.334 -16.5 -122.001
s-28.5 -82 -52.5 -118s-55 -65.667 -93 -89s-84 -35 -138 -35zM291 66c30 0 56.833 8.66699 80.5 26s43.667 39.5 60 66.5s28.833 56.833 37.5 89.5s13 64.334 13 95.001c0 34 -7.33301 61 -22 81s-40 30 -76 30c-30 0 -56.833 -8.66699 -80.5 -26s-43.667 -39.5 -60 -66.5
s-28.833 -56.833 -37.5 -89.5s-13 -64.334 -13 -95.001c0 -34 7.33301 -61 22 -81s40 -30 76 -30zM435 667l-112 -82l-33 45l162 139l106 -148l-44 -41z" />
    <glyph glyph-name="otilde" unicode="&#xf5;" horiz-adv-x="555" 
d="M275 -13c-54.667 0 -97.5 16.167 -128.5 48.5s-46.5 76.833 -46.5 133.5c0 38.667 5.5 79.334 16.5 122.001s28.5 82 52.5 118s55 65.667 93 89s84 35 138 35c54.667 0 97.5 -16.167 128.5 -48.5s46.5 -76.833 46.5 -133.5c0 -38.667 -5.5 -79.334 -16.5 -122.001
s-28.5 -82 -52.5 -118s-55 -65.667 -93 -89s-84 -35 -138 -35zM291 66c30 0 56.833 8.66699 80.5 26s43.667 39.5 60 66.5s28.833 56.833 37.5 89.5s13 64.334 13 95.001c0 34 -7.33301 61 -22 81s-40 30 -76 30c-30 0 -56.833 -8.66699 -80.5 -26s-43.667 -39.5 -60 -66.5
s-28.833 -56.833 -37.5 -89.5s-13 -64.334 -13 -95.001c0 -34 7.33301 -61 22 -81s40 -30 76 -30zM451 707c10 -5.33301 19 -9.66602 27 -12.999s16 -5 24 -5c14 0 25.667 5.16699 35 15.5s17.666 21.166 24.999 32.499l47 -29c-13.333 -28 -29.166 -49.5 -47.499 -64.5
s-42.5 -22.5 -72.5 -22.5c-13.333 0 -25.166 2.33301 -35.499 7s-20.166 9.66699 -29.499 15c-10 5.33301 -19 9.66602 -27 12.999s-16 5 -24 5c-14 0 -25.667 -5.16699 -35 -15.5s-17.666 -21.166 -24.999 -32.499l-47 29c13.333 28 29.166 49.5 47.499 64.5
s42.5 22.5 72.5 22.5c13.333 0 25.166 -2.33301 35.499 -7s20.166 -9.66699 29.499 -15z" />
    <glyph glyph-name="odieresis" unicode="&#xf6;" horiz-adv-x="555" 
d="M275 -13c-54.667 0 -97.5 16.167 -128.5 48.5s-46.5 76.833 -46.5 133.5c0 38.667 5.5 79.334 16.5 122.001s28.5 82 52.5 118s55 65.667 93 89s84 35 138 35c54.667 0 97.5 -16.167 128.5 -48.5s46.5 -76.833 46.5 -133.5c0 -38.667 -5.5 -79.334 -16.5 -122.001
s-28.5 -82 -52.5 -118s-55 -65.667 -93 -89s-84 -35 -138 -35zM291 66c30 0 56.833 8.66699 80.5 26s43.667 39.5 60 66.5s28.833 56.833 37.5 89.5s13 64.334 13 95.001c0 34 -7.33301 61 -22 81s-40 30 -76 30c-30 0 -56.833 -8.66699 -80.5 -26s-43.667 -39.5 -60 -66.5
s-28.833 -56.833 -37.5 -89.5s-13 -64.334 -13 -95.001c0 -34 7.33301 -61 22 -81s40 -30 76 -30zM336 616c-14.667 0 -26.999 4.66797 -36.999 14.001s-15 21.666 -15 36.999c0 20 6.66699 36.167 20 48.5s27.666 18.5 42.999 18.5c14.667 0 27.167 -4.83301 37.5 -14.5
s15.5 -22.5 15.5 -38.5c0 -19.333 -6.83301 -35 -20.5 -47s-28.167 -18 -43.5 -18zM526.001 616.001c-14.667 0 -26.999 4.66797 -36.999 14.001s-15 21.666 -15 36.999c0 20 6.66699 36.167 20 48.5s27.666 18.5 42.999 18.5c14.667 0 27.167 -4.83301 37.5 -14.5
s15.5 -22.5 15.5 -38.5c0 -19.333 -6.83301 -35 -20.5 -47s-28.167 -18 -43.5 -18z" />
    <glyph glyph-name="divide" unicode="&#xf7;" horiz-adv-x="564" 
d="M368 120c0 -10 -1.83301 -19.5 -5.5 -28.5s-8.83398 -17.167 -15.501 -24.5s-14.667 -13.166 -24 -17.499s-19.333 -6.5 -30 -6.5c-14.667 0 -26.5 4.33301 -35.5 13s-13.5 20 -13.5 34c0 10 1.83301 19.5 5.5 28.5s8.83398 17.167 15.501 24.5s14.5 13.166 23.5 17.499
s19.167 6.5 30.5 6.5c14.667 0 26.5 -4.33301 35.5 -13s13.5 -20 13.5 -34zM460 504c0 -10 -1.83301 -19.5 -5.5 -28.5s-8.83398 -17.167 -15.501 -24.5s-14.667 -13.166 -24 -17.499s-19.333 -6.5 -30 -6.5c-14.667 0 -26.5 4.33301 -35.5 13s-13.5 20 -13.5 34
c0 10 1.83301 19.5 5.5 28.5s8.83398 17.167 15.501 24.5s14.5 13.166 23.5 17.499s19.167 6.5 30.5 6.5c14.667 0 26.5 -4.33301 35.5 -13s13.5 -20 13.5 -34zM584 337l-19 -79h-449l19 79h449z" />
    <glyph glyph-name="oslash" unicode="&#xf8;" horiz-adv-x="555" 
d="M575 351c0 -38.667 -5.49902 -79.334 -16.499 -122.001s-28.5 -82 -52.5 -118s-55 -65.667 -93 -89s-84 -35 -138 -35c-44 0 -80.333 10.333 -109 31l-47 -54l-50 37l55 63c-16 28 -24 63 -24 105c0 38.667 5.5 79.334 16.5 122.001s28.667 82 53 118
s55.5 65.667 93.5 89s84 35 138 35c43.333 0 79.333 -10.333 108 -31l46 52l51 -37l-55 -63c7.33301 -14 13.166 -29.5 17.499 -46.5s6.5 -35.833 6.5 -56.5zM191.001 176l0.000976562 -17.001c0 -5.33301 0.666992 -10.666 2 -15.999l257 292
c-17.333 13.333 -39.333 20 -66 20c-30 0 -57 -8.83301 -81 -26.5s-44.333 -40 -61 -67s-29.334 -57 -38.001 -90s-13 -64.833 -13 -95.5zM291.002 64.999c30 0 56.999 8.83398 80.999 26.501s44.333 40 61 67s29.334 57 38.001 90s13 64.833 13 95.5v16
c0 5.33301 -0.666992 10.666 -2 15.999l-257 -292c14.667 -12.667 36.667 -19 66 -19z" />
    <glyph glyph-name="ugrave" unicode="&#xf9;" horiz-adv-x="550" 
d="M266 -13c-29.333 0 -53.8369 4.33203 -73.5039 12.999s-35.667 20.334 -48 35.001s-21.166 32 -26.499 52s-8 41.333 -8 64c0 17.333 1.5 34.5 4.5 51.5s6.5 34.167 10.5 51.5l64 266h93l-59 -246c-3.33301 -15.333 -7.66602 -33.333 -12.999 -54s-8 -41.334 -8 -62.001
c0 -12 1.16699 -23.5 3.5 -34.5s6.66602 -20.667 12.999 -29s14.833 -15 25.5 -20s24 -7.5 40 -7.5c28.667 0 53.834 6.16699 75.501 18.5s39.834 26.833 54.501 43.5c0.666992 10.667 1.66699 21.667 3 33s3.66602 23.666 6.99902 36.999l77 321h93l-79 -329
c-3.33301 -15.333 -6.16602 -30.166 -8.49902 -44.499s-3.5 -29.166 -3.5 -44.499s1.33301 -30.666 4 -45.999s7.33398 -32 14.001 -50l-82 -12c-3.33301 7.33301 -6.66602 15.666 -9.99902 24.999s-6 19.333 -8 30c-7.33301 -6.66699 -16 -13.667 -26 -21
s-21.5 -14 -34.5 -20s-27.333 -11 -43 -15s-32.834 -6 -51.501 -6zM370.996 778.999l127 -160l-49 -43l-146 146z" />
    <glyph glyph-name="uacute" unicode="&#xfa;" horiz-adv-x="550" 
d="M266 -13c-29.333 0 -53.8369 4.33203 -73.5039 12.999s-35.667 20.334 -48 35.001s-21.166 32 -26.499 52s-8 41.333 -8 64c0 17.333 1.5 34.5 4.5 51.5s6.5 34.167 10.5 51.5l64 266h93l-59 -246c-3.33301 -15.333 -7.66602 -33.333 -12.999 -54s-8 -41.334 -8 -62.001
c0 -12 1.16699 -23.5 3.5 -34.5s6.66602 -20.667 12.999 -29s14.833 -15 25.5 -20s24 -7.5 40 -7.5c28.667 0 53.834 6.16699 75.501 18.5s39.834 26.833 54.501 43.5c0.666992 10.667 1.66699 21.667 3 33s3.66602 23.666 6.99902 36.999l77 321h93l-79 -329
c-3.33301 -15.333 -6.16602 -30.166 -8.49902 -44.499s-3.5 -29.166 -3.5 -44.499s1.33301 -30.666 4 -45.999s7.33398 -32 14.001 -50l-82 -12c-3.33301 7.33301 -6.66602 15.666 -9.99902 24.999s-6 19.333 -8 30c-7.33301 -6.66699 -16 -13.667 -26 -21
s-21.5 -14 -34.5 -20s-27.333 -11 -43 -15s-32.834 -6 -51.501 -6zM542.996 707.999l-169 -128l-40 49l158 151z" />
    <glyph glyph-name="ucircumflex" unicode="&#xfb;" horiz-adv-x="550" 
d="M266 -13c-29.333 0 -53.8369 4.33203 -73.5039 12.999s-35.667 20.334 -48 35.001s-21.166 32 -26.499 52s-8 41.333 -8 64c0 17.333 1.5 34.5 4.5 51.5s6.5 34.167 10.5 51.5l64 266h93l-59 -246c-3.33301 -15.333 -7.66602 -33.333 -12.999 -54s-8 -41.334 -8 -62.001
c0 -12 1.16699 -23.5 3.5 -34.5s6.66602 -20.667 12.999 -29s14.833 -15 25.5 -20s24 -7.5 40 -7.5c28.667 0 53.834 6.16699 75.501 18.5s39.834 26.833 54.501 43.5c0.666992 10.667 1.66699 21.667 3 33s3.66602 23.666 6.99902 36.999l77 321h93l-79 -329
c-3.33301 -15.333 -6.16602 -30.166 -8.49902 -44.499s-3.5 -29.166 -3.5 -44.499s1.33301 -30.666 4 -45.999s7.33398 -32 14.001 -50l-82 -12c-3.33301 7.33301 -6.66602 15.666 -9.99902 24.999s-6 19.333 -8 30c-7.33301 -6.66699 -16 -13.667 -26 -21
s-21.5 -14 -34.5 -20s-27.333 -11 -43 -15s-32.834 -6 -51.501 -6zM426.996 666.999l-112 -82l-33 45l162 139l106 -148l-44 -41z" />
    <glyph glyph-name="udieresis" unicode="&#xfc;" horiz-adv-x="550" 
d="M266 -13c-29.333 0 -53.8369 4.33203 -73.5039 12.999s-35.667 20.334 -48 35.001s-21.166 32 -26.499 52s-8 41.333 -8 64c0 17.333 1.5 34.5 4.5 51.5s6.5 34.167 10.5 51.5l64 266h93l-59 -246c-3.33301 -15.333 -7.66602 -33.333 -12.999 -54s-8 -41.334 -8 -62.001
c0 -12 1.16699 -23.5 3.5 -34.5s6.66602 -20.667 12.999 -29s14.833 -15 25.5 -20s24 -7.5 40 -7.5c28.667 0 53.834 6.16699 75.501 18.5s39.834 26.833 54.501 43.5c0.666992 10.667 1.66699 21.667 3 33s3.66602 23.666 6.99902 36.999l77 321h93l-79 -329
c-3.33301 -15.333 -6.16602 -30.166 -8.49902 -44.499s-3.5 -29.166 -3.5 -44.499s1.33301 -30.666 4 -45.999s7.33398 -32 14.001 -50l-82 -12c-3.33301 7.33301 -6.66602 15.666 -9.99902 24.999s-6 19.333 -8 30c-7.33301 -6.66699 -16 -13.667 -26 -21
s-21.5 -14 -34.5 -20s-27.333 -11 -43 -15s-32.834 -6 -51.501 -6zM327.996 615.999c-14.667 0 -26.999 4.66797 -36.999 14.001s-15 21.666 -15 36.999c0 20 6.66699 36.167 20 48.5s27.666 18.5 42.999 18.5c14.667 0 27.167 -4.83301 37.5 -14.5s15.5 -22.5 15.5 -38.5
c0 -19.333 -6.83301 -35 -20.5 -47s-28.167 -18 -43.5 -18zM517.997 616c-14.667 0 -26.999 4.66797 -36.999 14.001s-15 21.666 -15 36.999c0 20 6.66699 36.167 20 48.5s27.666 18.5 42.999 18.5c14.667 0 27.167 -4.83301 37.5 -14.5s15.5 -22.5 15.5 -38.5
c0 -19.333 -6.83301 -35 -20.5 -47s-28.167 -18 -43.5 -18z" />
    <glyph glyph-name="yacute" unicode="&#xfd;" horiz-adv-x="478" 
d="M281 84c25.333 40 48.3262 81.501 68.9932 124.501s38.834 84.167 54.501 123.5s28.834 75.5 39.501 108.5s18.334 59.5 23.001 79.5h97c-7.33301 -25.333 -17.666 -56.833 -30.999 -94.5s-29.5 -78.334 -48.5 -122.001s-40.333 -88.334 -64 -134.001
s-49.5 -89.5 -77.5 -131.5c-21.333 -31.333 -42.666 -60.833 -63.999 -88.5s-44.166 -51.667 -68.499 -72s-51.166 -36.333 -80.499 -48s-62.333 -17.5 -99 -17.5c-18.667 0 -36 2.33301 -52 7s-27.667 9.66699 -35 15l32 76c6.66699 -5.33301 15.667 -9.83301 27 -13.5
s24 -5.5 38 -5.5c38.667 0 71.5 9.33301 98.5 28s52.5 43.334 76.5 74.001c-24.667 80.667 -44.834 165.667 -60.501 255s-25.167 180 -28.5 272h95c0.666992 -30 2.33398 -62.833 5.00098 -98.5s6.5 -72.667 11.5 -111s11 -76.833 18 -115.5s15.167 -75.667 24.5 -111z
M493.993 708.001l-169 -128l-40 49l158 151z" />
    <glyph glyph-name="thorn" unicode="&#xfe;" horiz-adv-x="546" 
d="M379 533c32.667 0 60.834 -4.66895 84.501 -14.002s43.167 -22.166 58.5 -38.499s26.833 -35.666 34.5 -57.999s11.5 -46.833 11.5 -73.5c0 -46 -7 -90.5 -21 -133.5s-35.5 -81.167 -64.5 -114.5s-65.667 -60 -110 -80s-96.833 -30 -157.5 -30
c-7.33301 0 -15.333 0.333008 -24 1s-16.334 1.66699 -23.001 3l-43 -180h-93l227 945l97 16l-61 -255c32.667 8 60.667 12 84 12zM356 453.998c-16.667 0 -32.001 -1.5 -46.001 -4.5s-25.667 -5.83301 -35 -8.5l-88 -368c6.66699 -1.33301 13.834 -2.16602 21.501 -2.49902
s15.167 -0.5 22.5 -0.5c38 0 72 7.33301 102 22s55.5 34.5 76.5 59.5s37.167 53.667 48.5 86s17 66.166 17 101.499c0 14.667 -1.66699 29 -5 43s-9.5 26.333 -18.5 37s-21.167 19.167 -36.5 25.5s-35 9.5 -59 9.5z" />
    <glyph glyph-name="ydieresis" unicode="&#xff;" horiz-adv-x="478" 
d="M281 84c25.333 40 48.3262 81.501 68.9932 124.501s38.834 84.167 54.501 123.5s28.834 75.5 39.501 108.5s18.334 59.5 23.001 79.5h97c-7.33301 -25.333 -17.666 -56.833 -30.999 -94.5s-29.5 -78.334 -48.5 -122.001s-40.333 -88.334 -64 -134.001
s-49.5 -89.5 -77.5 -131.5c-21.333 -31.333 -42.666 -60.833 -63.999 -88.5s-44.166 -51.667 -68.499 -72s-51.166 -36.333 -80.499 -48s-62.333 -17.5 -99 -17.5c-18.667 0 -36 2.33301 -52 7s-27.667 9.66699 -35 15l32 76c6.66699 -5.33301 15.667 -9.83301 27 -13.5
s24 -5.5 38 -5.5c38.667 0 71.5 9.33301 98.5 28s52.5 43.334 76.5 74.001c-24.667 80.667 -44.834 165.667 -60.501 255s-25.167 180 -28.5 272h95c0.666992 -30 2.33398 -62.833 5.00098 -98.5s6.5 -72.667 11.5 -111s11 -76.833 18 -115.5s15.167 -75.667 24.5 -111z
M278.993 616.001c-14.667 0 -26.999 4.66797 -36.999 14.001s-15 21.666 -15 36.999c0 20 6.66699 36.167 20 48.5s27.666 18.5 42.999 18.5c14.667 0 27.167 -4.83301 37.5 -14.5s15.5 -22.5 15.5 -38.5c0 -19.333 -6.83301 -35 -20.5 -47s-28.167 -18 -43.5 -18z
M468.994 616.002c-14.667 0 -26.999 4.66797 -36.999 14.001s-15 21.666 -15 36.999c0 20 6.66699 36.167 20 48.5s27.666 18.5 42.999 18.5c14.667 0 27.167 -4.83301 37.5 -14.5s15.5 -22.5 15.5 -38.5c0 -19.333 -6.83301 -35 -20.5 -47s-28.167 -18 -43.5 -18z" />
    <glyph glyph-name="Amacron" unicode="&#x100;" horiz-adv-x="636" 
d="M214 178l-98 -178h-106c74.667 134.667 147.5 258.667 218.5 372l210.5 321h95c10 -50 19.167 -100.5 27.5 -151.5s16.5 -104.5 24.5 -160.5s15.667 -115.333 23 -178l23 -203h-98c-3.33301 30 -6.33301 60.167 -9 90.5s-5.66699 59.5 -9 87.5h-302zM507 256
c-5.33301 54 -11.5 107.667 -18.5 161s-15.167 108.333 -24.5 165l-87 -131.5c-34.667 -53.667 -74 -118.5 -118 -194.5h248zM385 867h280l-17 -72h-280z" />
    <glyph glyph-name="amacron" unicode="&#x101;" horiz-adv-x="544" 
d="M432 -6c-3.33301 7.33301 -6.66895 15.4971 -10.002 24.4971s-6 18.5 -8 28.5c-14.667 -13.333 -34.334 -26.666 -59.001 -39.999s-55 -20 -91 -20c-29.333 0 -54.5 4.66699 -75.5 14s-38.167 22.333 -51.5 39s-23.166 36.334 -29.499 59.001s-9.5 47.667 -9.5 75
c0 44.667 7.5 88.334 22.5 131.001s37.5 80.667 67.5 114s67.667 60.333 113 81s98.333 31 159 31c18 0 39 -2 63 -6s44.667 -10.667 62 -20l-77 -314c-3.33301 -15.333 -6.16602 -30 -8.49902 -44s-3.5 -28.667 -3.5 -44s1.33301 -30.833 4 -46.5
s7.33398 -32.5 14.001 -50.5zM282.997 65.9971c28 0 51.999 5.99902 71.999 17.999s37.333 26 52 42c0.666992 11.333 1.83398 23.166 3.50098 35.499s3.83398 24.833 6.50098 37.5l60 248c-3.33301 1.33301 -8.83301 2.33301 -16.5 3s-14.5 1 -20.5 1
c-38 0 -72.333 -7.33301 -103 -22s-56.834 -34.167 -78.501 -58.5s-38.334 -52.666 -50.001 -84.999s-17.5 -66.166 -17.5 -101.499c0 -14 1.33301 -28.167 4 -42.5s7.5 -27 14.5 -38s16.333 -20 28 -27s26.834 -10.5 45.501 -10.5zM309.996 710.996h280l-17 -72h-280z" />
    <glyph glyph-name="Abreve" unicode="&#x102;" horiz-adv-x="636" 
d="M214 178l-98 -178h-106c74.667 134.667 147.5 258.667 218.5 372l210.5 321h95c10 -50 19.167 -100.5 27.5 -151.5s16.5 -104.5 24.5 -160.5s15.667 -115.333 23 -178l23 -203h-98c-3.33301 30 -6.33301 60.167 -9 90.5s-5.66699 59.5 -9 87.5h-302zM507 256
c-5.33301 54 -11.5 107.667 -18.5 161s-15.167 108.333 -24.5 165l-87 -131.5c-34.667 -53.667 -74 -118.5 -118 -194.5h248zM513 766c-20 0 -37.334 3 -52.001 9s-26.5 14 -35.5 24s-15.667 21.5 -20 34.5s-6.5 26.5 -6.5 40.5c0 10.667 1 21 3 31h58
c-0.666992 -2 -1 -6 -1 -12c0 -19.333 5.33301 -34.5 16 -45.5s26 -16.5 46 -16.5c14 0 26 2.5 36 7.5s18.333 11.167 25 18.5s11.834 15.333 15.501 24s6.5 16.667 8.5 24h62c-6 -44 -22.667 -78.167 -50 -102.5s-62.333 -36.5 -105 -36.5z" />
    <glyph glyph-name="abreve" unicode="&#x103;" horiz-adv-x="544" 
d="M432 -6c-3.33301 7.33301 -6.66895 15.4971 -10.002 24.4971s-6 18.5 -8 28.5c-14.667 -13.333 -34.334 -26.666 -59.001 -39.999s-55 -20 -91 -20c-29.333 0 -54.5 4.66699 -75.5 14s-38.167 22.333 -51.5 39s-23.166 36.334 -29.499 59.001s-9.5 47.667 -9.5 75
c0 44.667 7.5 88.334 22.5 131.001s37.5 80.667 67.5 114s67.667 60.333 113 81s98.333 31 159 31c18 0 39 -2 63 -6s44.667 -10.667 62 -20l-77 -314c-3.33301 -15.333 -6.16602 -30 -8.49902 -44s-3.5 -28.667 -3.5 -44s1.33301 -30.833 4 -46.5
s7.33398 -32.5 14.001 -50.5zM282.997 65.9971c28 0 51.999 5.99902 71.999 17.999s37.333 26 52 42c0.666992 11.333 1.83398 23.166 3.50098 35.499s3.83398 24.833 6.50098 37.5l60 248c-3.33301 1.33301 -8.83301 2.33301 -16.5 3s-14.5 1 -20.5 1
c-38 0 -72.333 -7.33301 -103 -22s-56.834 -34.167 -78.501 -58.5s-38.334 -52.666 -50.001 -84.999s-17.5 -66.166 -17.5 -101.499c0 -14 1.33301 -28.167 4 -42.5s7.5 -27 14.5 -38s16.333 -20 28 -27s26.834 -10.5 45.501 -10.5zM437.996 609.996
c-20 0 -37.334 3 -52.001 9s-26.5 14 -35.5 24s-15.667 21.5 -20 34.5s-6.5 26.5 -6.5 40.5c0 10.667 1 21 3 31h58c-0.666992 -2 -1 -6 -1 -12c0 -19.333 5.33301 -34.5 16 -45.5s26 -16.5 46 -16.5c14 0 26 2.5 36 7.5s18.333 11.167 25 18.5s11.834 15.333 15.501 24
s6.5 16.667 8.5 24h62c-6 -44 -22.667 -78.167 -50 -102.5s-62.333 -36.5 -105 -36.5z" />
    <glyph glyph-name="Aogonek" unicode="&#x104;" horiz-adv-x="636" 
d="M632 4l-26.499 -18.502c-9.66699 -7 -20.167 -15.167 -31.5 -24.5l-14 -11.5c-5.33301 -4.33301 -10.333 -9.16602 -15 -14.499s-8.66699 -11 -12 -17s-5 -12.333 -5 -19s2.83301 -12 8.5 -16s15.167 -6 28.5 -6c6.66699 0 13.5 0.666992 20.5 2s13.5 3 19.5 5l-8 -60
c-16 -7.33301 -35.333 -11 -58 -11c-36.667 0 -62.334 5.83301 -77.001 17.5s-22 26.834 -22 45.501c0 18 6 35.333 18 52s26 31.667 42 45l18.5 14.5l15.5 11.5c-3.33301 30 -6.33301 59.667 -9 89s-5.66699 59.333 -9 90h-302l-98 -178h-106
c74.667 134.667 147.5 258.667 218.5 372l210.5 321h95c10 -50 19.167 -100.5 27.5 -151.5s16.5 -104.167 24.5 -159.5s15.667 -114 23 -176zM464.001 581.998l-87 -131.5c-34.667 -53.667 -74 -118.5 -118 -194.5h248c-5.33301 54 -11.5 107.667 -18.5 161
s-15.167 108.333 -24.5 165z" />
    <glyph glyph-name="aogonek" unicode="&#x105;" horiz-adv-x="544" 
d="M438 -187c-36.667 0 -62.335 5.83203 -77.002 17.499s-22 26.834 -22 45.501c0 18 6 35.333 18 52s26 31.667 42 45c5.33301 4.66699 11 9.16699 17 13.5l16 11.5c-3.33301 7.33301 -6.5 15.166 -9.5 23.499s-5.5 17.166 -7.5 26.499
c-7.33301 -6.66699 -16 -13.667 -26 -21s-21.333 -14 -34 -20s-26.5 -10.833 -41.5 -14.5s-31.5 -5.5 -49.5 -5.5c-29.333 0 -54.5 4.66699 -75.5 14s-38.167 22.333 -51.5 39s-23.166 36.334 -29.499 59.001s-9.5 47.667 -9.5 75c0 44.667 7.5 88.334 22.5 131.001
s37.5 80.667 67.5 114s67.667 60.333 113 81s98.333 31 159 31c18 0 39 -2 63 -6s44.667 -10.667 62 -20l-77 -314c-3.33301 -15.333 -6.16602 -30 -8.49902 -44s-3.5 -28.667 -3.5 -44s1.5 -31 4.5 -47s8.83301 -34.667 17.5 -56l-22 -16.5
c-6.66699 -5 -14 -11.167 -22 -18.5c-11.333 -9.33301 -22 -19.5 -32 -30.5s-15 -22.833 -15 -35.5c0 -6.66699 2.83301 -12 8.5 -16s15.167 -6 28.5 -6c6.66699 0 13.5 0.666992 20.5 2s13.5 3 19.5 5l-8 -60c-16 -7.33301 -35.333 -11 -58 -11zM282.999 65.999
c28 0 51.999 5.99902 71.999 17.999s37.333 26 52 42c0.666992 11.333 1.83398 23.166 3.50098 35.499s3.83398 24.833 6.50098 37.5l60 248c-3.33301 1.33301 -8.83301 2.33301 -16.5 3s-14.5 1 -20.5 1c-38 0 -72.333 -7.33301 -103 -22s-56.834 -34.167 -78.501 -58.5
s-38.334 -52.666 -50.001 -84.999s-17.5 -66.166 -17.5 -101.499c0 -14 1.33301 -28.167 4 -42.5s7.5 -27 14.5 -38s16.333 -20 28 -27s26.834 -10.5 45.501 -10.5z" />
    <glyph glyph-name="Cacute" unicode="&#x106;" horiz-adv-x="600" 
d="M387 -15c-43.333 0 -81.5029 6.33496 -114.503 19.002s-60.5 30.667 -82.5 54s-38.5 51.5 -49.5 84.5s-16.5 70.167 -16.5 111.5c0 60 9.5 117.333 28.5 172s46 103 81 145s77.167 75.5 126.5 100.5s104.333 37.5 165 37.5c52 0 93.5 -5.33301 124.5 -16
s53.167 -20.667 66.5 -30l-40 -80c-15.333 10 -36.166 19.5 -62.499 28.5s-57.5 13.5 -93.5 13.5c-46 0 -87.333 -10.833 -124 -32.5s-67.667 -49.667 -93 -84s-44.666 -73 -57.999 -116s-20 -85.5 -20 -127.5c0 -130 56.333 -195 169 -195c24 0 45.5 1.66699 64.5 5
s35.833 7.16602 50.5 11.499s27.667 9.16602 39 14.499l30 14l12 -84c-8 -4.66699 -18.5 -9.66699 -31.5 -15s-28.167 -10.333 -45.5 -15s-36.666 -8.5 -57.999 -11.5s-44 -4.5 -68 -4.5zM665.997 864.002l-169 -128l-40 49l158 151z" />
    <glyph glyph-name="cacute" unicode="&#x107;" horiz-adv-x="451" 
d="M100 186c0 45.333 6.83496 89.001 20.502 131.001s33.834 79 60.501 111s59.334 57.5 98.001 76.5s83 28.5 133 28.5c22 0 43 -1.5 63 -4.5s39 -8.83301 57 -17.5l-35 -78c-10.667 6 -23.167 10.667 -37.5 14s-32.833 5 -55.5 5c-32.667 0 -62 -7.16699 -88 -21.5
s-48.167 -33.333 -66.5 -57s-32.333 -51 -42 -82s-14.5 -63.167 -14.5 -96.5c0 -17.333 1.83301 -33.666 5.5 -48.999s10.167 -28.833 19.5 -40.5s21.833 -20.834 37.5 -27.501s35.5 -10 59.5 -10c12 0 24.667 1.16699 38 3.5s25.666 5.16602 36.999 8.49902
s21.5 6.83301 30.5 10.5s15.5 7.16699 19.5 10.5l8 -79c-12.667 -8 -32.334 -15.833 -59.001 -23.5s-57 -11.5 -91 -11.5c-32 0 -60.333 4.83301 -85 14.5s-45.334 23.334 -62.001 41.001s-29.334 38.667 -38.001 63s-13 51.166 -13 80.499zM551.002 708.001l-169 -128
l-40 49l158 151z" />
    <glyph glyph-name="Ccircumflex" unicode="&#x108;" horiz-adv-x="600" 
d="M387 -15c-43.333 0 -81.5029 6.33496 -114.503 19.002s-60.5 30.667 -82.5 54s-38.5 51.5 -49.5 84.5s-16.5 70.167 -16.5 111.5c0 60 9.5 117.333 28.5 172s46 103 81 145s77.167 75.5 126.5 100.5s104.333 37.5 165 37.5c52 0 93.5 -5.33301 124.5 -16
s53.167 -20.667 66.5 -30l-40 -80c-15.333 10 -36.166 19.5 -62.499 28.5s-57.5 13.5 -93.5 13.5c-46 0 -87.333 -10.833 -124 -32.5s-67.667 -49.667 -93 -84s-44.666 -73 -57.999 -116s-20 -85.5 -20 -127.5c0 -130 56.333 -195 169 -195c24 0 45.5 1.66699 64.5 5
s35.833 7.16602 50.5 11.499s27.667 9.16602 39 14.499l30 14l12 -84c-8 -4.66699 -18.5 -9.66699 -31.5 -15s-28.167 -10.333 -45.5 -15s-36.666 -8.5 -57.999 -11.5s-44 -4.5 -68 -4.5zM550.997 823.002l-112 -82l-33 45l162 139l106 -148l-44 -41z" />
    <glyph glyph-name="ccircumflex" unicode="&#x109;" horiz-adv-x="451" 
d="M100 186c0 45.333 6.83496 89.001 20.502 131.001s33.834 79 60.501 111s59.334 57.5 98.001 76.5s83 28.5 133 28.5c22 0 43 -1.5 63 -4.5s39 -8.83301 57 -17.5l-35 -78c-10.667 6 -23.167 10.667 -37.5 14s-32.833 5 -55.5 5c-32.667 0 -62 -7.16699 -88 -21.5
s-48.167 -33.333 -66.5 -57s-32.333 -51 -42 -82s-14.5 -63.167 -14.5 -96.5c0 -17.333 1.83301 -33.666 5.5 -48.999s10.167 -28.833 19.5 -40.5s21.833 -20.834 37.5 -27.501s35.5 -10 59.5 -10c12 0 24.667 1.16699 38 3.5s25.666 5.16602 36.999 8.49902
s21.5 6.83301 30.5 10.5s15.5 7.16699 19.5 10.5l8 -79c-12.667 -8 -32.334 -15.833 -59.001 -23.5s-57 -11.5 -91 -11.5c-32 0 -60.333 4.83301 -85 14.5s-45.334 23.334 -62.001 41.001s-29.334 38.667 -38.001 63s-13 51.166 -13 80.499zM435.002 667.001l-112 -82
l-33 45l162 139l106 -148l-44 -41z" />
    <glyph glyph-name="Cdotaccent" unicode="&#x10a;" horiz-adv-x="600" 
d="M387 -15c-43.333 0 -81.5029 6.33496 -114.503 19.002s-60.5 30.667 -82.5 54s-38.5 51.5 -49.5 84.5s-16.5 70.167 -16.5 111.5c0 60 9.5 117.333 28.5 172s46 103 81 145s77.167 75.5 126.5 100.5s104.333 37.5 165 37.5c52 0 93.5 -5.33301 124.5 -16
s53.167 -20.667 66.5 -30l-40 -80c-15.333 10 -36.166 19.5 -62.499 28.5s-57.5 13.5 -93.5 13.5c-46 0 -87.333 -10.833 -124 -32.5s-67.667 -49.667 -93 -84s-44.666 -73 -57.999 -116s-20 -85.5 -20 -127.5c0 -130 56.333 -195 169 -195c24 0 45.5 1.66699 64.5 5
s35.833 7.16602 50.5 11.499s27.667 9.16602 39 14.499l30 14l12 -84c-8 -4.66699 -18.5 -9.66699 -31.5 -15s-28.167 -10.333 -45.5 -15s-36.666 -8.5 -57.999 -11.5s-44 -4.5 -68 -4.5zM546.997 770.002c-15.333 0 -28.167 4.66797 -38.5 14.001s-15.5 22.333 -15.5 39
c0 21.333 6.66699 38.166 20 50.499s28.333 18.5 45 18.5c15.333 0 28.333 -4.83301 39 -14.5s16 -23.167 16 -40.5c0 -20 -7 -36.167 -21 -48.5s-29 -18.5 -45 -18.5z" />
    <glyph glyph-name="cdotaccent" unicode="&#x10b;" horiz-adv-x="451" 
d="M100 186c0 45.333 6.83496 89.001 20.502 131.001s33.834 79 60.501 111s59.334 57.5 98.001 76.5s83 28.5 133 28.5c22 0 43 -1.5 63 -4.5s39 -8.83301 57 -17.5l-35 -78c-10.667 6 -23.167 10.667 -37.5 14s-32.833 5 -55.5 5c-32.667 0 -62 -7.16699 -88 -21.5
s-48.167 -33.333 -66.5 -57s-32.333 -51 -42 -82s-14.5 -63.167 -14.5 -96.5c0 -17.333 1.83301 -33.666 5.5 -48.999s10.167 -28.833 19.5 -40.5s21.833 -20.834 37.5 -27.501s35.5 -10 59.5 -10c12 0 24.667 1.16699 38 3.5s25.666 5.16602 36.999 8.49902
s21.5 6.83301 30.5 10.5s15.5 7.16699 19.5 10.5l8 -79c-12.667 -8 -32.334 -15.833 -59.001 -23.5s-57 -11.5 -91 -11.5c-32 0 -60.333 4.83301 -85 14.5s-45.334 23.334 -62.001 41.001s-29.334 38.667 -38.001 63s-13 51.166 -13 80.499zM431.002 614.001
c-15.333 0 -28.167 4.66797 -38.5 14.001s-15.5 22.333 -15.5 39c0 21.333 6.66699 38.166 20 50.499s28.333 18.5 45 18.5c15.333 0 28.333 -4.83301 39 -14.5s16 -23.167 16 -40.5c0 -20 -7 -36.167 -21 -48.5s-29 -18.5 -45 -18.5z" />
    <glyph glyph-name="Ccaron" unicode="&#x10c;" horiz-adv-x="600" 
d="M387 -15c-43.333 0 -81.5029 6.33496 -114.503 19.002s-60.5 30.667 -82.5 54s-38.5 51.5 -49.5 84.5s-16.5 70.167 -16.5 111.5c0 60 9.5 117.333 28.5 172s46 103 81 145s77.167 75.5 126.5 100.5s104.333 37.5 165 37.5c52 0 93.5 -5.33301 124.5 -16
s53.167 -20.667 66.5 -30l-40 -80c-15.333 10 -36.166 19.5 -62.499 28.5s-57.5 13.5 -93.5 13.5c-46 0 -87.333 -10.833 -124 -32.5s-67.667 -49.667 -93 -84s-44.666 -73 -57.999 -116s-20 -85.5 -20 -127.5c0 -130 56.333 -195 169 -195c24 0 45.5 1.66699 64.5 5
s35.833 7.16602 50.5 11.499s27.667 9.16602 39 14.499l30 14l12 -84c-8 -4.66699 -18.5 -9.66699 -31.5 -15s-28.167 -10.333 -45.5 -15s-36.666 -8.5 -57.999 -11.5s-44 -4.5 -68 -4.5zM546.997 843.002l112 82l33 -45l-162 -139l-106 148l44 41z" />
    <glyph glyph-name="ccaron" unicode="&#x10d;" horiz-adv-x="451" 
d="M100 186c0 45.333 6.83496 89.001 20.502 131.001s33.834 79 60.501 111s59.334 57.5 98.001 76.5s83 28.5 133 28.5c22 0 43 -1.5 63 -4.5s39 -8.83301 57 -17.5l-35 -78c-10.667 6 -23.167 10.667 -37.5 14s-32.833 5 -55.5 5c-32.667 0 -62 -7.16699 -88 -21.5
s-48.167 -33.333 -66.5 -57s-32.333 -51 -42 -82s-14.5 -63.167 -14.5 -96.5c0 -17.333 1.83301 -33.666 5.5 -48.999s10.167 -28.833 19.5 -40.5s21.833 -20.834 37.5 -27.501s35.5 -10 59.5 -10c12 0 24.667 1.16699 38 3.5s25.666 5.16602 36.999 8.49902
s21.5 6.83301 30.5 10.5s15.5 7.16699 19.5 10.5l8 -79c-12.667 -8 -32.334 -15.833 -59.001 -23.5s-57 -11.5 -91 -11.5c-32 0 -60.333 4.83301 -85 14.5s-45.334 23.334 -62.001 41.001s-29.334 38.667 -38.001 63s-13 51.166 -13 80.499zM432.002 687.001l112 82l33 -45
l-162 -139l-106 148l44 41z" />
    <glyph glyph-name="Dcaron" unicode="&#x10e;" horiz-adv-x="691" 
d="M415 618c-50 0 -80 -1.33594 -90 -4.00293l-128 -534c5.33301 -1.33301 14.333 -2.5 27 -3.5s33.334 -1.5 62.001 -1.5c52.667 0 100.167 8.83301 142.5 26.5s78.166 42.334 107.499 74.001s52 69.334 68 113.001s24 91.5 24 143.5c0 58.667 -17 104.334 -51 137.001
s-88 49 -162 49zM423 699.997c102.667 0 179.334 -24.168 230.001 -72.501s76 -113.5 76 -195.5c0 -57.333 -9 -112.5 -27 -165.5s-46 -99.833 -84 -140.5s-86.5 -73 -145.5 -97s-129.5 -36 -211.5 -36c-28 0 -58.333 1.33301 -91 4s-61.334 7.33398 -86.001 14.001l161 673
c28 6.66699 57.667 11 89 13s61 3 89 3zM532 842.996l112 82l33 -45l-162 -139l-106 148l44 41z" />
    <glyph glyph-name="dcaron" unicode="&#x10f;" horiz-adv-x="605" 
d="M499 103c0 -15.333 1.33203 -30.835 3.99902 -46.502s7.33398 -32.5 14.001 -50.5l-82 -12c-7.33301 14.667 -13 32.334 -17 53.001c-14.667 -13.333 -34.334 -26.666 -59.001 -39.999s-55 -20 -91 -20c-29.333 0 -54.666 4.5 -75.999 13.5s-39 21.833 -53 38.5
s-24.333 36.5 -31 59.5s-10 48.167 -10 75.5c0 44.667 7.5 88.334 22.5 131.001s37.333 80.667 67 114s66.834 60.166 111.501 80.499s96.667 30.5 156 30.5c7.33301 0 14.666 -0.333008 21.999 -1s15 -1.66699 23 -3l56 234l97 16l-141 -585
c-3.33301 -15.333 -6.33301 -30 -9 -44s-4 -28.667 -4 -44zM286.999 65.998c28 0 51.835 5.83398 71.502 17.501s36.834 25.167 51.501 40.5c0.666992 10.667 1.83398 22.167 3.50098 34.5s4.16699 25.833 7.5 40.5l60 250c-6 1.33301 -12.667 2.16602 -20 2.49902
s-14.333 0.5 -21 0.5c-38 0 -72.333 -7.33301 -103 -22s-56.834 -34.334 -78.501 -59.001s-38.334 -53.167 -50.001 -85.5s-17.5 -66.166 -17.5 -101.499c0 -15.333 1.66699 -30 5 -44s8.66602 -26.5 15.999 -37.5s17.166 -19.833 29.499 -26.5s27.5 -10 45.5 -10z
M817.001 775.999l-81 -223h-65l54 223h92z" />
    <glyph glyph-name="Dcroat" unicode="&#x110;" horiz-adv-x="710" 
d="M442 700c102.667 0 179.334 -24.168 230.001 -72.501s76 -113.5 76 -195.5c0 -57.333 -9 -112.5 -27 -165.5s-46 -99.833 -84 -140.5s-86.5 -73 -145.5 -97s-129.5 -36 -211.5 -36c-28 0 -58.333 1.33301 -91 4s-61.334 7.33398 -86.001 14.001l75 313h-81l18 75h81
l68 285c28 6.66699 57.667 11 89 13s61 3 89 3zM434 617.999c-50 0 -80 -1.33594 -90 -4.00293l-52 -215h130l-18 -75h-130l-58 -244c5.33301 -1.33301 14.333 -2.5 27 -3.5s33.334 -1.5 62.001 -1.5c52.667 0 100.167 8.83301 142.5 26.5s78.166 42.334 107.499 74.001
s52 69.334 68 113.001s24 91.5 24 143.5c0 58.667 -17 104.334 -51 137.001s-88 49 -162 49z" />
    <glyph glyph-name="dcroat" unicode="&#x111;" horiz-adv-x="551" 
d="M499 103c0 -15.333 1.33301 -30.833 4 -46.5s7.33398 -32.5 14.001 -50.5l-82 -12c-6.66699 12.667 -12.667 30 -18 52c-14.667 -13.333 -34.167 -26.5 -58.5 -39.5s-54.5 -19.5 -90.5 -19.5c-29.333 0 -54.666 4.5 -75.999 13.5s-39 21.833 -53 38.5
s-24.333 36.5 -31 59.5s-10 48.167 -10 75.5c0 44.667 7.5 88.167 22.5 130.5s37.333 80 67 113s66.667 59.5 111 79.5s96.166 30 155.499 30c7.33301 0 14.666 -0.333008 21.999 -1s15 -1.66699 23 -3l22 91h-157l16 69h157l19 77l97 16l-23 -93h74l-16 -69h-74l-102 -423
c-3.33301 -15.333 -6.33301 -30 -9 -44s-4 -28.667 -4 -44zM287 66c28 0 51.834 5.83301 71.501 17.5s36.834 25.167 51.501 40.5c0.666992 10.667 1.83398 22.167 3.50098 34.5s4.16699 25.833 7.5 40.5l59 247c-6 1.33301 -12.667 2.16602 -20 2.49902
s-14.333 0.5 -21 0.5c-38 0 -72.167 -7.16699 -102.5 -21.5s-56.333 -33.666 -78 -57.999s-38.334 -52.5 -50.001 -84.5s-17.5 -65.667 -17.5 -101c0 -15.333 1.66699 -30 5 -44s8.66602 -26.5 15.999 -37.5s17.166 -19.833 29.499 -26.5s27.5 -10 45.5 -10z" />
    <glyph glyph-name="Emacron" unicode="&#x112;" horiz-adv-x="557" 
d="M81 0l166 693h409l-19 -81h-313l-50 -209h278l-19 -79h-277l-59 -243h336l-19 -81h-433zM354 867h280l-17 -72h-280z" />
    <glyph glyph-name="emacron" unicode="&#x113;" horiz-adv-x="518" 
d="M204 273c38.667 1.33301 73.999 3.83105 105.999 7.49805s59.667 10 83 19s41.5 21.167 54.5 36.5s19.5 35.333 19.5 60c0 6 -1.16699 12.333 -3.5 19s-6.33301 12.834 -12 18.501s-13.5 10.334 -23.5 14.001s-22.333 5.5 -37 5.5c-23.333 0 -45.166 -5 -65.499 -15
s-38.5 -23.167 -54.5 -39.5s-29.667 -35.333 -41 -57s-20 -44.5 -26 -68.5zM298.999 -13.002c-34 0 -63.332 4.83398 -87.999 14.501s-45.334 23 -62.001 40s-29 36.833 -37 59.5s-12 46.667 -12 72c0 46.667 7 91.667 21 135s34 81.666 60 114.999s57.667 59.833 95 79.5
s79.666 29.5 126.999 29.5c27.333 0 50.833 -3.5 70.5 -10.5s35.667 -16.5 48 -28.5s21.5 -25.833 27.5 -41.5s9 -31.834 9 -48.501c0 -31.333 -5.66699 -57.833 -17 -79.5s-26.333 -39.834 -45 -54.501s-40.5 -26 -65.5 -34s-51 -14.333 -78 -19
s-54.333 -7.83398 -82 -9.50098s-53.834 -3.16699 -78.501 -4.5c-0.666992 -5.33301 -1 -9.66602 -1 -12.999v-8c0 -15.333 1.83301 -29.833 5.5 -43.5s10.5 -25.667 20.5 -36s23.833 -18.5 41.5 -24.5s40.834 -9 69.501 -9c12.667 0 25.834 1.16699 39.501 3.5
s26.667 5.33301 39 9s23.333 7.33398 33 11.001s16.5 7.16699 20.5 10.5l8 -79c-13.333 -7.33301 -34.833 -15.166 -64.5 -23.499s-64.5 -12.5 -104.5 -12.5zM301 710.999h280l-17 -72h-280z" />
    <glyph glyph-name="Ebreve" unicode="&#x114;" horiz-adv-x="557" 
d="M81 0l166 693h409l-19 -81h-313l-50 -209h278l-19 -79h-277l-59 -243h336l-19 -81h-433zM481 766c-20 0 -37.334 3 -52.001 9s-26.5 14 -35.5 24s-15.667 21.5 -20 34.5s-6.5 26.5 -6.5 40.5c0 10.667 1 21 3 31h58c-0.666992 -2 -1 -6 -1 -12
c0 -19.333 5.33301 -34.5 16 -45.5s26 -16.5 46 -16.5c14 0 26 2.5 36 7.5s18.333 11.167 25 18.5s11.834 15.333 15.501 24s6.5 16.667 8.5 24h62c-6 -44 -22.667 -78.167 -50 -102.5s-62.333 -36.5 -105 -36.5z" />
    <glyph glyph-name="ebreve" unicode="&#x115;" horiz-adv-x="518" 
d="M204 273c38.667 1.33301 73.999 3.83105 105.999 7.49805s59.667 10 83 19s41.5 21.167 54.5 36.5s19.5 35.333 19.5 60c0 6 -1.16699 12.333 -3.5 19s-6.33301 12.834 -12 18.501s-13.5 10.334 -23.5 14.001s-22.333 5.5 -37 5.5c-23.333 0 -45.166 -5 -65.499 -15
s-38.5 -23.167 -54.5 -39.5s-29.667 -35.333 -41 -57s-20 -44.5 -26 -68.5zM298.999 -13.002c-34 0 -63.332 4.83398 -87.999 14.501s-45.334 23 -62.001 40s-29 36.833 -37 59.5s-12 46.667 -12 72c0 46.667 7 91.667 21 135s34 81.666 60 114.999s57.667 59.833 95 79.5
s79.666 29.5 126.999 29.5c27.333 0 50.833 -3.5 70.5 -10.5s35.667 -16.5 48 -28.5s21.5 -25.833 27.5 -41.5s9 -31.834 9 -48.501c0 -31.333 -5.66699 -57.833 -17 -79.5s-26.333 -39.834 -45 -54.501s-40.5 -26 -65.5 -34s-51 -14.333 -78 -19
s-54.333 -7.83398 -82 -9.50098s-53.834 -3.16699 -78.501 -4.5c-0.666992 -5.33301 -1 -9.66602 -1 -12.999v-8c0 -15.333 1.83301 -29.833 5.5 -43.5s10.5 -25.667 20.5 -36s23.833 -18.5 41.5 -24.5s40.834 -9 69.501 -9c12.667 0 25.834 1.16699 39.501 3.5
s26.667 5.33301 39 9s23.333 7.33398 33 11.001s16.5 7.16699 20.5 10.5l8 -79c-13.333 -7.33301 -34.833 -15.166 -64.5 -23.499s-64.5 -12.5 -104.5 -12.5zM428 609.999c-20 0 -37.334 3 -52.001 9s-26.5 14 -35.5 24s-15.667 21.5 -20 34.5s-6.5 26.5 -6.5 40.5
c0 10.667 1 21 3 31h58c-0.666992 -2 -1 -6 -1 -12c0 -19.333 5.33301 -34.5 16 -45.5s26 -16.5 46 -16.5c14 0 26 2.5 36 7.5s18.333 11.167 25 18.5s11.834 15.333 15.501 24s6.5 16.667 8.5 24h62c-6 -44 -22.667 -78.167 -50 -102.5s-62.333 -36.5 -105 -36.5z" />
    <glyph glyph-name="Edotaccent" unicode="&#x116;" horiz-adv-x="557" 
d="M81 0l166 693h409l-19 -81h-313l-50 -209h278l-19 -79h-277l-59 -243h336l-19 -81h-433zM479 770c-15.333 0 -28.167 4.66797 -38.5 14.001s-15.5 22.333 -15.5 39c0 21.333 6.66699 38.166 20 50.499s28.333 18.5 45 18.5c15.333 0 28.333 -4.83301 39 -14.5
s16 -23.167 16 -40.5c0 -20 -7 -36.167 -21 -48.5s-29 -18.5 -45 -18.5z" />
    <glyph glyph-name="edotaccent" unicode="&#x117;" horiz-adv-x="518" 
d="M204 273c38.667 1.33301 73.999 3.83105 105.999 7.49805s59.667 10 83 19s41.5 21.167 54.5 36.5s19.5 35.333 19.5 60c0 6 -1.16699 12.333 -3.5 19s-6.33301 12.834 -12 18.501s-13.5 10.334 -23.5 14.001s-22.333 5.5 -37 5.5c-23.333 0 -45.166 -5 -65.499 -15
s-38.5 -23.167 -54.5 -39.5s-29.667 -35.333 -41 -57s-20 -44.5 -26 -68.5zM298.999 -13.002c-34 0 -63.332 4.83398 -87.999 14.501s-45.334 23 -62.001 40s-29 36.833 -37 59.5s-12 46.667 -12 72c0 46.667 7 91.667 21 135s34 81.666 60 114.999s57.667 59.833 95 79.5
s79.666 29.5 126.999 29.5c27.333 0 50.833 -3.5 70.5 -10.5s35.667 -16.5 48 -28.5s21.5 -25.833 27.5 -41.5s9 -31.834 9 -48.501c0 -31.333 -5.66699 -57.833 -17 -79.5s-26.333 -39.834 -45 -54.501s-40.5 -26 -65.5 -34s-51 -14.333 -78 -19
s-54.333 -7.83398 -82 -9.50098s-53.834 -3.16699 -78.501 -4.5c-0.666992 -5.33301 -1 -9.66602 -1 -12.999v-8c0 -15.333 1.83301 -29.833 5.5 -43.5s10.5 -25.667 20.5 -36s23.833 -18.5 41.5 -24.5s40.834 -9 69.501 -9c12.667 0 25.834 1.16699 39.501 3.5
s26.667 5.33301 39 9s23.333 7.33398 33 11.001s16.5 7.16699 20.5 10.5l8 -79c-13.333 -7.33301 -34.833 -15.166 -64.5 -23.499s-64.5 -12.5 -104.5 -12.5zM426 613.999c-15.333 0 -28.167 4.66797 -38.5 14.001s-15.5 22.333 -15.5 39c0 21.333 6.66699 38.166 20 50.499
s28.333 18.5 45 18.5c15.333 0 28.333 -4.83301 39 -14.5s16 -23.167 16 -40.5c0 -20 -7 -36.167 -21 -48.5s-29 -18.5 -45 -18.5z" />
    <glyph glyph-name="Eogonek" unicode="&#x118;" horiz-adv-x="557" 
d="M419 -187c-36.667 0 -62.334 5.83105 -77.001 17.498s-22 26.834 -22 45.501c0 18 6 35.333 18 52s26 31.667 42 45l19.5 15l16.5 12h-335l166 693h409l-19 -81h-313l-50 -209h278l-19 -79h-277l-59 -243h336l-18 -76c-8.66699 -5.33301 -18.167 -11.5 -28.5 -18.5
s-21.166 -15.5 -32.499 -25.5l-14 -11.5c-5.33301 -4.33301 -10.333 -9.16602 -15 -14.499s-8.66699 -11 -12 -17s-5 -12.333 -5 -19s2.83301 -12 8.5 -16s15.167 -6 28.5 -6c6.66699 0 13.5 0.666992 20.5 2s13.5 3 19.5 5l-8 -60c-16 -7.33301 -35.333 -11 -58 -11z" />
    <glyph glyph-name="eogonek" unicode="&#x119;" horiz-adv-x="518" 
d="M100 173c0 46.667 7.00098 91.668 21.001 135.001s34 81.666 60 114.999s57.667 59.833 95 79.5s79.666 29.5 126.999 29.5c27.333 0 50.833 -3.5 70.5 -10.5s35.667 -16.5 48 -28.5s21.5 -25.833 27.5 -41.5s9 -31.834 9 -48.501c0 -31.333 -5.66699 -57.833 -17 -79.5
s-26.333 -39.834 -45 -54.501s-40.5 -26 -65.5 -34s-51 -14.333 -78 -19s-54.333 -7.83398 -82 -9.50098s-53.834 -3.16699 -78.501 -4.5c-0.666992 -5.33301 -1 -9.66602 -1 -12.999v-8c0 -15.333 1.83301 -29.833 5.5 -43.5s10.5 -25.667 20.5 -36
s23.833 -18.5 41.5 -24.5s40.834 -9 69.501 -9c12.667 0 25.834 1.16699 39.501 3.5s26.667 5.33301 39 9s23.333 7.33398 33 11.001s16.5 7.16699 20.5 10.5l6 -80c-11.333 -6 -23 -13.5 -35 -22.5s-26.667 -20.833 -44 -35.5
c-3.33301 -3.33301 -7.66602 -7.33301 -12.999 -12s-10.5 -9.83398 -15.5 -15.501s-9.33301 -11.667 -13 -18s-5.5 -12.833 -5.5 -19.5s2.83301 -12 8.5 -16s15.167 -6 28.5 -6c6.66699 0 13.5 0.666992 20.5 2s13.5 3 19.5 5l-8 -60c-16 -7.33301 -35.333 -11 -58 -11
c-36.667 0 -62.334 5.83301 -77.001 17.5s-22 26.834 -22 45.501c0 18 6 35.333 18 52s26 31.667 42 45c3.33301 2.66699 7.66602 5.83398 12.999 9.50098s10.333 6.83398 15 9.50098c-4.66699 -1.33301 -11.5 -2.16602 -20.5 -2.49902s-16.5 -0.5 -22.5 -0.5
c-34 0 -63.333 4.5 -88 13.5s-45 21.667 -61 38s-28 35.666 -36 57.999s-12 47.166 -12 74.499zM204.001 273.001c38.667 1.33301 73.999 3.83105 105.999 7.49805s59.667 10 83 19s41.5 21.167 54.5 36.5s19.5 35.333 19.5 60c0 6 -1.16699 12.333 -3.5 19
s-6.33301 12.834 -12 18.501s-13.5 10.334 -23.5 14.001s-22.333 5.5 -37 5.5c-23.333 0 -45.166 -5 -65.499 -15s-38.5 -23.167 -54.5 -39.5s-29.667 -35.333 -41 -57s-20 -44.5 -26 -68.5z" />
    <glyph glyph-name="Ecaron" unicode="&#x11a;" horiz-adv-x="557" 
d="M81 0l166 693h409l-19 -81h-313l-50 -209h278l-19 -79h-277l-59 -243h336l-19 -81h-433zM480 843l112 82l33 -45l-162 -139l-106 148l44 41z" />
    <glyph glyph-name="ecaron" unicode="&#x11b;" horiz-adv-x="518" 
d="M204 273c38.667 1.33301 73.999 3.83105 105.999 7.49805s59.667 10 83 19s41.5 21.167 54.5 36.5s19.5 35.333 19.5 60c0 6 -1.16699 12.333 -3.5 19s-6.33301 12.834 -12 18.501s-13.5 10.334 -23.5 14.001s-22.333 5.5 -37 5.5c-23.333 0 -45.166 -5 -65.499 -15
s-38.5 -23.167 -54.5 -39.5s-29.667 -35.333 -41 -57s-20 -44.5 -26 -68.5zM298.999 -13.002c-34 0 -63.332 4.83398 -87.999 14.501s-45.334 23 -62.001 40s-29 36.833 -37 59.5s-12 46.667 -12 72c0 46.667 7 91.667 21 135s34 81.666 60 114.999s57.667 59.833 95 79.5
s79.666 29.5 126.999 29.5c27.333 0 50.833 -3.5 70.5 -10.5s35.667 -16.5 48 -28.5s21.5 -25.833 27.5 -41.5s9 -31.834 9 -48.501c0 -31.333 -5.66699 -57.833 -17 -79.5s-26.333 -39.834 -45 -54.501s-40.5 -26 -65.5 -34s-51 -14.333 -78 -19
s-54.333 -7.83398 -82 -9.50098s-53.834 -3.16699 -78.501 -4.5c-0.666992 -5.33301 -1 -9.66602 -1 -12.999v-8c0 -15.333 1.83301 -29.833 5.5 -43.5s10.5 -25.667 20.5 -36s23.833 -18.5 41.5 -24.5s40.834 -9 69.501 -9c12.667 0 25.834 1.16699 39.501 3.5
s26.667 5.33301 39 9s23.333 7.33398 33 11.001s16.5 7.16699 20.5 10.5l8 -79c-13.333 -7.33301 -34.833 -15.166 -64.5 -23.499s-64.5 -12.5 -104.5 -12.5zM426 686.999l112 82l33 -45l-162 -139l-106 148l44 41z" />
    <glyph glyph-name="Gcircumflex" unicode="&#x11c;" horiz-adv-x="651" 
d="M380 -14c-84 0 -147.669 24.168 -191.002 72.501s-65 113.5 -65 195.5c0 60 9.5 117.333 28.5 172s46.167 103 81.5 145s77.833 75.5 127.5 100.5s105.5 37.5 167.5 37.5c30.667 0 57.167 -2 79.5 -6s41.5 -8.66699 57.5 -14s29 -10.833 39 -16.5s18 -10.5 24 -14.5
l-43 -79c-5.33301 3.33301 -12.666 7.66602 -21.999 12.999s-20.666 10.5 -33.999 15.5s-28.666 9.16699 -45.999 12.5s-37 5 -59 5c-47.333 0 -89.666 -10.833 -126.999 -32.5s-68.833 -49.667 -94.5 -84s-45.167 -73 -58.5 -116s-20 -85.5 -20 -127.5
c0 -66 14 -115.167 42 -147.5s72.333 -48.5 133 -48.5c24.667 0 47 1.66699 67 5s34.333 6.66602 43 9.99902l60 254h95l-76 -316c-8 -4.66699 -19 -9.16699 -33 -13.5s-30.333 -8.16602 -49 -11.499s-38.834 -6 -60.501 -8s-43.834 -3 -66.501 -3zM553.998 823.001
l-112 -82l-33 45l162 139l106 -148l-44 -41z" />
    <glyph glyph-name="gcircumflex" unicode="&#x11d;" horiz-adv-x="550" 
d="M202 -108c27.333 0 51.335 3.33008 72.002 9.99707s38.5 16.334 53.5 29.001s27.167 27.667 36.5 45s16.666 37 21.999 59l4 19c-13.333 -7.33301 -31.333 -14.666 -54 -21.999s-46 -11 -70 -11c-54 0 -95.5 13.5 -124.5 40.5s-43.5 64.833 -43.5 113.5
c0 44.667 7.33301 88.334 22 131.001s37 80.667 67 114s67.333 60.166 112 80.499s97 30.5 157 30.5c9.33301 0 19.833 -0.666992 31.5 -2s23.667 -3.16602 36 -5.49902s24.333 -5.5 36 -9.5s21.834 -8.66699 30.501 -14l-109 -455
c-8.66699 -36 -19.334 -68.333 -32.001 -97s-30 -53 -52 -73s-50.333 -35.5 -85 -46.5s-78 -16.5 -130 -16.5c-28.667 0 -57 3.83301 -85 11.5s-51.667 17.167 -71 28.5l35 78c15.333 -11.333 35.666 -20.5 60.999 -27.5s52 -10.5 80 -10.5zM286.002 98.9971
c26.667 0 51.168 4.83301 73.501 14.5s39.5 18.834 51.5 27.501l73 304c-6.66699 1.33301 -14.334 2.66602 -23.001 3.99902s-17 2 -25 2c-36 0 -69 -6.83301 -99 -20.5s-55.833 -32 -77.5 -55s-38.5 -49.667 -50.5 -80s-18 -61.833 -18 -94.5c0 -36 7.83301 -62 23.5 -78
s39.5 -24 71.5 -24zM443.003 666.997l-112 -82l-33 45l162 139l106 -148l-44 -41z" />
    <glyph glyph-name="Gbreve" unicode="&#x11e;" horiz-adv-x="651" 
d="M380 -14c-84 0 -147.669 24.168 -191.002 72.501s-65 113.5 -65 195.5c0 60 9.5 117.333 28.5 172s46.167 103 81.5 145s77.833 75.5 127.5 100.5s105.5 37.5 167.5 37.5c30.667 0 57.167 -2 79.5 -6s41.5 -8.66699 57.5 -14s29 -10.833 39 -16.5s18 -10.5 24 -14.5
l-43 -79c-5.33301 3.33301 -12.666 7.66602 -21.999 12.999s-20.666 10.5 -33.999 15.5s-28.666 9.16699 -45.999 12.5s-37 5 -59 5c-47.333 0 -89.666 -10.833 -126.999 -32.5s-68.833 -49.667 -94.5 -84s-45.167 -73 -58.5 -116s-20 -85.5 -20 -127.5
c0 -66 14 -115.167 42 -147.5s72.333 -48.5 133 -48.5c24.667 0 47 1.66699 67 5s34.333 6.66602 43 9.99902l60 254h95l-76 -316c-8 -4.66699 -19 -9.16699 -33 -13.5s-30.333 -8.16602 -49 -11.499s-38.834 -6 -60.501 -8s-43.834 -3 -66.501 -3zM551.998 766.001
c-20 0 -37.334 3 -52.001 9s-26.5 14 -35.5 24s-15.667 21.5 -20 34.5s-6.5 26.5 -6.5 40.5c0 10.667 1 21 3 31h58c-0.666992 -2 -1 -6 -1 -12c0 -19.333 5.33301 -34.5 16 -45.5s26 -16.5 46 -16.5c14 0 26 2.5 36 7.5s18.333 11.167 25 18.5s11.834 15.333 15.501 24
s6.5 16.667 8.5 24h62c-6 -44 -22.667 -78.167 -50 -102.5s-62.333 -36.5 -105 -36.5z" />
    <glyph glyph-name="gbreve" unicode="&#x11f;" horiz-adv-x="550" 
d="M202 -108c27.333 0 51.335 3.33008 72.002 9.99707s38.5 16.334 53.5 29.001s27.167 27.667 36.5 45s16.666 37 21.999 59l4 19c-13.333 -7.33301 -31.333 -14.666 -54 -21.999s-46 -11 -70 -11c-54 0 -95.5 13.5 -124.5 40.5s-43.5 64.833 -43.5 113.5
c0 44.667 7.33301 88.334 22 131.001s37 80.667 67 114s67.333 60.166 112 80.499s97 30.5 157 30.5c9.33301 0 19.833 -0.666992 31.5 -2s23.667 -3.16602 36 -5.49902s24.333 -5.5 36 -9.5s21.834 -8.66699 30.501 -14l-109 -455
c-8.66699 -36 -19.334 -68.333 -32.001 -97s-30 -53 -52 -73s-50.333 -35.5 -85 -46.5s-78 -16.5 -130 -16.5c-28.667 0 -57 3.83301 -85 11.5s-51.667 17.167 -71 28.5l35 78c15.333 -11.333 35.666 -20.5 60.999 -27.5s52 -10.5 80 -10.5zM286.002 98.9971
c26.667 0 51.168 4.83301 73.501 14.5s39.5 18.834 51.5 27.501l73 304c-6.66699 1.33301 -14.334 2.66602 -23.001 3.99902s-17 2 -25 2c-36 0 -69 -6.83301 -99 -20.5s-55.833 -32 -77.5 -55s-38.5 -49.667 -50.5 -80s-18 -61.833 -18 -94.5c0 -36 7.83301 -62 23.5 -78
s39.5 -24 71.5 -24zM442.003 609.997c-20 0 -37.334 3 -52.001 9s-26.5 14 -35.5 24s-15.667 21.5 -20 34.5s-6.5 26.5 -6.5 40.5c0 10.667 1 21 3 31h58c-0.666992 -2 -1 -6 -1 -12c0 -19.333 5.33301 -34.5 16 -45.5s26 -16.5 46 -16.5c14 0 26 2.5 36 7.5
s18.333 11.167 25 18.5s11.834 15.333 15.501 24s6.5 16.667 8.5 24h62c-6 -44 -22.667 -78.167 -50 -102.5s-62.333 -36.5 -105 -36.5z" />
    <glyph glyph-name="Gdotaccent" unicode="&#x120;" horiz-adv-x="651" 
d="M380 -14c-84 0 -147.669 24.168 -191.002 72.501s-65 113.5 -65 195.5c0 60 9.5 117.333 28.5 172s46.167 103 81.5 145s77.833 75.5 127.5 100.5s105.5 37.5 167.5 37.5c30.667 0 57.167 -2 79.5 -6s41.5 -8.66699 57.5 -14s29 -10.833 39 -16.5s18 -10.5 24 -14.5
l-43 -79c-5.33301 3.33301 -12.666 7.66602 -21.999 12.999s-20.666 10.5 -33.999 15.5s-28.666 9.16699 -45.999 12.5s-37 5 -59 5c-47.333 0 -89.666 -10.833 -126.999 -32.5s-68.833 -49.667 -94.5 -84s-45.167 -73 -58.5 -116s-20 -85.5 -20 -127.5
c0 -66 14 -115.167 42 -147.5s72.333 -48.5 133 -48.5c24.667 0 47 1.66699 67 5s34.333 6.66602 43 9.99902l60 254h95l-76 -316c-8 -4.66699 -19 -9.16699 -33 -13.5s-30.333 -8.16602 -49 -11.499s-38.834 -6 -60.501 -8s-43.834 -3 -66.501 -3zM549.998 770.001
c-15.333 0 -28.167 4.66797 -38.5 14.001s-15.5 22.333 -15.5 39c0 21.333 6.66699 38.166 20 50.499s28.333 18.5 45 18.5c15.333 0 28.333 -4.83301 39 -14.5s16 -23.167 16 -40.5c0 -20 -7 -36.167 -21 -48.5s-29 -18.5 -45 -18.5z" />
    <glyph glyph-name="gdotaccent" unicode="&#x121;" horiz-adv-x="550" 
d="M202 -108c27.333 0 51.335 3.33008 72.002 9.99707s38.5 16.334 53.5 29.001s27.167 27.667 36.5 45s16.666 37 21.999 59l4 19c-13.333 -7.33301 -31.333 -14.666 -54 -21.999s-46 -11 -70 -11c-54 0 -95.5 13.5 -124.5 40.5s-43.5 64.833 -43.5 113.5
c0 44.667 7.33301 88.334 22 131.001s37 80.667 67 114s67.333 60.166 112 80.499s97 30.5 157 30.5c9.33301 0 19.833 -0.666992 31.5 -2s23.667 -3.16602 36 -5.49902s24.333 -5.5 36 -9.5s21.834 -8.66699 30.501 -14l-109 -455
c-8.66699 -36 -19.334 -68.333 -32.001 -97s-30 -53 -52 -73s-50.333 -35.5 -85 -46.5s-78 -16.5 -130 -16.5c-28.667 0 -57 3.83301 -85 11.5s-51.667 17.167 -71 28.5l35 78c15.333 -11.333 35.666 -20.5 60.999 -27.5s52 -10.5 80 -10.5zM286.002 98.9971
c26.667 0 51.168 4.83301 73.501 14.5s39.5 18.834 51.5 27.501l73 304c-6.66699 1.33301 -14.334 2.66602 -23.001 3.99902s-17 2 -25 2c-36 0 -69 -6.83301 -99 -20.5s-55.833 -32 -77.5 -55s-38.5 -49.667 -50.5 -80s-18 -61.833 -18 -94.5c0 -36 7.83301 -62 23.5 -78
s39.5 -24 71.5 -24zM439.003 613.997c-15.333 0 -28.167 4.66797 -38.5 14.001s-15.5 22.333 -15.5 39c0 21.333 6.66699 38.166 20 50.499s28.333 18.5 45 18.5c15.333 0 28.333 -4.83301 39 -14.5s16 -23.167 16 -40.5c0 -20 -7 -36.167 -21 -48.5s-29 -18.5 -45 -18.5z
" />
    <glyph glyph-name="Gcommaaccent" unicode="&#x122;" horiz-adv-x="651" 
d="M380 -14c-84 0 -147.669 24.168 -191.002 72.501s-65 113.5 -65 195.5c0 60 9.5 117.333 28.5 172s46.167 103 81.5 145s77.833 75.5 127.5 100.5s105.5 37.5 167.5 37.5c30.667 0 57.167 -2 79.5 -6s41.5 -8.66699 57.5 -14s29 -10.833 39 -16.5s18 -10.5 24 -14.5
l-43 -79c-5.33301 3.33301 -12.666 7.66602 -21.999 12.999s-20.666 10.5 -33.999 15.5s-28.666 9.16699 -45.999 12.5s-37 5 -59 5c-47.333 0 -89.666 -10.833 -126.999 -32.5s-68.833 -49.667 -94.5 -84s-45.167 -73 -58.5 -116s-20 -85.5 -20 -127.5
c0 -66 14 -115.167 42 -147.5s72.333 -48.5 133 -48.5c24.667 0 47 1.66699 67 5s34.333 6.66602 43 9.99902l60 254h95l-76 -316c-8 -4.66699 -19 -9.16699 -33 -13.5s-30.333 -8.16602 -49 -11.499s-38.834 -6 -60.501 -8s-43.834 -3 -66.501 -3zM418.998 -49.999
c-3.33301 -19.333 -7.99902 -37.334 -13.999 -54.001s-14.5 -31.167 -25.5 -43.5s-24.5 -22 -40.5 -29s-35.667 -10.5 -59 -10.5c-7.33301 0 -14.833 0.5 -22.5 1.5s-13.834 2.16699 -18.501 3.5l14 55c1.33301 -0.666992 3.5 -1 6.5 -1h7.5c18 0 31.5 5.33301 40.5 16
s17.167 31.334 24.5 62.001h87z" />
    <glyph glyph-name="gcommaaccent" unicode="&#x123;" horiz-adv-x="550" 
d="M202 -108c27.333 0 51.335 3.33008 72.002 9.99707s38.5 16.334 53.5 29.001s27.167 27.667 36.5 45s16.666 37 21.999 59l4 19c-13.333 -7.33301 -31.333 -14.666 -54 -21.999s-46 -11 -70 -11c-54 0 -95.5 13.5 -124.5 40.5s-43.5 64.833 -43.5 113.5
c0 44.667 7.33301 88.334 22 131.001s37 80.667 67 114s67.333 60.166 112 80.499s97 30.5 157 30.5c9.33301 0 19.833 -0.666992 31.5 -2s23.667 -3.16602 36 -5.49902s24.333 -5.5 36 -9.5s21.834 -8.66699 30.501 -14l-109 -455
c-8.66699 -36 -19.334 -68.333 -32.001 -97s-30 -53 -52 -73s-50.333 -35.5 -85 -46.5s-78 -16.5 -130 -16.5c-28.667 0 -57 3.83301 -85 11.5s-51.667 17.167 -71 28.5l35 78c15.333 -11.333 35.666 -20.5 60.999 -27.5s52 -10.5 80 -10.5zM286.002 98.9971
c26.667 0 51.168 4.83301 73.501 14.5s39.5 18.834 51.5 27.501l73 304c-6.66699 1.33301 -14.334 2.66602 -23.001 3.99902s-17 2 -25 2c-36 0 -69 -6.83301 -99 -20.5s-55.833 -32 -77.5 -55s-38.5 -49.667 -50.5 -80s-18 -61.833 -18 -94.5c0 -36 7.83301 -62 23.5 -78
s39.5 -24 71.5 -24zM384.003 608.997c4.66699 46.667 20 85 46 115s60 48.667 102 56l27 -44c-12 -5.33301 -22.5 -11.166 -31.5 -17.499s-16.833 -14.333 -23.5 -24s-12.5 -21.334 -17.5 -35.001s-9.5 -30.5 -13.5 -50.5h-89z" />
    <glyph glyph-name="Hcircumflex" unicode="&#x124;" horiz-adv-x="681" 
d="M596 0h-97l77 322h-321l-77 -322h-97l166 693h97l-70 -290h321l70 290h97zM535 823l-112 -82l-33 45l162 139l106 -148l-44 -41z" />
    <glyph glyph-name="hcircumflex" unicode="&#x125;" horiz-adv-x="552" 
d="M76 0l183.001 759.998l97 16l-64 -263c15.333 5.33301 31.5 9.66602 48.5 12.999s34.167 5 51.5 5c30 0 55.833 -4.16699 77.5 -12.5s39.167 -19.666 52.5 -33.999s23.166 -31.666 29.499 -51.999s9.5 -42.5 9.5 -66.5c0 -29.333 -4.66699 -62.666 -14 -99.999l-64 -266
h-93l59 246c4.66699 18.667 9.16699 37.667 13.5 57s6.5 37.666 6.5 54.999c0 26.667 -7.33301 48.834 -22 66.501s-42 26.5 -82 26.5c-16 0 -32.5 -1.5 -49.5 -4.5s-31.167 -7.16699 -42.5 -12.5l-104 -434h-93zM492.001 854.998l-37 -40l-72 65l-98 -64l-27 47l136 99z
" />
    <glyph glyph-name="Hbar" unicode="&#x126;" horiz-adv-x="709" 
d="M752 594h75l-17 -71h-75l-125 -523h-97l77 322h-321l-77 -322h-97l125 523h-75l17 71h75l24 99h97l-24 -99h321l24 99h97zM609 403l29 120h-321l-29 -120h321z" />
    <glyph glyph-name="hbar" unicode="&#x127;" horiz-adv-x="552" 
d="M76 0l148.001 613.998h-74l16 69h74l19 77l97 16l-23 -93h157l-16 -69h-158l-25 -105c15.333 5.33301 31.5 9.66602 48.5 12.999s34.167 5 51.5 5c30 0 55.833 -4.16699 77.5 -12.5s39.167 -19.666 52.5 -33.999s23.166 -31.666 29.499 -51.999s9.5 -42.5 9.5 -66.5
c0 -29.333 -4.66699 -62.666 -14 -99.999l-63 -262h-93l58 242c4.66699 18.667 9.16699 37.667 13.5 57s6.5 37.666 6.5 54.999c0 26.667 -7.33301 48.834 -22 66.501s-42 26.5 -82 26.5c-16 0 -32.5 -1.5 -49.5 -4.5s-31.167 -7.16699 -42.5 -12.5l-103 -430h-93z" />
    <glyph glyph-name="Itilde" unicode="&#x128;" horiz-adv-x="263" 
d="M247 693h97l-166 -693h-97zM344 863c10 -5.33301 19 -9.66602 27 -12.999s16 -5 24 -5c14 0 25.667 5.16699 35 15.5s17.666 21.166 24.999 32.499l47 -29c-13.333 -28 -29.166 -49.5 -47.499 -64.5s-42.5 -22.5 -72.5 -22.5c-13.333 0 -25.166 2.33301 -35.499 7
s-20.166 9.66699 -29.499 15c-10 5.33301 -19 9.66602 -27 12.999s-16 5 -24 5c-14 0 -25.667 -5.16699 -35 -15.5s-17.666 -21.166 -24.999 -32.499l-47 29c13.333 28 29.166 49.5 47.499 64.5s42.5 22.5 72.5 22.5c13.333 0 25.166 -2.33301 35.499 -7
s20.166 -9.66699 29.499 -15z" />
    <glyph glyph-name="itilde" unicode="&#x129;" horiz-adv-x="249" 
d="M169 0h-93l125 520h93zM301 707c10 -5.33301 19 -9.66602 27 -12.999s16 -5 24 -5c14 0 25.667 5.16699 35 15.5s17.666 21.166 24.999 32.499l47 -29c-13.333 -28 -29.166 -49.5 -47.499 -64.5s-42.5 -22.5 -72.5 -22.5c-13.333 0 -25.166 2.33301 -35.499 7
s-20.166 9.66699 -29.499 15c-10 5.33301 -19 9.66602 -27 12.999s-16 5 -24 5c-14 0 -25.667 -5.16699 -35 -15.5s-17.666 -21.166 -24.999 -32.499l-47 29c13.333 28 29.166 49.5 47.499 64.5s42.5 22.5 72.5 22.5c13.333 0 25.166 -2.33301 35.499 -7
s20.166 -9.66699 29.499 -15z" />
    <glyph glyph-name="Imacron" unicode="&#x12a;" horiz-adv-x="263" 
d="M247 693h97l-166 -693h-97zM199 867h280l-17 -72h-280z" />
    <glyph glyph-name="imacron" unicode="&#x12b;" horiz-adv-x="249" 
d="M169 0h-93l125 520h93zM156 711h280l-17 -72h-280z" />
    <glyph glyph-name="Ibreve" unicode="&#x12c;" horiz-adv-x="263" 
d="M247 693h97l-166 -693h-97zM327 766c-20 0 -37.334 3 -52.001 9s-26.5 14 -35.5 24s-15.667 21.5 -20 34.5s-6.5 26.5 -6.5 40.5c0 10.667 1 21 3 31h58c-0.666992 -2 -1 -6 -1 -12c0 -19.333 5.33301 -34.5 16 -45.5s26 -16.5 46 -16.5c14 0 26 2.5 36 7.5
s18.333 11.167 25 18.5s11.834 15.333 15.501 24s6.5 16.667 8.5 24h62c-6 -44 -22.667 -78.167 -50 -102.5s-62.333 -36.5 -105 -36.5z" />
    <glyph glyph-name="ibreve" unicode="&#x12d;" horiz-adv-x="249" 
d="M169 0h-93l125 520h93zM284 610c-20 0 -37.334 3 -52.001 9s-26.5 14 -35.5 24s-15.667 21.5 -20 34.5s-6.5 26.5 -6.5 40.5c0 10.667 1 21 3 31h58c-0.666992 -2 -1 -6 -1 -12c0 -19.333 5.33301 -34.5 16 -45.5s26 -16.5 46 -16.5c14 0 26 2.5 36 7.5
s18.333 11.167 25 18.5s11.834 15.333 15.501 24s6.5 16.667 8.5 24h62c-6 -44 -22.667 -78.167 -50 -102.5s-62.333 -36.5 -105 -36.5z" />
    <glyph glyph-name="Iogonek" unicode="&#x12e;" horiz-adv-x="263" 
d="M247 693l97.001 -0.00195312l-166 -693c-7.33301 -4 -15.5 -8.83301 -24.5 -14.5s-18.833 -13.167 -29.5 -22.5l-14.5 -12c-5.66699 -4.66699 -11 -9.66699 -16 -15s-9.16699 -11.166 -12.5 -17.499s-5 -12.833 -5 -19.5s2.83301 -12 8.5 -16s15.167 -6 28.5 -6
c6.66699 0 13.5 0.666992 20.5 2s13.5 3 19.5 5l-8 -60c-16 -7.33301 -35.333 -11 -58 -11c-36.667 0 -62.334 5.83301 -77.001 17.5s-22 26.834 -22 45.501c0 18 6 35.333 18 52s26 31.667 42 45c6 5.33301 11.667 10 17 14l16 12z" />
    <glyph glyph-name="iogonek" unicode="&#x12f;" horiz-adv-x="249" 
d="M80 -187c-36.667 0 -62.332 5.83105 -76.999 17.498s-22 26.834 -22 45.501c0 18 6 35.333 18 52s26 31.667 42 45c5.33301 4.66699 11.166 9.5 17.499 14.5s12.166 9.16699 17.499 12.5l125 520h93l-125 -520c-7.33301 -5.33301 -15.666 -11 -24.999 -17
s-19 -13.333 -29 -22l-14 -11.5c-5.33301 -4.33301 -10.333 -9.16602 -15 -14.499s-8.66699 -11 -12 -17s-5 -12.333 -5 -19s2.83301 -12 8.5 -16s15.167 -6 28.5 -6c6.66699 0 13.5 0.666992 20.5 2s13.5 3 19.5 5l-8 -60c-16 -7.33301 -35.333 -11 -58 -11z
M277.002 613.998c-15.333 0 -28.167 4.66797 -38.5 14.001s-15.5 22.333 -15.5 39c0 21.333 6.66699 38.166 20 50.499s28.333 18.5 45 18.5c15.333 0 28.333 -4.83301 39 -14.5s16 -23.167 16 -40.5c0 -20 -7 -36.167 -21 -48.5s-29 -18.5 -45 -18.5z" />
    <glyph glyph-name="Idotaccent" unicode="&#x130;" horiz-adv-x="263" 
d="M247 693h97l-166 -693h-97zM322 770c-15.333 0 -28.167 4.66797 -38.5 14.001s-15.5 22.333 -15.5 39c0 21.333 6.66699 38.166 20 50.499s28.333 18.5 45 18.5c15.333 0 28.333 -4.83301 39 -14.5s16 -23.167 16 -40.5c0 -20 -7 -36.167 -21 -48.5s-29 -18.5 -45 -18.5z
" />
    <glyph glyph-name="dotlessi" unicode="&#x131;" horiz-adv-x="249" 
d="M169 0h-93l125 520h93z" />
    <glyph glyph-name="IJ" unicode="&#x132;" horiz-adv-x="749" 
d="M247 693h97l-166 -693h-97zM722 223c-8 -32 -16.999 -62.499 -26.999 -91.499s-24.167 -54.333 -42.5 -76s-42.333 -38.834 -72 -51.501s-67.834 -19 -114.501 -19c-23.333 0 -44.5 2.16699 -63.5 6.5s-35.833 9.83301 -50.5 16.5s-27.167 13.5 -37.5 20.5
s-18.166 13.5 -23.499 19.5l48 73c10.667 -10.667 26.667 -22 48 -34s48.333 -18 81 -18c24 0 44.333 3 61 9s31 15.5 43 28.5s22.167 29.833 30.5 50.5s16.166 45.667 23.499 75l111 461h97z" />
    <glyph glyph-name="ij" unicode="&#x133;" horiz-adv-x="502" 
d="M169 0h-93l125 520h93zM277 614c-15.333 0 -28.167 4.66797 -38.5 14.001s-15.5 22.333 -15.5 39c0 21.333 6.66699 38.166 20 50.499s28.333 18.5 45 18.5c15.333 0 28.333 -4.83301 39 -14.5s16 -23.167 16 -40.5c0 -20 -7 -36.167 -21 -48.5s-29 -18.5 -45 -18.5z
M425.999 20.001c-9.33301 -37.333 -19.498 -69.1641 -30.498 -95.4971s-24.667 -47.833 -41 -64.5s-35.833 -28.834 -58.5 -36.501s-50.334 -11.5 -83.001 -11.5c-11.333 0 -24.166 1.66699 -38.499 5s-25.5 7.66602 -33.5 12.999l21 77
c7.33301 -4.66699 16.666 -8.33398 27.999 -11.001s23.666 -4 36.999 -4c30 0 52.833 11.667 68.5 35s28.167 54 37.5 92l120 501h93zM530.001 614.003c-15.333 0 -28.167 4.66797 -38.5 14.001s-15.5 22.333 -15.5 39c0 21.333 6.66699 38.166 20 50.499
s28.333 18.5 45 18.5c15.333 0 28.333 -4.83301 39 -14.5s16 -23.167 16 -40.5c0 -20 -7 -36.167 -21 -48.5s-29 -18.5 -45 -18.5z" />
    <glyph glyph-name="Jcircumflex" unicode="&#x134;" horiz-adv-x="482" 
d="M455 223c-8 -32 -16.999 -62.499 -26.999 -91.499s-24.167 -54.333 -42.5 -76s-42.333 -38.834 -72 -51.501s-67.834 -19 -114.501 -19c-23.333 0 -44.5 2.16699 -63.5 6.5s-35.833 9.83301 -50.5 16.5s-27.167 13.5 -37.5 20.5s-18.166 13.5 -23.499 19.5l48 73
c10.667 -10.667 26.667 -22 48 -34s48.333 -18 81 -18c24 0 44.333 3 61 9s31 15.5 43 28.5s22.167 29.833 30.5 50.5s16.166 45.667 23.499 75l111 461h97zM548.001 823.001l-112 -82l-33 45l162 139l106 -148l-44 -41z" />
    <glyph glyph-name="jcircumflex" unicode="&#x135;" horiz-adv-x="249" 
d="M174 20c-9.33301 -37.333 -19.498 -69.1641 -30.498 -95.4971s-24.667 -47.833 -41 -64.5s-35.833 -28.834 -58.5 -36.501s-50.334 -11.5 -83.001 -11.5c-11.333 0 -24.166 1.66699 -38.499 5s-25.5 7.66602 -33.5 12.999l21 77
c7.33301 -4.66699 16.666 -8.33398 27.999 -11.001s23.666 -4 36.999 -4c30 0 52.833 11.667 68.5 35s28.167 54 37.5 92l120 501h93zM283.002 667.002l-112 -82l-33 45l162 139l106 -148l-44 -41z" />
    <glyph glyph-name="Kcommaaccent" unicode="&#x136;" horiz-adv-x="614" 
d="M750 693l-85.498 -76.499l-99 -86.5l-103.5 -88l-99 -81c20.667 -19.333 42.5 -43.333 65.5 -72s45.667 -59.334 68 -92.001s43.666 -66 63.999 -100s38.166 -66.333 53.499 -97h-108c-17.333 30.667 -36 62 -56 94s-40.5 62.667 -61.5 92s-42.5 56.833 -64.5 82.5
s-44 47.5 -66 65.5l-80 -334h-97l166 693h97l-73 -303l95 75l100 84l91.5 80l70.5 64h122zM374.002 -49.999c-3.33301 -19.333 -7.99902 -37.334 -13.999 -54.001s-14.5 -31.167 -25.5 -43.5s-24.5 -22 -40.5 -29s-35.667 -10.5 -59 -10.5c-7.33301 0 -14.833 0.5 -22.5 1.5
s-13.834 2.16699 -18.501 3.5l14 55c1.33301 -0.666992 3.5 -1 6.5 -1h7.5c18 0 31.5 5.33301 40.5 16s17.167 31.334 24.5 62.001h87z" />
    <glyph glyph-name="kcommaaccent" unicode="&#x137;" horiz-adv-x="517" 
d="M76 0l182.998 759.999l97 16l-112 -463c22 16 44.667 33.5 68 52.5l66.5 56.5l58 53.5c17.667 17 32.167 31.833 43.5 44.5h110c-14 -17.333 -31.833 -36.666 -53.5 -57.999l-68.5 -64.5l-72.5 -62.5c-24.333 -20 -46.166 -37 -65.499 -51
c18 -16.667 36.167 -36.5 54.5 -59.5s36 -47.333 53 -73s32.5 -51.667 46.5 -78s25.667 -50.833 35 -73.5h-101c-23.333 54 -51.166 103.667 -83.499 149s-66.5 82.333 -102.5 111l-63 -260h-93zM324.998 -50.001c-3.33301 -19.333 -7.99902 -37.334 -13.999 -54.001
s-14.5 -31.167 -25.5 -43.5s-24.5 -22 -40.5 -29s-35.667 -10.5 -59 -10.5c-7.33301 0 -14.833 0.5 -22.5 1.5s-13.834 2.16699 -18.501 3.5l14 55c1.33301 -0.666992 3.5 -1 6.5 -1h7.5c18 0 31.5 5.33301 40.5 16s17.167 31.334 24.5 62.001h87z" />
    <glyph glyph-name="kgreenlandic" unicode="&#x138;" horiz-adv-x="530" 
d="M169 0h-93l125 520h93l-51 -213c24.667 16.667 49.5 34.834 74.5 54.501s48.667 39.167 71 58.5l61.5 55c18.667 17.333 34 32.333 46 45h112c-15.333 -16.667 -34.333 -35.667 -57 -57l-72.5 -65.5l-77 -64.5c-25.667 -20.667 -48.834 -38.334 -69.501 -53.001
c18.667 -16 37.834 -35.333 57.501 -58s38.5 -46.667 56.5 -72s34.5 -51 49.5 -77s27.5 -50.333 37.5 -73h-102c-25.333 52 -55 100.667 -89 146s-71 82.333 -111 111z" />
    <glyph glyph-name="Lacute" unicode="&#x139;" horiz-adv-x="507" 
d="M504 81l-19 -81h-404l166 693h97l-147 -612h307zM466 864l-169 -128l-40 49l158 151z" />
    <glyph glyph-name="lacute" unicode="&#x13a;" horiz-adv-x="276" 
d="M215 229l-10.001 -43.0029c-3.33301 -14 -5 -27.333 -5 -40c0 -22.667 5.5 -40.667 16.5 -54s31.5 -21.666 61.5 -24.999l-21 -76c-27.333 0.666992 -50.5 4.83398 -69.5 12.501s-34.333 17.834 -46 30.501s-20.167 27.667 -25.5 45s-8 36.333 -8 57
c0 15.333 1.33301 31.333 4 48s6.33398 34 11.001 52l126 524l97 16zM444.999 879.997l-172 -61l-17 50l168 83z" />
    <glyph glyph-name="Lcommaaccent" unicode="&#x13b;" horiz-adv-x="507" 
d="M504 81l-19 -81h-404l166 693h97l-147 -612h307zM315 -50c-3.33301 -19.333 -7.99902 -37.334 -13.999 -54.001s-14.5 -31.167 -25.5 -43.5s-24.5 -22 -40.5 -29s-35.667 -10.5 -59 -10.5c-7.33301 0 -14.833 0.5 -22.5 1.5s-13.834 2.16699 -18.501 3.5l14 55
c1.33301 -0.666992 3.5 -1 6.5 -1h7.5c18 0 31.5 5.33301 40.5 16s17.167 31.334 24.5 62.001h87z" />
    <glyph glyph-name="lcommaaccent" unicode="&#x13c;" horiz-adv-x="276" 
d="M215 229l-10.001 -43.0029c-3.33301 -14 -5 -27.333 -5 -40c0 -22.667 5.5 -40.667 16.5 -54s31.5 -21.666 61.5 -24.999l-21 -76c-27.333 0.666992 -50.5 4.83398 -69.5 12.501s-34.333 17.834 -46 30.501s-20.167 27.667 -25.5 45s-8 36.333 -8 57
c0 15.333 1.33301 31.333 4 48s6.33398 34 11.001 52l126 524l97 16zM191.999 -50.0029c-3.33301 -19.333 -7.99902 -37.334 -13.999 -54.001s-14.5 -31.167 -25.5 -43.5s-24.5 -22 -40.5 -29s-35.667 -10.5 -59 -10.5c-7.33301 0 -14.833 0.5 -22.5 1.5
s-13.834 2.16699 -18.501 3.5l14 55c1.33301 -0.666992 3.5 -1 6.5 -1h7.5c18 0 31.5 5.33301 40.5 16s17.167 31.334 24.5 62.001h87z" />
    <glyph glyph-name="Lcaron" unicode="&#x13d;" horiz-adv-x="507" 
d="M504 81l-19 -81h-404l166 693h97l-147 -612h307zM523 695l-81 -223h-65l54 223h92z" />
    <glyph glyph-name="lcaron" unicode="&#x13e;" horiz-adv-x="296" 
d="M215 229l-10.001 -43.0029c-3.33301 -14 -5 -27.333 -5 -40c0 -22.667 5.5 -40.667 16.5 -54s31.5 -21.666 61.5 -24.999l-21 -76c-27.333 0.666992 -50.5 4.83398 -69.5 12.501s-34.333 17.834 -46 30.501s-20.167 27.667 -25.5 45s-8 36.333 -8 57
c0 15.333 1.33301 31.333 4 48s6.33398 34 11.001 52l126 524l97 16zM507.999 775.997l-81 -223h-65l54 223h92z" />
    <glyph glyph-name="Ldot" unicode="&#x13f;" horiz-adv-x="507" 
d="M504 81l-19 -81h-404l166 693h97l-147 -612h307zM465 303c-15.333 0 -28.167 4.66797 -38.5 14.001s-15.5 22.333 -15.5 39c0 21.333 6.66699 38.166 20 50.499s28.333 18.5 45 18.5c15.333 0 28.333 -4.83301 39 -14.5s16 -23.167 16 -40.5c0 -20 -7 -36.167 -21 -48.5
s-29 -18.5 -45 -18.5z" />
    <glyph glyph-name="ldot" unicode="&#x140;" horiz-adv-x="360" 
d="M215 229l-10.001 -43.0029c-3.33301 -14 -5 -27.333 -5 -40c0 -22.667 5.5 -40.667 16.5 -54s31.5 -21.666 61.5 -24.999l-21 -76c-27.333 0.666992 -50.5 4.83398 -69.5 12.501s-34.333 17.834 -46 30.501s-20.167 27.667 -25.5 45s-8 36.333 -8 57
c0 15.333 1.33301 31.333 4 48s6.33398 34 11.001 52l126 524l97 16zM375.999 302.997c-15.333 0 -28.167 4.66797 -38.5 14.001s-15.5 22.333 -15.5 39c0 21.333 6.66699 38.166 20 50.499s28.333 18.5 45 18.5c15.333 0 28.333 -4.83301 39 -14.5s16 -23.167 16 -40.5
c0 -20 -7 -36.167 -21 -48.5s-29 -18.5 -45 -18.5z" />
    <glyph glyph-name="Lslash" unicode="&#x141;" horiz-adv-x="527" 
d="M524 81l-19 -81h-404l68 283l-77 -36l-16 69l113 54l78 323h97l-68 -281l126 60l16 -69l-162 -77l-59 -245h307z" />
    <glyph glyph-name="lslash" unicode="&#x142;" horiz-adv-x="318" 
d="M302 468l76.999 35.9971l16 -69l-114 -54l-36 -152l-10 -43c-3.33301 -14 -5 -27.333 -5 -40c0 -22.667 5.5 -40.667 16.5 -54s31.5 -21.666 61.5 -24.999l-21 -76c-27.333 0.666992 -50.5 4.83398 -69.5 12.501s-34.333 17.834 -46 30.501s-20.167 27.667 -25.5 45
s-8 36.333 -8 57c0 15.333 1.33301 31.333 4 48s6.33398 34 11.001 52l26 105l-70 -33l-16 69l106 50l80 333l97 16z" />
    <glyph glyph-name="Nacute" unicode="&#x143;" horiz-adv-x="698" 
d="M528 0l-42.9941 131.999c-16.667 49.333 -34.834 99.333 -54.501 150s-39.834 99.834 -60.501 147.501s-41 89.167 -61 124.5l-133 -554h-95l166 693h83c21.333 -36 43.166 -76.833 65.499 -122.5s43.666 -92.5 63.999 -140.5s39.166 -95 56.499 -141
s31.666 -87.333 42.999 -124l124 528h95l-165 -693h-85zM660.006 863.999l-169 -128l-40 49l158 151z" />
    <glyph glyph-name="nacute" unicode="&#x144;" horiz-adv-x="551" 
d="M169 0l-93 -0.00195312l120 500c30.667 9.33301 63.834 16.833 99.501 22.5s67.5 8.5 95.5 8.5c30 0 55.833 -4.16699 77.5 -12.5s39.167 -19.666 52.5 -33.999s23.166 -31.666 29.499 -51.999s9.5 -42.5 9.5 -66.5c0 -15.333 -1.33301 -31.5 -4 -48.5
s-6 -34.167 -10 -51.5l-64 -266h-93l59 246c4.66699 18.667 9.16699 37.667 13.5 57s6.5 37.666 6.5 54.999c0 26.667 -7.33301 48.834 -22 66.501s-42 26.5 -82 26.5c-16.667 0 -33 -1 -49 -3s-29.333 -4.66699 -40 -8zM555 707.998l-169 -128l-40 49l158 151z" />
    <glyph glyph-name="Ncommaaccent" unicode="&#x145;" horiz-adv-x="698" 
d="M528 0l-42.9941 131.999c-16.667 49.333 -34.834 99.333 -54.501 150s-39.834 99.834 -60.501 147.501s-41 89.167 -61 124.5l-133 -554h-95l166 693h83c21.333 -36 43.166 -76.833 65.499 -122.5s43.666 -92.5 63.999 -140.5s39.166 -95 56.499 -141
s31.666 -87.333 42.999 -124l124 528h95l-165 -693h-85zM379.006 -50.001c-3.33301 -19.333 -7.99902 -37.334 -13.999 -54.001s-14.5 -31.167 -25.5 -43.5s-24.5 -22 -40.5 -29s-35.667 -10.5 -59 -10.5c-7.33301 0 -14.833 0.5 -22.5 1.5s-13.834 2.16699 -18.501 3.5
l14 55c1.33301 -0.666992 3.5 -1 6.5 -1h7.5c18 0 31.5 5.33301 40.5 16s17.167 31.334 24.5 62.001h87z" />
    <glyph glyph-name="ncommaaccent" unicode="&#x146;" horiz-adv-x="551" 
d="M169 0l-93 -0.00195312l120 500c30.667 9.33301 63.834 16.833 99.501 22.5s67.5 8.5 95.5 8.5c30 0 55.833 -4.16699 77.5 -12.5s39.167 -19.666 52.5 -33.999s23.166 -31.666 29.499 -51.999s9.5 -42.5 9.5 -66.5c0 -15.333 -1.33301 -31.5 -4 -48.5
s-6 -34.167 -10 -51.5l-64 -266h-93l59 246c4.66699 18.667 9.16699 37.667 13.5 57s6.5 37.666 6.5 54.999c0 26.667 -7.33301 48.834 -22 66.501s-42 26.5 -82 26.5c-16.667 0 -33 -1 -49 -3s-29.333 -4.66699 -40 -8zM311 -50.002
c-3.33301 -19.333 -7.99902 -37.334 -13.999 -54.001s-14.5 -31.167 -25.5 -43.5s-24.5 -22 -40.5 -29s-35.667 -10.5 -59 -10.5c-7.33301 0 -14.833 0.5 -22.5 1.5s-13.834 2.16699 -18.501 3.5l14 55c1.33301 -0.666992 3.5 -1 6.5 -1h7.5c18 0 31.5 5.33301 40.5 16
s17.167 31.334 24.5 62.001h87z" />
    <glyph glyph-name="Ncaron" unicode="&#x147;" horiz-adv-x="698" 
d="M528 0l-42.9941 131.999c-16.667 49.333 -34.834 99.333 -54.501 150s-39.834 99.834 -60.501 147.501s-41 89.167 -61 124.5l-133 -554h-95l166 693h83c21.333 -36 43.166 -76.833 65.499 -122.5s43.666 -92.5 63.999 -140.5s39.166 -95 56.499 -141
s31.666 -87.333 42.999 -124l124 528h95l-165 -693h-85zM541.006 842.999l112 82l33 -45l-162 -139l-106 148l44 41z" />
    <glyph glyph-name="ncaron" unicode="&#x148;" horiz-adv-x="551" 
d="M169 0l-93 -0.00195312l120 500c30.667 9.33301 63.834 16.833 99.501 22.5s67.5 8.5 95.5 8.5c30 0 55.833 -4.16699 77.5 -12.5s39.167 -19.666 52.5 -33.999s23.166 -31.666 29.499 -51.999s9.5 -42.5 9.5 -66.5c0 -15.333 -1.33301 -31.5 -4 -48.5
s-6 -34.167 -10 -51.5l-64 -266h-93l59 246c4.66699 18.667 9.16699 37.667 13.5 57s6.5 37.666 6.5 54.999c0 26.667 -7.33301 48.834 -22 66.501s-42 26.5 -82 26.5c-16.667 0 -33 -1 -49 -3s-29.333 -4.66699 -40 -8zM436 686.998l112 82l33 -45l-162 -139l-106 148
l44 41z" />
    <glyph glyph-name="napostrophe" unicode="&#x149;" horiz-adv-x="551" 
d="M169 0l-93 -0.00195312l120 500c30.667 9.33301 63.834 16.833 99.501 22.5s67.5 8.5 95.5 8.5c30 0 55.833 -4.16699 77.5 -12.5s39.167 -19.666 52.5 -33.999s23.166 -31.666 29.499 -51.999s9.5 -42.5 9.5 -66.5c0 -15.333 -1.33301 -31.5 -4 -48.5
s-6 -34.167 -10 -51.5l-64 -266h-93l59 246c4.66699 18.667 9.16699 37.667 13.5 57s6.5 37.666 6.5 54.999c0 26.667 -7.33301 48.834 -22 66.501s-42 26.5 -82 26.5c-16.667 0 -33 -1 -49 -3s-29.333 -4.66699 -40 -8zM316 775.998c-9.33301 -42 -24 -80.667 -44 -116
s-41.333 -64.333 -64 -87l-59 22c20 32 35.667 62.167 47 90.5s19.333 58.5 24 90.5h96z" />
    <glyph glyph-name="Eng" unicode="&#x14a;" horiz-adv-x="698" 
d="M613 0c-7.33301 -30.667 -15.1641 -57.667 -23.4971 -81s-19.166 -42.833 -32.499 -58.5s-30.5 -27.5 -51.5 -35.5s-47.833 -12 -80.5 -12c-9.33301 0 -20.666 1.33301 -33.999 4s-22.666 5.66699 -27.999 9l24 70c4 -2 9.66699 -3.83301 17 -5.5
s15.666 -2.5 24.999 -2.5c26.667 0 45.667 8.33301 57 25s20.666 40 27.999 70l9 38c-12 39.333 -26.333 82.833 -43 130.5s-34.5 95.667 -53.5 144s-38.667 95 -59 140s-39.833 84.5 -58.5 118.5l-133 -554h-95l166 693h83c21.333 -36 43.166 -76.833 65.499 -122.5
s43.666 -92.5 63.999 -140.5s39.166 -95 56.499 -141s31.666 -87.333 42.999 -124l124 528h95z" />
    <glyph glyph-name="eng" unicode="&#x14b;" horiz-adv-x="551" 
d="M448 246c4.66699 18.667 9.16797 37.665 13.501 56.998s6.5 37.666 6.5 54.999c0 26.667 -7.33301 48.834 -22 66.501s-42 26.5 -82 26.5c-16.667 0 -33 -1 -49 -3s-29.333 -4.66699 -40 -8l-106 -440h-93l120 500c30.667 9.33301 63.834 16.833 99.501 22.5
s67.5 8.5 95.5 8.5c30 0 55.833 -4.16699 77.5 -12.5s39.167 -19.666 52.5 -33.999s23.166 -31.666 29.499 -51.999s9.5 -42.5 9.5 -66.5c0 -15.333 -1.33301 -31.5 -4 -48.5s-6 -34.167 -10 -51.5l-64 -266c-7.33301 -30.667 -15 -57.667 -23 -81
s-18.833 -42.833 -32.5 -58.5s-30.834 -27.5 -51.501 -35.5s-47.334 -12 -80.001 -12c-9.33301 0 -20.666 1.33301 -33.999 4s-22.666 5.66699 -27.999 9l24 70c4 -2 9.66699 -3.83301 17 -5.5s15.666 -2.5 24.999 -2.5c26 0 45 8.33301 57 25s21.667 40 29 70z" />
    <glyph glyph-name="Omacron" unicode="&#x14c;" horiz-adv-x="739" 
d="M525 709c36.667 0 70.499 -5.49902 101.499 -16.499s57.667 -27.5 80 -49.5s39.666 -49.5 51.999 -82.5s18.5 -71.5 18.5 -115.5c0 -55.333 -8.5 -110.333 -25.5 -165s-42.167 -103.834 -75.5 -147.501s-75 -79.167 -125 -106.5s-108.333 -41 -175 -41
c-37.333 0 -71.333 5.5 -102 16.5s-57.167 27.5 -79.5 49.5s-39.666 49.5 -51.999 82.5s-18.5 71.5 -18.5 115.5c0 54.667 8.33301 109.5 25 164.5s41.834 104.333 75.501 148s75.5 79.167 125.5 106.5s108.333 41 175 41zM385.999 69.001c44.667 0 85 10.833 121 32.5
s66.5 49.834 91.5 84.501s44.167 73.667 57.5 117s20 86.666 20 129.999c0 59.333 -12.833 106.166 -38.5 140.499s-66.5 51.5 -122.5 51.5c-45.333 0 -85.833 -10.833 -121.5 -32.5s-66 -49.834 -91 -84.501s-44.167 -73.667 -57.5 -117s-20 -86.666 -20 -129.999
c0 -59.333 12.833 -106.166 38.5 -140.499s66.5 -51.5 122.5 -51.5zM434.999 867.001h280l-17 -72h-280z" />
    <glyph glyph-name="omacron" unicode="&#x14d;" horiz-adv-x="555" 
d="M275 -13c-54.667 0 -97.5 16.167 -128.5 48.5s-46.5 76.833 -46.5 133.5c0 38.667 5.5 79.334 16.5 122.001s28.5 82 52.5 118s55 65.667 93 89s84 35 138 35c54.667 0 97.5 -16.167 128.5 -48.5s46.5 -76.833 46.5 -133.5c0 -38.667 -5.5 -79.334 -16.5 -122.001
s-28.5 -82 -52.5 -118s-55 -65.667 -93 -89s-84 -35 -138 -35zM291 66c30 0 56.833 8.66699 80.5 26s43.667 39.5 60 66.5s28.833 56.833 37.5 89.5s13 64.334 13 95.001c0 34 -7.33301 61 -22 81s-40 30 -76 30c-30 0 -56.833 -8.66699 -80.5 -26s-43.667 -39.5 -60 -66.5
s-28.833 -56.833 -37.5 -89.5s-13 -64.334 -13 -95.001c0 -34 7.33301 -61 22 -81s40 -30 76 -30zM306 711h280l-17 -72h-280z" />
    <glyph glyph-name="Obreve" unicode="&#x14e;" horiz-adv-x="739" 
d="M525 709c36.667 0 70.499 -5.49902 101.499 -16.499s57.667 -27.5 80 -49.5s39.666 -49.5 51.999 -82.5s18.5 -71.5 18.5 -115.5c0 -55.333 -8.5 -110.333 -25.5 -165s-42.167 -103.834 -75.5 -147.501s-75 -79.167 -125 -106.5s-108.333 -41 -175 -41
c-37.333 0 -71.333 5.5 -102 16.5s-57.167 27.5 -79.5 49.5s-39.666 49.5 -51.999 82.5s-18.5 71.5 -18.5 115.5c0 54.667 8.33301 109.5 25 164.5s41.834 104.333 75.501 148s75.5 79.167 125.5 106.5s108.333 41 175 41zM385.999 69.001c44.667 0 85 10.833 121 32.5
s66.5 49.834 91.5 84.501s44.167 73.667 57.5 117s20 86.666 20 129.999c0 59.333 -12.833 106.166 -38.5 140.499s-66.5 51.5 -122.5 51.5c-45.333 0 -85.833 -10.833 -121.5 -32.5s-66 -49.834 -91 -84.501s-44.167 -73.667 -57.5 -117s-20 -86.666 -20 -129.999
c0 -59.333 12.833 -106.166 38.5 -140.499s66.5 -51.5 122.5 -51.5zM561.999 766.001c-20 0 -37.334 3 -52.001 9s-26.5 14 -35.5 24s-15.667 21.5 -20 34.5s-6.5 26.5 -6.5 40.5c0 10.667 1 21 3 31h58c-0.666992 -2 -1 -6 -1 -12c0 -19.333 5.33301 -34.5 16 -45.5
s26 -16.5 46 -16.5c14 0 26 2.5 36 7.5s18.333 11.167 25 18.5s11.834 15.333 15.501 24s6.5 16.667 8.5 24h62c-6 -44 -22.667 -78.167 -50 -102.5s-62.333 -36.5 -105 -36.5z" />
    <glyph glyph-name="obreve" unicode="&#x14f;" horiz-adv-x="555" 
d="M275 -13c-54.667 0 -97.5 16.167 -128.5 48.5s-46.5 76.833 -46.5 133.5c0 38.667 5.5 79.334 16.5 122.001s28.5 82 52.5 118s55 65.667 93 89s84 35 138 35c54.667 0 97.5 -16.167 128.5 -48.5s46.5 -76.833 46.5 -133.5c0 -38.667 -5.5 -79.334 -16.5 -122.001
s-28.5 -82 -52.5 -118s-55 -65.667 -93 -89s-84 -35 -138 -35zM291 66c30 0 56.833 8.66699 80.5 26s43.667 39.5 60 66.5s28.833 56.833 37.5 89.5s13 64.334 13 95.001c0 34 -7.33301 61 -22 81s-40 30 -76 30c-30 0 -56.833 -8.66699 -80.5 -26s-43.667 -39.5 -60 -66.5
s-28.833 -56.833 -37.5 -89.5s-13 -64.334 -13 -95.001c0 -34 7.33301 -61 22 -81s40 -30 76 -30zM434 610c-20 0 -37.334 3 -52.001 9s-26.5 14 -35.5 24s-15.667 21.5 -20 34.5s-6.5 26.5 -6.5 40.5c0 10.667 1 21 3 31h58c-0.666992 -2 -1 -6 -1 -12
c0 -19.333 5.33301 -34.5 16 -45.5s26 -16.5 46 -16.5c14 0 26 2.5 36 7.5s18.333 11.167 25 18.5s11.834 15.333 15.501 24s6.5 16.667 8.5 24h62c-6 -44 -22.667 -78.167 -50 -102.5s-62.333 -36.5 -105 -36.5z" />
    <glyph glyph-name="Ohungarumlaut" unicode="&#x150;" horiz-adv-x="739" 
d="M525 709c36.667 0 70.499 -5.49902 101.499 -16.499s57.667 -27.5 80 -49.5s39.666 -49.5 51.999 -82.5s18.5 -71.5 18.5 -115.5c0 -55.333 -8.5 -110.333 -25.5 -165s-42.167 -103.834 -75.5 -147.501s-75 -79.167 -125 -106.5s-108.333 -41 -175 -41
c-37.333 0 -71.333 5.5 -102 16.5s-57.167 27.5 -79.5 49.5s-39.666 49.5 -51.999 82.5s-18.5 71.5 -18.5 115.5c0 54.667 8.33301 109.5 25 164.5s41.834 104.333 75.501 148s75.5 79.167 125.5 106.5s108.333 41 175 41zM385.999 69.001c44.667 0 85 10.833 121 32.5
s66.5 49.834 91.5 84.501s44.167 73.667 57.5 117s20 86.666 20 129.999c0 59.333 -12.833 106.166 -38.5 140.499s-66.5 51.5 -122.5 51.5c-45.333 0 -85.833 -10.833 -121.5 -32.5s-66 -49.834 -91 -84.501s-44.167 -73.667 -57.5 -117s-20 -86.666 -20 -129.999
c0 -59.333 12.833 -106.166 38.5 -140.499s66.5 -51.5 122.5 -51.5zM621.999 867.001l-151 -129l-39 45l139 149zM789.999 865.001l-151 -127l-39 43l139 149z" />
    <glyph glyph-name="ohungarumlaut" unicode="&#x151;" horiz-adv-x="555" 
d="M275 -13c-54.667 0 -97.5 16.167 -128.5 48.5s-46.5 76.833 -46.5 133.5c0 38.667 5.5 79.334 16.5 122.001s28.5 82 52.5 118s55 65.667 93 89s84 35 138 35c54.667 0 97.5 -16.167 128.5 -48.5s46.5 -76.833 46.5 -133.5c0 -38.667 -5.5 -79.334 -16.5 -122.001
s-28.5 -82 -52.5 -118s-55 -65.667 -93 -89s-84 -35 -138 -35zM291 66c30 0 56.833 8.66699 80.5 26s43.667 39.5 60 66.5s28.833 56.833 37.5 89.5s13 64.334 13 95.001c0 34 -7.33301 61 -22 81s-40 30 -76 30c-30 0 -56.833 -8.66699 -80.5 -26s-43.667 -39.5 -60 -66.5
s-28.833 -56.833 -37.5 -89.5s-13 -64.334 -13 -95.001c0 -34 7.33301 -61 22 -81s40 -30 76 -30zM493 711l-151 -129l-39 45l139 149zM661 709l-151 -127l-39 43l139 149z" />
    <glyph glyph-name="OE" unicode="&#x152;" horiz-adv-x="960" 
d="M430 -7c-51.333 0 -96.165 6.33301 -134.498 19s-70.166 30.667 -95.499 54s-44.333 51.5 -57 84.5s-19 70.167 -19 111.5c0 57.333 9 112.5 27 165.5s46 99.667 84 140s86.5 72.5 145.5 96.5s129.5 36 211.5 36c17.333 0 34.166 -0.666992 50.499 -2
s31.166 -3 44.499 -5h372l-19 -81h-298l-50 -209h263l-19 -79h-262l-59 -243h321l-19 -81h-383c-18.667 -2 -37.334 -3.66699 -56.001 -5s-34.667 -2 -48 -2zM567.001 618c-52.667 0 -100.167 -8.83301 -142.5 -26.5s-78.166 -42.167 -107.499 -73.5s-52 -68.833 -68 -112.5
s-24 -91.5 -24 -143.5c0 -58.667 17 -104.5 51 -137.5s88 -49.5 162 -49.5c16 0 31.167 0.5 45.5 1.5s26.166 2.16699 35.499 3.5l127 533c-7.33301 1.33301 -17 2.5 -29 3.5s-28.667 1.5 -50 1.5z" />
    <glyph glyph-name="oe" unicode="&#x153;" horiz-adv-x="881" 
d="M291 66c30 0 56.833 8.66699 80.5 26s43.667 39.5 60 66.5s28.833 56.833 37.5 89.5s13 64.334 13 95.001c0 34 -7.33301 61 -22 81s-40 30 -76 30c-30 0 -56.833 -8.66699 -80.5 -26s-43.667 -39.5 -60 -66.5s-28.833 -56.833 -37.5 -89.5s-13 -64.334 -13 -95.001
c0 -34 7.33301 -61 22 -81s40 -30 76 -30zM567 273c38.667 1.33301 73.999 3.83105 105.999 7.49805s59.667 10 83 19s41.5 21.167 54.5 36.5s19.5 35.333 19.5 60c0 6 -1.16699 12.333 -3.5 19s-6.33301 12.834 -12 18.501s-13.5 10.334 -23.5 14.001s-22.333 5.5 -37 5.5
c-23.333 0 -45.166 -5 -65.499 -15s-38.5 -23.167 -54.5 -39.5s-29.667 -35.333 -41 -57s-20 -44.5 -26 -68.5zM666.999 -13.002c-46 0 -84.832 9.66895 -116.499 29.002s-52.5 46.333 -62.5 81c-21.333 -30 -49.666 -55.833 -84.999 -77.5s-78 -32.5 -128 -32.5
c-54.667 0 -97.5 16.167 -128.5 48.5s-46.5 76.833 -46.5 133.5c0 38.667 5.5 79.334 16.5 122.001s28.5 82 52.5 118s55 65.667 93 89s84 35 138 35c42 0 76.333 -10 103 -30s43.334 -47 50.001 -81c23.333 32 52.666 58.333 87.999 79s77 31 125 31
c27.333 0 50.833 -3.5 70.5 -10.5s35.667 -16.5 48 -28.5s21.5 -25.833 27.5 -41.5s9 -31.834 9 -48.501c0 -31.333 -5.66699 -57.833 -17 -79.5s-26.333 -39.834 -45 -54.501s-40.5 -26 -65.5 -34s-51 -14.333 -78 -19s-54.333 -7.83398 -82 -9.50098
s-53.834 -3.16699 -78.501 -4.5c0 -3.33301 -0.166992 -6.33301 -0.5 -9s-0.5 -5.66699 -0.5 -9c0 -23.333 3.33301 -42.333 10 -57s16.167 -26.5 28.5 -35.5s27.333 -15.167 45 -18.5s37.5 -5 59.5 -5c12.667 0 25.5 1.33301 38.5 4s25.333 5.66699 37 9s22 7 31 11
s15.5 7.33301 19.5 10l8 -79c-6 -4 -14.667 -8 -26 -12s-24.333 -7.83301 -39 -11.5s-30.334 -6.66699 -47.001 -9s-34 -3.5 -52 -3.5z" />
    <glyph glyph-name="Racute" unicode="&#x154;" horiz-adv-x="609" 
d="M423 700c74 0 132.668 -15 176.001 -45s65 -74 65 -132c0 -58.667 -17.167 -107.834 -51.5 -147.501s-82.5 -68.167 -144.5 -85.5c8 -14 17.333 -31.833 28 -53.5s21.667 -45.667 33 -72s22.333 -53.666 33 -81.999s20 -55.833 28 -82.5h-99l-29 77
c-10 26 -20.167 51 -30.5 75s-20.666 46.5 -30.999 67.5s-19.833 39.5 -28.5 55.5c-8.66699 -0.666992 -17.334 -1.16699 -26.001 -1.5s-17.334 -0.5 -26.001 -0.5h-77l-65 -273h-97l164 684c28 6.66699 57.667 11 89 13s61 3 89 3zM411.001 618
c-47.333 0 -76.002 -1.33301 -86.002 -4l-63 -262h59c27.333 0 55.333 2 84 6s54.834 11.833 78.501 23.5s43 28 58 49s22.5 48.833 22.5 83.5c0 37.333 -14.167 64 -42.5 80s-65.166 24 -110.499 24zM593.999 864l-169 -128l-40 49l158 151z" />
    <glyph glyph-name="racute" unicode="&#x155;" horiz-adv-x="372" 
d="M374 531c8 0 16.9971 -0.331055 26.9971 -0.998047s19.833 -1.83398 29.5 -3.50098s18.5 -3.33398 26.5 -5.00098s14 -3.5 18 -5.5l-27 -81c-13.333 5.33301 -28.666 9.33301 -45.999 12s-34 4 -50 4c-14 0 -27.833 -1 -41.5 -3s-25.5 -4.66699 -35.5 -8l-106 -440h-93
l120 500c26.667 9.33301 55.334 16.833 86.001 22.5s61.334 8.5 92.001 8.5zM495.997 708.002l-169 -128l-40 49l158 151z" />
    <glyph glyph-name="Rcommaaccent" unicode="&#x156;" horiz-adv-x="609" 
d="M423 700c74 0 132.668 -15 176.001 -45s65 -74 65 -132c0 -58.667 -17.167 -107.834 -51.5 -147.501s-82.5 -68.167 -144.5 -85.5c8 -14 17.333 -31.833 28 -53.5s21.667 -45.667 33 -72s22.333 -53.666 33 -81.999s20 -55.833 28 -82.5h-99l-29 77
c-10 26 -20.167 51 -30.5 75s-20.666 46.5 -30.999 67.5s-19.833 39.5 -28.5 55.5c-8.66699 -0.666992 -17.334 -1.16699 -26.001 -1.5s-17.334 -0.5 -26.001 -0.5h-77l-65 -273h-97l164 684c28 6.66699 57.667 11 89 13s61 3 89 3zM411.001 618
c-47.333 0 -76.002 -1.33301 -86.002 -4l-63 -262h59c27.333 0 55.333 2 84 6s54.834 11.833 78.501 23.5s43 28 58 49s22.5 48.833 22.5 83.5c0 37.333 -14.167 64 -42.5 80s-65.166 24 -110.499 24zM365.999 -50c-3.33301 -19.333 -7.99902 -37.334 -13.999 -54.001
s-14.5 -31.167 -25.5 -43.5s-24.5 -22 -40.5 -29s-35.667 -10.5 -59 -10.5c-7.33301 0 -14.833 0.5 -22.5 1.5s-13.834 2.16699 -18.501 3.5l14 55c1.33301 -0.666992 3.5 -1 6.5 -1h7.5c18 0 31.5 5.33301 40.5 16s17.167 31.334 24.5 62.001h87z" />
    <glyph glyph-name="rcommaaccent" unicode="&#x157;" horiz-adv-x="372" 
d="M374 531c8 0 16.9971 -0.331055 26.9971 -0.998047s19.833 -1.83398 29.5 -3.50098s18.5 -3.33398 26.5 -5.00098s14 -3.5 18 -5.5l-27 -81c-13.333 5.33301 -28.666 9.33301 -45.999 12s-34 4 -50 4c-14 0 -27.833 -1 -41.5 -3s-25.5 -4.66699 -35.5 -8l-106 -440h-93
l120 500c26.667 9.33301 55.334 16.833 86.001 22.5s61.334 8.5 92.001 8.5zM155.997 -49.998c-3.33301 -19.333 -7.99902 -37.334 -13.999 -54.001s-14.5 -31.167 -25.5 -43.5s-24.5 -22 -40.5 -29s-35.667 -10.5 -59 -10.5c-7.33301 0 -14.833 0.5 -22.5 1.5
s-13.834 2.16699 -18.501 3.5l14 55c1.33301 -0.666992 3.5 -1 6.5 -1h7.5c18 0 31.5 5.33301 40.5 16s17.167 31.334 24.5 62.001h87z" />
    <glyph glyph-name="Rcaron" unicode="&#x158;" horiz-adv-x="609" 
d="M423 700c74 0 132.668 -15 176.001 -45s65 -74 65 -132c0 -58.667 -17.167 -107.834 -51.5 -147.501s-82.5 -68.167 -144.5 -85.5c8 -14 17.333 -31.833 28 -53.5s21.667 -45.667 33 -72s22.333 -53.666 33 -81.999s20 -55.833 28 -82.5h-99l-29 77
c-10 26 -20.167 51 -30.5 75s-20.666 46.5 -30.999 67.5s-19.833 39.5 -28.5 55.5c-8.66699 -0.666992 -17.334 -1.16699 -26.001 -1.5s-17.334 -0.5 -26.001 -0.5h-77l-65 -273h-97l164 684c28 6.66699 57.667 11 89 13s61 3 89 3zM411.001 618
c-47.333 0 -76.002 -1.33301 -86.002 -4l-63 -262h59c27.333 0 55.333 2 84 6s54.834 11.833 78.501 23.5s43 28 58 49s22.5 48.833 22.5 83.5c0 37.333 -14.167 64 -42.5 80s-65.166 24 -110.499 24zM475.999 843l112 82l33 -45l-162 -139l-106 148l44 41z" />
    </font>
</defs>
</svg>
